  0
SECTION
  2
HEADER
  9
$ACADVER
  1
AC1018
  9
$ACADMAINTVER
 70
   104
  9
$DWGCODEPAGE
  3
ANSI_1252
  9
$LASTSAVEDBY
  1
Dennis
  9
$INSBASE
 10
0.0
 20
0.0
 30
0.0
  9
$EXTMIN
 10
3332.600562701396
 20
42217.91893554034
 30
-0.0015258207003583
  9
$EXTMAX
 10
3713.583213476103
 20
42678.70100585934
 30
0.0000000349246037
  9
$LIMMIN
 10
7745.235280411311
 20
45170.57018819427
  9
$LIMMAX
 10
8688.370072504804
 20
45763.99103806643
  9
$ORTHOMODE
 70
     0
  9
$REGENMODE
 70
     1
  9
$FILLMODE
 70
     1
  9
$QTEXTMODE
 70
     0
  9
$MIRRTEXT
 70
     0
  9
$LTSCALE
 40
1.0
  9
$ATTMODE
 70
     1
  9
$TEXTSIZE
 40
5.0
  9
$TRACEWID
 40
300.0
  9
$TEXTSTYLE
  7
2
  9
$CLAYER
  8
Text
  9
$CELTYPE
  6
BYLAYER
  9
$CECOLOR
 62
   256
  9
$CELTSCALE
 40
1.0
  9
$DISPSILH
 70
     0
  9
$DIMSCALE
 40
2.0
  9
$DIMASZ
 40
3.0
  9
$DIMEXO
 40
1.0
  9
$DIMDLI
 40
1.0
  9
$DIMRND
 40
0.0
  9
$DIMDLE
 40
0.0
  9
$DIMEXE
 40
1.0
  9
$DIMTP
 40
0.0
  9
$DIMTM
 40
0.0
  9
$DIMTXT
 40
5.0
  9
$DIMCEN
 40
0.09
  9
$DIMTSZ
 40
0.0
  9
$DIMTOL
 70
     0
  9
$DIMLIM
 70
     0
  9
$DIMTIH
 70
     0
  9
$DIMTOH
 70
     0
  9
$DIMSE1
 70
     0
  9
$DIMSE2
 70
     0
  9
$DIMTAD
 70
     1
  9
$DIMZIN
 70
     0
  9
$DIMBLK
  1

  9
$DIMASO
 70
     1
  9
$DIMSHO
 70
     1
  9
$DIMPOST
  1

  9
$DIMAPOST
  1

  9
$DIMALT
 70
     0
  9
$DIMALTD
 70
     2
  9
$DIMALTF
 40
25.4
  9
$DIMLFAC
 40
1.0
  9
$DIMTOFL
 70
     0
  9
$DIMTVP
 40
0.0
  9
$DIMTIX
 70
     0
  9
$DIMSOXD
 70
     0
  9
$DIMSAH
 70
     0
  9
$DIMBLK1
  1

  9
$DIMBLK2
  1

  9
$DIMSTYLE
  2
Dim 2
  9
$DIMCLRD
 70
     7
  9
$DIMCLRE
 70
     7
  9
$DIMCLRT
 70
     7
  9
$DIMTFAC
 40
1.0
  9
$DIMGAP
 40
1.0
  9
$DIMJUST
 70
     0
  9
$DIMSD1
 70
     0
  9
$DIMSD2
 70
     0
  9
$DIMTOLJ
 70
     1
  9
$DIMTZIN
 70
     0
  9
$DIMALTZ
 70
     0
  9
$DIMALTTZ
 70
     0
  9
$DIMUPT
 70
     0
  9
$DIMDEC
 70
     0
  9
$DIMTDEC
 70
     0
  9
$DIMALTU
 70
     2
  9
$DIMALTTD
 70
     2
  9
$DIMTXSTY
  7
2
  9
$DIMAUNIT
 70
     0
  9
$DIMADEC
 70
     0
  9
$DIMALTRND
 40
0.0
  9
$DIMAZIN
 70
     0
  9
$DIMDSEP
 70
    46
  9
$DIMATFIT
 70
     3
  9
$DIMFRAC
 70
     0
  9
$DIMLDRBLK
  1

  9
$DIMLUNIT
 70
     2
  9
$DIMLWD
 70
    -2
  9
$DIMLWE
 70
    -2
  9
$DIMTMOVE
 70
     0
  9
$LUNITS
 70
     2
  9
$LUPREC
 70
     1
  9
$SKETCHINC
 40
100.0
  9
$FILLETRAD
 40
0.0
  9
$AUNITS
 70
     0
  9
$AUPREC
 70
     1
  9
$MENU
  1
ACAD
  9
$ELEVATION
 40
0.0
  9
$PELEVATION
 40
0.0
  9
$THICKNESS
 40
0.0
  9
$LIMCHECK
 70
     0
  9
$CHAMFERA
 40
0.0
  9
$CHAMFERB
 40
0.0
  9
$CHAMFERC
 40
0.0
  9
$CHAMFERD
 40
0.0
  9
$SKPOLY
 70
     1
  9
$TDCREATE
 40
2452452.799518588
  9
$TDUCREATE
 40
2452452.257851922
  9
$TDUPDATE
 40
2457470.704747407
  9
$TDUUPDATE
 40
2457470.163080741
  9
$TDINDWG
 40
0.8750603356
  9
$TDUSRTIMER
 40
0.8750603356
  9
$USRTIMER
 70
     1
  9
$ANGBASE
 50
0.0
  9
$ANGDIR
 70
     0
  9
$PDMODE
 70
     0
  9
$PDSIZE
 40
10.0
  9
$PLINEWID
 40
0.0
  9
$SPLFRAME
 70
     0
  9
$SPLINETYPE
 70
     6
  9
$SPLINESEGS
 70
     8
  9
$HANDSEED
  5
419E
  9
$SURFTAB1
 70
     9
  9
$SURFTAB2
 70
     6
  9
$SURFTYPE
 70
     6
  9
$SURFU
 70
     6
  9
$SURFV
 70
     6
  9
$UCSBASE
  2

  9
$UCSNAME
  2

  9
$UCSORG
 10
0.0
 20
0.0
 30
0.0
  9
$UCSXDIR
 10
1.0
 20
0.0
 30
0.0
  9
$UCSYDIR
 10
0.0
 20
1.0
 30
0.0
  9
$UCSORTHOREF
  2

  9
$UCSORTHOVIEW
 70
     0
  9
$UCSORGTOP
 10
0.0
 20
0.0
 30
0.0
  9
$UCSORGBOTTOM
 10
0.0
 20
0.0
 30
0.0
  9
$UCSORGLEFT
 10
0.0
 20
0.0
 30
0.0
  9
$UCSORGRIGHT
 10
0.0
 20
0.0
 30
0.0
  9
$UCSORGFRONT
 10
0.0
 20
0.0
 30
0.0
  9
$UCSORGBACK
 10
0.0
 20
0.0
 30
0.0
  9
$PUCSBASE
  2

  9
$PUCSNAME
  2

  9
$PUCSORG
 10
0.0
 20
0.0
 30
0.0
  9
$PUCSXDIR
 10
1.0
 20
0.0
 30
0.0
  9
$PUCSYDIR
 10
0.0
 20
1.0
 30
0.0
  9
$PUCSORTHOREF
  2

  9
$PUCSORTHOVIEW
 70
     0
  9
$PUCSORGTOP
 10
0.0
 20
0.0
 30
0.0
  9
$PUCSORGBOTTOM
 10
0.0
 20
0.0
 30
0.0
  9
$PUCSORGLEFT
 10
0.0
 20
0.0
 30
0.0
  9
$PUCSORGRIGHT
 10
0.0
 20
0.0
 30
0.0
  9
$PUCSORGFRONT
 10
0.0
 20
0.0
 30
0.0
  9
$PUCSORGBACK
 10
0.0
 20
0.0
 30
0.0
  9
$USERI1
 70
    11
  9
$USERI2
 70
   110
  9
$USERI3
 70
     1
  9
$USERI4
 70
   250
  9
$USERI5
 70
   280
  9
$USERR1
 40
100.0
  9
$USERR2
 40
450.0
  9
$USERR3
 40
1.0
  9
$USERR4
 40
0.0
  9
$USERR5
 40
0.0
  9
$WORLDVIEW
 70
     0
  9
$SHADEDGE
 70
     3
  9
$SHADEDIF
 70
    70
  9
$TILEMODE
 70
     1
  9
$MAXACTVP
 70
    16
  9
$PINSBASE
 10
0.0
 20
0.0
 30
0.0
  9
$PLIMCHECK
 70
     0
  9
$PEXTMIN
 10
-9.03327973702062
 20
409.6180982396285
 30
0.0
  9
$PEXTMAX
 10
181.1452988814333
 20
686.2211537137191
 30
0.0
  9
$PLIMMIN
 10
-21.31373901966532
 20
398.1466391030053
  9
$PLIMMAX
 10
188.6595886170535
 20
695.1784689369897
  9
$UNITMODE
 70
     0
  9
$VISRETAIN
 70
     0
  9
$PLINEGEN
 70
     0
  9
$PSLTSCALE
 70
     0
  9
$TREEDEPTH
 70
     0
  9
$CMLSTYLE
  2
STANDARD
  9
$CMLJUST
 70
     0
  9
$CMLSCALE
 40
1.0
  9
$PROXYGRAPHICS
 70
     1
  9
$MEASUREMENT
 70
     0
  9
$CELWEIGHT
370
    -1
  9
$ENDCAPS
280
     0
  9
$JOINSTYLE
280
     0
  9
$LWDISPLAY
290
     1
  9
$INSUNITS
 70
     0
  9
$HYPERLINKBASE
  1

  9
$STYLESHEET
  1
Hebel monochrome.ctb
  9
$XEDIT
290
     1
  9
$CEPSNTYPE
380
     0
  9
$PSTYLEMODE
290
     1
  9
$FINGERPRINTGUID
  2
{563ABA43-34A0-4C26-9C44-B165A630EF25}
  9
$VERSIONGUID
  2
{3BD575E3-1A8F-4B75-96A7-2645D5D27352}
  9
$EXTNAMES
290
     1
  9
$PSVPSCALE
 40
0.0
  9
$OLESTARTUP
290
     0
  9
$SORTENTS
280
   127
  9
$INDEXCTL
280
     0
  9
$HIDETEXT
280
     0
  9
$XCLIPFRAME
290
     0
  9
$HALOGAP
280
     0
  9
$OBSCOLOR
 70
   257
  9
$OBSLTYPE
280
     0
  9
$INTERSECTIONDISPLAY
280
     0
  9
$INTERSECTIONCOLOR
 70
   257
  9
$DIMASSOC
280
     2
  9
$PROJECTNAME
  1

  0
ENDSEC
  0
SECTION
  2
CLASSES
  0
CLASS
  1
DICTIONARYVAR
  2
AcDbDictionaryVar
  3
ObjectDBX Classes
 90
        0
 91
       10
280
     0
281
     0
  0
CLASS
  1
RASTERVARIABLES
  2
AcDbRasterVariables
  3
ISM
 90
        0
 91
        1
280
     0
281
     0
  0
CLASS
  1
ACDBDICTIONARYWDFLT
  2
AcDbDictionaryWithDefault
  3
ObjectDBX Classes
 90
        0
 91
        1
280
     0
281
     0
  0
CLASS
  1
DIMASSOC
  2
AcDbDimAssoc
  3
"AcDbDimAssoc|Product Desc:     AcDim ARX App For Dimension|Company:          Autodesk, Inc.|WEB Address:      www.autodesk.com"
 90
        0
 91
        1
280
     0
281
     0
  0
CLASS
  1
MATERIAL
  2
AcDbMaterial
  3
ObjectDBX Classes
 90
     1153
 91
        3
280
     0
281
     0
  0
CLASS
  1
VISUALSTYLE
  2
AcDbVisualStyle
  3
ObjectDBX Classes
 90
     4095
 91
       26
280
     0
281
     0
  0
CLASS
  1
TABLESTYLE
  2
AcDbTableStyle
  3
ObjectDBX Classes
 90
     4095
 91
        1
280
     0
281
     0
  0
CLASS
  1
SCALE
  2
AcDbScale
  3
ObjectDBX Classes
 90
     1153
 91
       33
280
     0
281
     0
  0
CLASS
  1
MLEADERSTYLE
  2
AcDbMLeaderStyle
  3
ACDB_MLEADERSTYLE_CLASS
 90
     4095
 91
        1
280
     0
281
     0
  0
CLASS
  1
EXACXREFPANELOBJECT
  2
ExAcXREFPanelObject
  3
EXAC_ESW
 90
     1025
 91
        1
280
     0
281
     0
  0
CLASS
  1
NPOCOLLECTION
  2
AcDbImpNonPersistentObjectsCollection
  3
ObjectDBX Classes
 90
     1153
 91
        1
280
     0
281
     0
  0
CLASS
  1
CELLSTYLEMAP
  2
AcDbCellStyleMap
  3
ObjectDBX Classes
 90
     1152
 91
        3
280
     0
281
     0
  0
CLASS
  1
IMAGE
  2
AcDbRasterImage
  3
ISM
 90
     2175
 91
        4
280
     0
281
     1
  0
CLASS
  1
IMAGEDEF_REACTOR
  2
AcDbRasterImageDefReactor
  3
ISM
 90
        1
 91
        4
280
     0
281
     0
  0
CLASS
  1
SORTENTSTABLE
  2
AcDbSortentsTable
  3
ObjectDBX Classes
 90
        0
 91
        5
280
     0
281
     0
  0
CLASS
  1
IMAGEDEF
  2
AcDbRasterImageDef
  3
ISM
 90
        0
 91
        4
280
     0
281
     0
  0
CLASS
  1
AEC_REFEDIT_STATUS_TRACKER
  2
AecDbRefEditStatusTracker
  3
AecArchBase50|Product Desc: Autodesk Architectural Desktop 2007 |Company: Autodesk,Inc. |WEB Address: www.autodesk.com
 90
      129
 91
        0
280
     0
281
     0
  0
CLASS
  1
ACDBSECTIONVIEWSTYLE
  2
AcDbSectionViewStyle
  3
ObjectDBX Classes
 90
     1025
 91
        1
280
     0
281
     0
  0
CLASS
  1
ACDBDETAILVIEWSTYLE
  2
AcDbDetailViewStyle
  3
ObjectDBX Classes
 90
     1025
 91
        1
280
     0
281
     0
  0
ENDSEC
  0
SECTION
  2
TABLES
  0
TABLE
  2
VPORT
  5
55B
102
{ACAD_XDICTIONARY
360
2FC5
102
}
330
0
100
AcDbSymbolTable
 70
     1
  0
VPORT
  5
2F34
330
55B
100
AcDbSymbolTableRecord
100
AcDbViewportTableRecord
  2
*Active
 70
     0
 10
0.0
 20
0.0
 11
1.0
 21
1.0
 12
-19664.45027427346
 22
8426.806078951514
 13
0.0
 23
0.0
 14
1.0
 24
1.0
 15
1900.0
 25
1900.0
 16
0.0
 26
0.0
 36
1.0
 17
23187.54216236222
 27
34067.94128341666
 37
1200.0
 40
557.9345291727276
 41
1.500641848523748
 42
50.0
 43
0.0
 44
0.0
 50
0.0
 51
0.0
 71
     0
 72
 20000
 73
     1
 74
     0
 75
     0
 76
     0
 77
     0
 78
     1
281
     0
 65
     1
110
0.0
120
0.0
130
0.0
111
1.0
121
0.0
131
0.0
112
0.0
122
1.0
132
0.0
 79
     0
146
0.0
1001
ACAD_NAV_VCDISPLAY
1070
     3
  0
ENDTAB
  0
TABLE
  2
LTYPE
  5
556
330
0
100
AcDbSymbolTable
 70
     4
  0
LTYPE
  5
557
330
556
100
AcDbSymbolTableRecord
100
AcDbLinetypeTableRecord
  2
BYBLOCK
 70
     0
  3

 72
    65
 73
     0
 40
0.0
  0
LTYPE
  5
558
330
556
100
AcDbSymbolTableRecord
100
AcDbLinetypeTableRecord
  2
BYLAYER
 70
     0
  3

 72
    65
 73
     0
 40
0.0
  0
LTYPE
  5
5
330
556
100
AcDbSymbolTableRecord
100
AcDbLinetypeTableRecord
  2
CONTINUOUS
 70
     0
  3
Solid line
 72
    65
 73
     0
 40
0.0
  0
LTYPE
  5
3CE3
330
556
100
AcDbSymbolTableRecord
100
AcDbLinetypeTableRecord
  2
PHANTOM2
 70
     0
  3
Phantom (.5x) ___ _ _ ___ _ _ ___ _ _ ___ _ _
 72
    65
 73
     6
 40
1.25
 49
0.625
 74
     0
 49
-0.125
 74
     0
 49
0.125
 74
     0
 49
-0.125
 74
     0
 49
0.125
 74
     0
 49
-0.125
 74
     0
  0
ENDTAB
  0
TABLE
  2
LAYER
  5
553
102
{ACAD_XDICTIONARY
360
2C65
102
}
330
0
100
AcDbSymbolTable
 70
    15
  0
LAYER
  5
24
102
{ACAD_XDICTIONARY
360
2F90
102
}
330
553
100
AcDbSymbolTableRecord
100
AcDbLayerTableRecord
  2
0
 70
     0
 62
     7
  6
CONTINUOUS
370
    -3
390
58B
  0
LAYER
  5
2F
330
553
100
AcDbSymbolTableRecord
100
AcDbLayerTableRecord
  2
DEFPOINTS
 70
     0
 62
   210
  6
CONTINUOUS
290
     0
370
    -3
390
58B
  0
LAYER
  5
4
102
{ACAD_XDICTIONARY
360
2F94
102
}
330
553
100
AcDbSymbolTableRecord
100
AcDbLayerTableRecord
  2
HB_XDET_TEXT
 70
     0
 62
     7
  6
CONTINUOUS
370
    -3
390
58B
  0
LAYER
  5
2FEE
330
553
100
AcDbSymbolTableRecord
100
AcDbLayerTableRecord
  2
Border
 70
     0
 62
     7
  6
CONTINUOUS
370
    -3
390
58B
1001
AcAecLayerStandard
1000

1000

  0
LAYER
  5
2FF6
102
{ACAD_XDICTIONARY
360
2FF7
102
}
330
553
100
AcDbSymbolTableRecord
100
AcDbLayerTableRecord
  2
3
 70
     0
 62
     2
  6
CONTINUOUS
370
    -3
390
58B
  0
LAYER
  5
2FF8
102
{ACAD_XDICTIONARY
360
2FF9
102
}
330
553
100
AcDbSymbolTableRecord
100
AcDbLayerTableRecord
  2
Title block
 70
     0
 62
     7
  6
CONTINUOUS
370
    50
390
58B
  0
LAYER
  5
30A7
330
553
100
AcDbSymbolTableRecord
100
AcDbLayerTableRecord
  2
Text
 70
     0
 62
     7
  6
CONTINUOUS
370
    -3
390
58B
1001
AcAecLayerStandard
1000

1000

  0
LAYER
  5
375E
330
553
100
AcDbSymbolTableRecord
100
AcDbLayerTableRecord
  2
Concrete
 70
     0
 62
     8
  6
CONTINUOUS
370
    -3
390
58B
1001
AcAecLayerStandard
1000

1000

  0
LAYER
  5
3767
330
553
100
AcDbSymbolTableRecord
100
AcDbLayerTableRecord
  2
Fixings & brackets
 70
     0
 62
     4
  6
CONTINUOUS
370
    -3
390
58B
1001
AcAecLayerStandard
1000

1000

  0
LAYER
  5
3774
330
553
100
AcDbSymbolTableRecord
100
AcDbLayerTableRecord
  2
Hatch
 70
     0
 62
     2
  6
CONTINUOUS
370
    -3
390
58B
1001
AcAecLayerStandard
1000

1000

  0
LAYER
  5
37C0
102
{ACAD_XDICTIONARY
360
37C1
102
}
330
553
100
AcDbSymbolTableRecord
100
AcDbLayerTableRecord
  2
Fastenings and sealants
 70
     0
 62
     4
  6
CONTINUOUS
370
    13
390
58B
  0
LAYER
  5
3963
330
553
100
AcDbSymbolTableRecord
100
AcDbLayerTableRecord
  2
Sealant
 70
     0
 62
     5
  6
CONTINUOUS
370
    -3
390
58B
1001
AcAecLayerStandard
1000

1000

  0
LAYER
  5
3FAE
102
{ACAD_XDICTIONARY
360
3FAF
102
}
330
553
100
AcDbSymbolTableRecord
100
AcDbLayerTableRecord
  2
Supercrete
 70
     0
 62
     7
  6
CONTINUOUS
370
    40
390
58B
  0
ENDTAB
  0
TABLE
  2
STYLE
  5
554
330
0
100
AcDbSymbolTable
 70
    10
  0
STYLE
  5
555
330
554
100
AcDbSymbolTableRecord
100
AcDbTextStyleTableRecord
  2
STANDARD
 70
     0
 40
0.0
 41
1.0
 50
0.0
 71
     0
 42
150.0
  3
times.ttf
  4

1001
ACAD
1000
Times New Roman
1071
       18
  0
STYLE
  5
6
330
554
100
AcDbSymbolTableRecord
100
AcDbTextStyleTableRecord
  2
ROMANS
 70
     0
 40
0.0
 41
1.0
 50
0.0
 71
     0
 42
100.0
  3
romans.shx
  4

  0
STYLE
  5
2FFB
330
554
100
AcDbSymbolTableRecord
100
AcDbTextStyleTableRecord
  2
Title block
 70
     0
 40
2.5
 41
1.0
 50
0.0
 71
     0
 42
2.5
  3
times.ttf
  4

1001
ACAD
1000
Times New Roman
1071
       18
  0
STYLE
  5
30E8
330
554
100
AcDbSymbolTableRecord
100
AcDbTextStyleTableRecord
  2
1
 70
     0
 40
2.5
 41
1.0
 50
0.0
 71
     0
 42
2.5
  3
swiss.ttf
  4

1001
ACAD
1000
Swis721 BT
1071
       34
  0
STYLE
  5
408E
330
554
100
AcDbSymbolTableRecord
100
AcDbTextStyleTableRecord
  2
2
 70
     0
 40
5.0
 41
1.0
 50
0.0
 71
     0
 42
5.0
  3
swiss.ttf
  4

1001
ACAD
1000
Swis721 BT
1071
       34
  0
ENDTAB
  0
TABLE
  2
VIEW
  5
559
330
0
100
AcDbSymbolTable
 70
     9
  0
ENDTAB
  0
TABLE
  2
UCS
  5
55A
330
0
100
AcDbSymbolTable
 70
     0
  0
ENDTAB
  0
TABLE
  2
APPID
  5
55D
330
0
100
AcDbSymbolTable
 70
    24
  0
APPID
  5
62
330
55D
100
AcDbSymbolTableRecord
100
AcDbRegAppTableRecord
  2
ACAD
 70
     0
  0
APPID
  5
597
330
55D
100
AcDbSymbolTableRecord
100
AcDbRegAppTableRecord
  2
DCO15
 70
     0
  0
APPID
  5
F23
330
55D
100
AcDbSymbolTableRecord
100
AcDbRegAppTableRecord
  2
ACAD_DIMASSOC_CALC_DIMLFAC
 70
     0
  0
APPID
  5
F24
330
55D
100
AcDbSymbolTableRecord
100
AcDbRegAppTableRecord
  2
ACAD_DIMASSOC_DIMLFAC
 70
     0
  0
APPID
  5
F25
330
55D
100
AcDbSymbolTableRecord
100
AcDbRegAppTableRecord
  2
ACAD_DIMASSOC_OVERRIDDEN_DIMLFAC
 70
     0
  0
APPID
  5
2F87
330
55D
100
AcDbSymbolTableRecord
100
AcDbRegAppTableRecord
  2
ACAD_MLEADERVER
 70
     0
  0
APPID
  5
2FEF
330
55D
100
AcDbSymbolTableRecord
100
AcDbRegAppTableRecord
  2
AcAecLayerStandard
 70
     0
  0
APPID
  5
2FFD
330
55D
100
AcDbSymbolTableRecord
100
AcDbRegAppTableRecord
  2
AcadAnnoPO
 70
     0
  0
APPID
  5
2FFE
330
55D
100
AcDbSymbolTableRecord
100
AcDbRegAppTableRecord
  2
AcadAnnotative
 70
     0
  0
APPID
  5
2FFF
330
55D
100
AcDbSymbolTableRecord
100
AcDbRegAppTableRecord
  2
ACAD_DSTYLE_DIMJAG
 70
     0
  0
APPID
  5
3000
330
55D
100
AcDbSymbolTableRecord
100
AcDbRegAppTableRecord
  2
ACAD_DSTYLE_DIMTALN
 70
     0
  0
APPID
  5
3001
330
55D
100
AcDbSymbolTableRecord
100
AcDbRegAppTableRecord
  2
ACAD_PSEXT
 70
     0
  0
APPID
  5
3002
330
55D
100
AcDbSymbolTableRecord
100
AcDbRegAppTableRecord
  2
PROGE_PRINT_SETTINGS
 70
     0
  0
APPID
  5
3003
330
55D
100
AcDbSymbolTableRecord
100
AcDbRegAppTableRecord
  2
PCAD_LAYOUT
 70
     0
  0
APPID
  5
3004
330
55D
100
AcDbSymbolTableRecord
100
AcDbRegAppTableRecord
  2
RAK
 70
     0
  0
APPID
  5
3005
330
55D
100
AcDbSymbolTableRecord
100
AcDbRegAppTableRecord
  2
ACAD_DSTYLE_DIM_EXT1_LINETYPE
 70
     0
  0
APPID
  5
3006
330
55D
100
AcDbSymbolTableRecord
100
AcDbRegAppTableRecord
  2
ACAD_DSTYLE_DIM_EXT2_LINETYPE
 70
     0
  0
APPID
  5
3007
330
55D
100
AcDbSymbolTableRecord
100
AcDbRegAppTableRecord
  2
ACAD_DSTYLE_DIM_LINETYPE
 70
     0
  0
APPID
  5
3008
330
55D
100
AcDbSymbolTableRecord
100
AcDbRegAppTableRecord
  2
AcDbAttr
 70
     0
  0
APPID
  5
3009
330
55D
100
AcDbSymbolTableRecord
100
AcDbRegAppTableRecord
  2
ACAD_EXEMPT_FROM_CAD_STANDARDS
 70
     0
  0
APPID
  5
37C8
330
55D
100
AcDbSymbolTableRecord
100
AcDbRegAppTableRecord
  2
ACAD_DSTYLE_DIMJOGGED_JOGANGLE_SYMBOL
 70
     0
  0
APPID
  5
3981
330
55D
100
AcDbSymbolTableRecord
100
AcDbRegAppTableRecord
  2
ACAD_DSTYLE_DIMEXT_LENGTH
 70
     0
  0
APPID
  5
3CF9
330
55D
100
AcDbSymbolTableRecord
100
AcDbRegAppTableRecord
  2
ACAD_NAV_VCDISPLAY
 70
     0
  0
APPID
  5
3CFA
330
55D
100
AcDbSymbolTableRecord
100
AcDbRegAppTableRecord
  2
ACAD_DSTYLE_DIMBREAK
 70
     0
  0
ENDTAB
  0
TABLE
  2
DIMSTYLE
  5
55E
330
0
100
AcDbSymbolTable
 70
    12
100
AcDbDimStyleTable
 71
     2
340
408F
340
663
  0
DIMSTYLE
105
663
102
{ACAD_REACTORS
330
32CB
330
333C
330
38BA
330
4016
330
4022
102
}
330
55E
100
AcDbSymbolTableRecord
100
AcDbDimStyleTableRecord
  2
STANDARD
 70
     0
 41
3.0
 42
1.0
 43
1.0
 44
1.0
 73
     0
 74
     0
 77
     1
140
2.5
147
1.0
176
     7
177
     7
271
     0
272
     0
340
30E8
1001
ACAD_DSTYLE_DIMJAG
1070
   388
1040
1.5
1001
ACAD_DSTYLE_DIMTALN
1070
   392
1070
     0
  0
DIMSTYLE
105
408F
102
{ACAD_REACTORS
330
4011
330
4012
330
401F
102
}
330
55E
100
AcDbSymbolTableRecord
100
AcDbDimStyleTableRecord
  2
Dim 2
 70
     0
 40
2.0
 41
3.0
 42
1.0
 43
1.0
 44
1.0
 73
     0
 74
     0
 77
     1
140
5.0
147
1.0
176
     7
177
     7
178
     7
271
     0
272
     0
340
408E
1001
ACAD_DSTYLE_DIMBREAK
1070
   391
1040
0.125
1001
ACAD_DSTYLE_DIMJAG
1070
   388
1040
1.5
1001
ACAD_DSTYLE_DIMTALN
1070
   392
1070
     0
1001
ACAD_DSTYLE_DIMEXT_LENGTH
1070
   378
1040
1.25
1001
ACAD_DSTYLE_DIMJOGGED_JOGANGLE_SYMBOL
1070
   384
1040
1.570796326794896
  0
ENDTAB
  0
TABLE
  2
BLOCK_RECORD
  5
1
330
0
100
AcDbSymbolTable
 70
    17
  0
BLOCK_RECORD
  5
2
102
{ACAD_XDICTIONARY
360
30CC
102
}
330
1
100
AcDbSymbolTableRecord
100
AcDbBlockTableRecord
  2
*MODEL_SPACE
340
58E
  0
BLOCK_RECORD
  5
5E
330
1
100
AcDbSymbolTableRecord
100
AcDbBlockTableRecord
  2
*PAPER_SPACE
340
58F
  0
BLOCK_RECORD
  5
300A
102
{ACAD_XDICTIONARY
360
3021
102
}
330
1
100
AcDbSymbolTableRecord
100
AcDbBlockTableRecord
  2
A4 Title Block
340
0
102
{BLKREFS
331
3700
102
}
1001
ACAD
1000
DesignCenter Data
1002
{
1070
     1
1070
     4
1002
}
  0
BLOCK_RECORD
  5
32CC
330
1
100
AcDbSymbolTableRecord
100
AcDbBlockTableRecord
  2
*D1
340
0
  0
BLOCK_RECORD
  5
333D
330
1
100
AcDbSymbolTableRecord
100
AcDbBlockTableRecord
  2
*D2
340
0
  0
BLOCK_RECORD
  5
37B9
330
1
100
AcDbSymbolTableRecord
100
AcDbBlockTableRecord
  2
pin
340
0
310
2800000020000000200000000100080000000000000400000000000000000000000000000000000000000000000080000080000000808000800000008000800080800000C0C0C000C0DCC000F0CAA6000020400000206000002080000020A0000020C0000020E00000400000004020000040400000406000004080000040A0
310
000040C0000040E00000600000006020000060400000606000006080000060A0000060C0000060E00000800000008020000080400000806000008080000080A0000080C0000080E00000A0000000A0200000A0400000A0600000A0800000A0A00000A0C00000A0E00000C0000000C0200000C0400000C0600000C0800000C0
310
A00000C0C00000C0E00000E0000000E0200000E0400000E0600000E0800000E0A00000E0C00000E0E00040000000400020004000400040006000400080004000A0004000C0004000E00040200000402020004020400040206000402080004020A0004020C0004020E000404000004040200040404000404060004040800040
310
40A0004040C0004040E00040600000406020004060400040606000406080004060A0004060C0004060E00040800000408020004080400040806000408080004080A0004080C0004080E00040A0000040A0200040A0400040A0600040A0800040A0A00040A0C00040A0E00040C0000040C0200040C0400040C0600040C08000
310
40C0A00040C0C00040C0E00040E0000040E0200040E0400040E0600040E0800040E0A00040E0C00040E0E00080000000800020008000400080006000800080008000A0008000C0008000E00080200000802020008020400080206000802080008020A0008020C0008020E00080400000804020008040400080406000804080
310
008040A0008040C0008040E00080600000806020008060400080606000806080008060A0008060C0008060E00080800000808020008080400080806000808080008080A0008080C0008080E00080A0000080A0200080A0400080A0600080A0800080A0A00080A0C00080A0E00080C0000080C0200080C0400080C0600080C0
310
800080C0A00080C0C00080C0E00080E0000080E0200080E0400080E0600080E0800080E0A00080E0C00080E0E000C0000000C0002000C0004000C0006000C0008000C000A000C000C000C000E000C0200000C0202000C0204000C0206000C0208000C020A000C020C000C020E000C0400000C0402000C0404000C0406000C0
310
408000C040A000C040C000C040E000C0600000C0602000C0604000C0606000C0608000C060A000C060C000C060E000C0800000C0802000C0804000C0806000C0808000C080A000C080C000C080E000C0A00000C0A02000C0A04000C0A06000C0A08000C0A0A000C0A0C000C0A0E000C0C00000C0C02000C0C04000C0C06000
310
C0C08000C0C0A000F0FBFF00A4A0A000808080000000FF0000FF000000FFFF00FF000000FF00FF00FFFF0000FFFFFF000000000000000000000000000000000000000000000000000000000000000000000000000000000000000000FEFEFEFEFEFEFEFE000000000000000000000000000000000000000000000000FE0000
310
00000000FE000000000000000000000000000000000000000000000000FEFEFEFEFEFEFEFE0000000000000000000000000000000000000000000000000000FE0000FE00000000000000000000000000000000000000000000000000000000FE0000FE00000000000000000000000000000000000000000000000000000000
310
FE0000FE00000000000000000000000000000000000000000000000000000000FE0000FE00000000000000000000000000000000000000000000000000000000FE0000FE00000000000000000000000000000000000000000000000000000000FE0000FE000000000000000000000000000000000000000000000000000000
310
00FE0000FE00000000000000000000000000000000000000000000000000000000FE0000FE00000000000000000000000000000000000000000000000000000000FE0000FE00000000000000000000000000000000000000000000000000000000FE0000FE0000000000000000000000000000000000000000000000000000
310
0000FE0000FE00000000000000000000000000000000000000000000000000000000FE0000FE00000000000000000000000000000000000000000000000000000000FE0000FE00000000000000000000000000000000000000000000000000000000FE0000FE00000000000000000000000000000000000000000000000000
310
000000FE0000FE00000000000000000000000000000000000000000000000000000000FE0000FE00000000000000000000000000000000000000000000000000000000FE0000FE00000000000000000000000000000000000000000000000000000000FE0000FE000000000000000000000000000000000000000000000000
310
00000000FE0000FE00000000000000000000000000000000000000000000000000000000FE0000FE00000000000000000000000000000000000000000000000000000000FE0000FE00000000000000000000000000000000000000000000000000000000FE0000FE0000000000000000000000000000000000000000000000
310
0000000000FE0000FE00000000000000000000000000000000000000000000000000000000FE00FE000000000000000000000000000000000000000000000000000000000000FEFE000000000000000000000000000000000000000000000000000000000000FE000000000000000000000000000000000000000000000000
310
00000000000000FE000000000000000000000000000000000000000000000000000000000000000000000000000000000000000000000000
102
{BLKREFS
331
37D2
102
}
1001
ACAD
1000
DesignCenter Data
1002
{
1070
     1
1070
     4
1002
}
  0
BLOCK_RECORD
  5
38BB
330
1
100
AcDbSymbolTableRecord
100
AcDbBlockTableRecord
  2
*D8
340
0
  0
BLOCK_RECORD
  5
4024
330
1
100
AcDbSymbolTableRecord
100
AcDbBlockTableRecord
  2
*D13
340
0
  0
BLOCK_RECORD
  5
4030
330
1
100
AcDbSymbolTableRecord
100
AcDbBlockTableRecord
  2
*D14
340
0
  0
BLOCK_RECORD
  5
403D
330
1
100
AcDbSymbolTableRecord
100
AcDbBlockTableRecord
  2
*D15
340
0
  0
ENDTAB
  0
ENDSEC
  0
SECTION
  2
BLOCKS
  0
BLOCK
  5
5C
330
2
100
AcDbEntity
  8
0
100
AcDbBlockBegin
  2
*MODEL_SPACE
 70
     0
 10
0.0
 20
0.0
 30
0.0
  3
*MODEL_SPACE
  1

  0
ENDBLK
  5
5D
330
2
100
AcDbEntity
  8
0
100
AcDbBlockEnd
  0
BLOCK
  5
551
330
5E
100
AcDbEntity
 67
     1
  8
0
100
AcDbBlockBegin
  2
*PAPER_SPACE
 70
     0
 10
0.0
 20
0.0
 30
0.0
  3
*PAPER_SPACE
  1

  0
ENDBLK
  5
552
330
5E
100
AcDbEntity
 67
     1
  8
0
100
AcDbBlockEnd
  0
BLOCK
  5
3023
330
300A
100
AcDbEntity
  8
0
100
AcDbBlockBegin
  2
A4 Title Block
 70
     2
 10
0.0
 20
0.0
 30
0.0
  3
A4 Title Block
  1

  0
TEXT
  5
3FB2
330
300A
100
AcDbEntity
  8
3
 62
     7
100
AcDbText
 10
-853.4347976406543
 20
37.0581002795501
 30
0.0
 40
8.0
  1

 41
0.85
  7
ROMANS
100
AcDbText
  0
LINE
  5
3FB3
330
300A
100
AcDbEntity
  8
Title block
100
AcDbLine
 10
-53.39424020223919
 20
255.4041454248354
 30
0.0
 11
-53.39424020223919
 21
-21.19891004925512
 31
0.0
  0
LINE
  5
3FB4
330
300A
100
AcDbEntity
  8
Title block
100
AcDbLine
 10
-53.39424020223919
 20
-21.19891004925512
 30
0.0
 11
136.6057597977608
 21
-21.19891004925512
 31
0.0
  0
LINE
  5
3FB5
330
300A
100
AcDbEntity
  8
Title block
100
AcDbLine
 10
136.6057597977608
 20
-21.19891004925512
 30
0.0
 11
136.6057597977608
 21
255.4041454248354
 31
0.0
  0
LINE
  5
3FB6
330
300A
100
AcDbEntity
  8
Title block
100
AcDbLine
 10
136.6057597977608
 20
255.4041454248354
 30
0.0
 11
-53.39424020223919
 21
255.4041454248354
 31
0.0
  0
LINE
  5
3FB7
330
300A
100
AcDbEntity
  8
Title block
100
AcDbLine
 10
5.322295774367375
 20
-1.849809968847825
 30
0.0
 11
136.7843384162145
 21
-1.849809968847711
 31
0.0
  0
LINE
  5
3FB8
330
300A
100
AcDbEntity
  8
Title block
100
AcDbLine
 10
5.322295774367375
 20
-10.88464955839267
 30
0.0
 11
136.7843384162147
 21
-10.88464955839255
 31
0.0
  0
TEXT
  5
3FB9
330
300A
100
AcDbEntity
  8
0
100
AcDbText
 10
9.675893772968493
 20
-7.472611373172771
 30
0.0
 40
2.5
  1
Date:
  7
Title block
100
AcDbText
  0
TEXT
  5
3FBA
330
300A
100
AcDbEntity
  8
0
100
AcDbText
 10
91.38994071143883
 20
-7.411777803461195
 30
0.0
 40
2.5
  1
Detail No.
  7
Title block
100
AcDbText
  0
TEXT
  5
3FBB
330
300A
100
AcDbEntity
  8
0
100
AcDbText
 10
9.502250865730047
 20
7.648243604712661
 30
0.0
 40
2.5
  1
Title:
  7
Title block
100
AcDbText
  0
LWPOLYLINE
  5
3FBC
330
300A
100
AcDbEntity
  8
Title block
100
AcDbPolyline
 90
        2
 70
     0
 43
0.0
 10
-53.39424020223919
 20
12.10448104516263
 10
136.6057597977608
 20
12.10448104516263
  0
MTEXT
  5
3FBD
330
300A
100
AcDbEntity
  8
Title block
100
AcDbMText
 10
6.609142078680179
 20
-12.95411800504515
 30
0.0
 40
2.5
 41
129.8458211596216
 71
     1
 72
     1
  1
This drawing is to be read in conjunction with all the current, relevant Supercrete \PTechnical Literature, Project Specific Design Documentation and Specifications
  7
Title block
 73
     1
 44
1.0
  0
LWPOLYLINE
  5
3FBE
330
300A
100
AcDbEntity
  8
Title block
100
AcDbPolyline
 90
        2
 70
     0
 43
0.0
 10
46.71209860759859
 20
-1.849809968847822
 10
46.71209860759859
 20
-10.88464955839267
  0
LWPOLYLINE
  5
3FBF
330
300A
100
AcDbEntity
  8
Title block
100
AcDbPolyline
 90
        2
 70
     0
 43
0.0
 10
89.74925677747592
 20
-1.849809968847832
 10
89.74925677747592
 20
-10.88464955839268
  0
TEXT
  5
3FC0
330
300A
100
AcDbEntity
  8
0
100
AcDbText
 10
51.06569660619993
 20
-7.472611373172771
 30
0.0
 40
2.5
  1
Scale:
  7
Title block
100
AcDbText
  0
ATTDEF
  5
3FC1
330
300A
100
AcDbEntity
  8
Title block
100
AcDbText
 10
20.96937096573947
 20
-7.642940466626214
 30
0.0
 40
2.5
  1

100
AcDbAttributeDefinition
  3
Date
  2
DATE
 70
     0
1001
AcDbAttr
1070
     0
1070
     1
  0
ATTDEF
  5
3FC2
330
300A
100
AcDbEntity
  8
Title block
100
AcDbText
 10
63.23629700150786
 20
-7.642940466626214
 30
0.0
 40
2.5
  1

100
AcDbAttributeDefinition
  3
Scale
  2
SCALE
 70
     0
1001
AcDbAttr
1070
     0
1070
     1
  0
ATTDEF
  5
3FC3
330
300A
100
AcDbEntity
  8
Title block
100
AcDbText
 10
111.1388136280311
 20
-7.311601095675996
 30
0.0
 40
2.5
  1

100
AcDbAttributeDefinition
  3
Drg No
  2
DRGNO
 70
     0
1001
AcDbAttr
1070
     0
1070
     1
  0
ATTDEF
  5
3FC4
330
300A
100
AcDbEntity
  8
Title block
100
AcDbText
 10
8.067229221254478
 20
-0.0001543750333894
 30
0.0
 40
3.5
  1

  7
1
100
AcDbAttributeDefinition
  3
Title
  2
TITLE
 70
     0
  0
ATTDEF
  5
3FC5
330
300A
100
AcDbEntity
  8
Title block
100
AcDbText
 10
19.80232515842442
 20
6.748439479395983
 30
0.0
 40
3.5
  1

  7
1
100
AcDbAttributeDefinition
  3
Title2
  2
TITLE2
 70
     0
  0
LINE
  5
3FC6
330
300A
100
AcDbEntity
  8
Title block
100
AcDbLine
 10
5.160599931094154
 20
12.11369795074488
 30
0.0
 11
5.160599931094154
 21
-21.18969314367286
 31
0.0
  0
IMAGE
  5
3FC7
330
300A
100
AcDbEntity
  8
Title block
 92
      140
310
8C0000000100000084000000060000000500000060B1837676B24AC0CC5E2FB1C06AF1BF000000000000000060B1837676B24AC0FE0C208A7E35284000000000000000003028EF4E74A41440FE0C208A7E35284000000000000000003028EF4E74A41440CC5E2FB1C06AF1BF000000000000000060B1837676B24AC0CC5E2F
310
B1C06AF1BF0000000000000000
100
AcDbRasterImage
 90
        0
 10
-53.39424020223919
 20
-1.088562671784461
 30
0.0
 11
0.0428345575225555
 21
0.0
 31
0.0
 12
0.0
 22
0.0428345575225555
 32
0.0
 13
1367.0
 23
308.0
340
3FCA
 70
     7
280
     0
281
    50
282
    50
283
     0
360
3FC8
 71
     1
 91
        2
 14
-0.5
 24
-0.5
 14
1366.5
 24
307.5
  0
ENDBLK
  5
3024
330
300A
100
AcDbEntity
  8
0
100
AcDbBlockEnd
  0
BLOCK
  5
32CD
330
32CC
100
AcDbEntity
  8
0
100
AcDbBlockBegin
  2
*D1
 70
     1
 10
0.0
 20
0.0
 30
0.0
  3
*D1
  1

  0
LINE
  5
3BEA
330
32CC
100
AcDbEntity
  8
Text
 62
     7
440
 16777216
370
    -2
100
AcDbLine
 10
106.674002402668
 20
579.9778730487615
 30
0.0
 11
121.8401244526352
 21
579.9778730487615
 31
0.0
  0
LINE
  5
3BEB
330
32CC
100
AcDbEntity
  8
Text
 62
     7
440
 16777216
370
    -2
100
AcDbLine
 10
106.2990024035917
 20
597.4778730056465
 30
0.0
 11
121.8401244526352
 21
597.4778730056465
 31
0.0
  0
LINE
  5
3BEC
330
32CC
100
AcDbEntity
  8
Text
 62
     7
440
 16777216
370
    -2
100
AcDbLine
 10
120.8401244526352
 20
582.9778730487614
 30
0.0
 11
120.8401244526352
 21
594.4778730056465
 31
0.0
  0
SOLID
  5
3BED
330
32CC
100
AcDbEntity
  8
Text
 62
     7
440
 16777216
100
AcDbTrace
 10
120.3401244526352
 20
582.9778730487614
 30
0.0
 11
121.3401244526352
 21
582.9778730487614
 31
0.0
 12
120.8401244526352
 22
579.9778730487615
 32
0.0
 13
120.8401244526352
 23
579.9778730487615
 33
0.0
  0
SOLID
  5
3BEE
330
32CC
100
AcDbEntity
  8
Text
 62
     7
440
 16777216
100
AcDbTrace
 10
120.3401244526352
 20
594.4778730056465
 30
0.0
 11
121.3401244526352
 21
594.4778730056465
 31
0.0
 12
120.8401244526352
 22
597.4778730056465
 32
0.0
 13
120.8401244526352
 23
597.4778730056465
 33
0.0
  0
MTEXT
  5
3BEF
330
32CC
100
AcDbEntity
  8
Text
 62
     0
440
 16777216
100
AcDbMText
 10
118.5536342964912
 20
588.7278730272039
 30
0.0
 40
2.5
 41
0.0
 71
     5
 72
     1
  1
\A1;{\fSwis721 BT|b0|i1|c0|p34;35mm}
  7
1
 11
0.0000000000000001
 21
1.0
 31
0.0
 73
     1
 44
1.0
  0
POINT
  5
3BF0
330
32CC
100
AcDbEntity
  8
DEFPOINTS
 62
     0
440
 16777216
100
AcDbPoint
 10
105.674002402668
 20
579.9778730487615
 30
0.0
  0
POINT
  5
3BF1
330
32CC
100
AcDbEntity
  8
DEFPOINTS
 62
     0
440
 16777216
100
AcDbPoint
 10
105.2990024035917
 20
597.4778730056465
 30
0.0
  0
POINT
  5
3BF2
330
32CC
100
AcDbEntity
  8
DEFPOINTS
 62
     0
440
 16777216
100
AcDbPoint
 10
120.8401244526352
 20
597.4778730056465
 30
0.0
  0
ENDBLK
  5
32CE
330
32CC
100
AcDbEntity
  8
0
100
AcDbBlockEnd
  0
BLOCK
  5
333E
330
333D
100
AcDbEntity
  8
0
100
AcDbBlockBegin
  2
*D2
 70
     1
 10
0.0
 20
0.0
 30
0.0
  3
*D2
  1

  0
LINE
  5
3BF3
330
333D
100
AcDbEntity
  8
Text
 62
     7
440
 16777216
370
    -2
100
AcDbLine
 10
106.2990024035917
 20
597.4778730056538
 30
0.0
 11
121.8401244526352
 21
597.4778730056538
 31
0.0
  0
LINE
  5
3BF4
330
333D
100
AcDbEntity
  8
Text
 62
     7
440
 16777216
370
    -2
100
AcDbLine
 10
105.9240024045153
 20
604.9778729871843
 30
0.0
 11
121.8401244526352
 21
604.9778729871843
 31
0.0
  0
LINE
  5
3BF5
330
333D
100
AcDbEntity
  8
Text
 62
     7
440
 16777216
370
    -2
100
AcDbLine
 10
120.8401244526352
 20
594.4778730056538
 30
0.0
 11
120.8401244526352
 21
591.4778730056537
 31
0.0
  0
LINE
  5
3BF6
330
333D
100
AcDbEntity
  8
Text
 62
     7
440
 16777216
370
    -2
100
AcDbLine
 10
120.8401244526352
 20
607.9778729871843
 30
0.0
 11
120.8401244526352
 21
610.9778729871843
 31
0.0
  0
MTEXT
  5
3BF7
330
333D
100
AcDbEntity
  8
Text
 62
     0
440
 16777216
100
AcDbMText
 10
127.8318317559269
 20
601.3341395508405
 30
0.0
 40
2.5
 41
0.0
 71
     5
 72
     1
  1
\A1;15mm max
  7
1
 11
0.9999984769132876
 21
0.0017453283658983
 31
0.0
 73
     1
 44
1.0
  0
SOLID
  5
3BF8
330
333D
100
AcDbEntity
  8
Text
 62
     7
440
 16777216
100
AcDbTrace
 10
120.3401244526352
 20
594.4778730056538
 30
0.0
 11
121.3401244526352
 21
594.4778730056538
 31
0.0
 12
120.8401244526352
 22
597.4778730056538
 32
0.0
 13
120.8401244526352
 23
597.4778730056538
 33
0.0
  0
SOLID
  5
3BF9
330
333D
100
AcDbEntity
  8
Text
 62
     7
440
 16777216
100
AcDbTrace
 10
120.3401244526352
 20
607.9778729871843
 30
0.0
 11
121.3401244526352
 21
607.9778729871843
 31
0.0
 12
120.8401244526352
 22
604.9778729871843
 32
0.0
 13
120.8401244526352
 23
604.9778729871843
 33
0.0
  0
POINT
  5
3BFA
330
333D
100
AcDbEntity
  8
DEFPOINTS
 62
     0
440
 16777216
100
AcDbPoint
 10
105.2990024035917
 20
597.4778730056538
 30
0.0
  0
POINT
  5
3BFB
330
333D
100
AcDbEntity
  8
DEFPOINTS
 62
     0
440
 16777216
100
AcDbPoint
 10
104.9240024045153
 20
604.9778729871843
 30
0.0
  0
POINT
  5
3BFC
330
333D
100
AcDbEntity
  8
DEFPOINTS
 62
     0
440
 16777216
100
AcDbPoint
 10
120.8401244526352
 20
604.9778729871843
 30
0.0
  0
ENDBLK
  5
333F
330
333D
100
AcDbEntity
  8
0
100
AcDbBlockEnd
  0
BLOCK
  5
37BA
330
37B9
100
AcDbEntity
  8
0
 48
10.0
100
AcDbBlockBegin
  2
pin
 70
     0
 10
0.0
 20
0.0
 30
0.0
  3
pin
  1

  0
LWPOLYLINE
  5
37BB
330
37B9
100
AcDbEntity
  8
Fastenings and sealants
 48
10.0
100
AcDbPolyline
 90
        2
 70
     0
 43
0.0
 10
-1.5
 20
-30.0
 10
-1.5
 20
-5.0
  0
LWPOLYLINE
  5
37BC
330
37B9
100
AcDbEntity
  8
Fastenings and sealants
 48
10.0
100
AcDbPolyline
 90
        3
 70
     0
 43
0.0
 10
1.5
 20
-5.0
 10
1.5
 20
-30.0
 10
-1.5
 20
-30.0
  0
LWPOLYLINE
  5
37BD
330
37B9
100
AcDbEntity
  8
Fastenings and sealants
 48
10.0
100
AcDbPolyline
 90
        4
 70
     1
 43
0.0
 10
-3.5
 20
-32.0
 10
3.5
 20
-32.0
 10
3.5
 20
-30.0
 10
-3.5
 20
-30.0
  0
LWPOLYLINE
  5
37BE
330
37B9
100
AcDbEntity
  8
Fastenings and sealants
 48
10.0
100
AcDbPolyline
 90
        3
 70
     0
 43
0.0
 10
-1.5
 20
-5.0
 10
0.0
 20
0.0
 10
1.5
 20
-5.0
  0
ENDBLK
  5
37BF
330
37B9
100
AcDbEntity
  8
0
 48
10.0
100
AcDbBlockEnd
  0
BLOCK
  5
38BC
330
38BB
100
AcDbEntity
  8
0
100
AcDbBlockBegin
  2
*D8
 70
     1
 10
0.0
 20
0.0
 30
0.0
  3
*D8
  1

  0
LINE
  5
3C09
330
38BB
100
AcDbEntity
  8
Text
 62
     7
440
 16777216
370
    -2
100
AcDbLine
 10
67.17400249503476
 20
604.977872987184
 30
0.0
 11
48.72155718740844
 21
604.977872987184
 31
0.0
  0
LINE
  5
3C0A
330
38BB
100
AcDbEntity
  8
Text
 62
     7
440
 16777216
370
    -2
100
AcDbLine
 10
66.42400249688207
 20
579.9778730487611
 30
0.0
 11
48.72155718740843
 21
579.9778730487611
 31
0.0
  0
LINE
  5
3C0B
330
38BB
100
AcDbEntity
  8
Text
 62
     7
440
 16777216
370
    -2
100
AcDbLine
 10
49.72155718740844
 20
601.9778729871839
 30
0.0
 11
49.72155718740843
 21
582.977873048761
 31
0.0
  0
SOLID
  5
3C0C
330
38BB
100
AcDbEntity
  8
Text
 62
     7
440
 16777216
100
AcDbTrace
 10
49.22155718740844
 20
601.9778729871839
 30
0.0
 11
50.22155718740844
 21
601.9778729871839
 31
0.0
 12
49.72155718740844
 22
604.977872987184
 32
0.0
 13
49.72155718740844
 23
604.977872987184
 33
0.0
  0
SOLID
  5
3C0D
330
38BB
100
AcDbEntity
  8
Text
 62
     7
440
 16777216
100
AcDbTrace
 10
49.22155718740843
 20
582.977873048761
 30
0.0
 11
50.22155718740844
 21
582.977873048761
 31
0.0
 12
49.72155718740843
 22
579.9778730487611
 32
0.0
 13
49.72155718740843
 23
579.9778730487611
 33
0.0
  0
MTEXT
  5
3C0E
330
38BB
100
AcDbEntity
  8
Text
 62
     0
440
 16777216
100
AcDbMText
 10
47.43506703126441
 20
592.4778730179725
 30
0.0
 40
2.5
 41
0.0
 71
     5
 72
     1
  1
\A1;{\fSwis721 BT|b0|i1|c0|p34;50mm}
  7
1
 11
0.0000000000000001
 21
1.0
 31
0.0
 73
     1
 44
1.0
  0
POINT
  5
3C0F
330
38BB
100
AcDbEntity
  8
DEFPOINTS
 62
     0
440
 16777216
100
AcDbPoint
 10
68.17400249503475
 20
604.977872987184
 30
0.0
  0
POINT
  5
3C10
330
38BB
100
AcDbEntity
  8
DEFPOINTS
 62
     0
440
 16777216
100
AcDbPoint
 10
67.42400249688206
 20
579.9778730487611
 30
0.0
  0
POINT
  5
3C11
330
38BB
100
AcDbEntity
  8
DEFPOINTS
 62
     0
440
 16777216
100
AcDbPoint
 10
49.72155718740843
 20
579.9778730487611
 30
0.0
  0
ENDBLK
  5
38BD
330
38BB
100
AcDbEntity
  8
0
100
AcDbBlockEnd
  0
BLOCK
  5
4025
330
4024
100
AcDbEntity
  8
0
100
AcDbBlockBegin
  2
*D13
 70
     1
 10
0.0
 20
0.0
 30
0.0
  3
*D13
  1

  0
LINE
  5
4090
330
4024
100
AcDbEntity
  8
Text
 62
     7
440
 16777216
370
    -2
100
AcDbLine
 10
3564.281010894259
 20
42558.87262207371
 30
0.0
 11
3594.613254994193
 21
42558.87262207371
 31
0.0
  0
LINE
  5
4091
330
4024
100
AcDbEntity
  8
Text
 62
     7
440
 16777216
370
    -2
100
AcDbLine
 10
3563.531010896106
 20
42593.87262198748
 30
0.0
 11
3594.613254994193
 21
42593.87262198748
 31
0.0
  0
LINE
  5
4092
330
4024
100
AcDbEntity
  8
Text
 62
     7
440
 16777216
370
    -2
100
AcDbLine
 10
3592.613254994193
 20
42564.87262207372
 30
0.0
 11
3592.613254994193
 21
42587.87262198747
 31
0.0
  0
SOLID
  5
4093
330
4024
100
AcDbEntity
  8
Text
 62
     7
440
 16777216
100
AcDbTrace
 10
3591.613254994193
 20
42564.87262207372
 30
0.0
 11
3593.613254994193
 21
42564.87262207372
 31
0.0
 12
3592.613254994193
 22
42558.87262207371
 32
0.0
 13
3592.613254994193
 23
42558.87262207371
 33
0.0
  0
SOLID
  5
4094
330
4024
100
AcDbEntity
  8
Text
 62
     7
440
 16777216
100
AcDbTrace
 10
3591.613254994193
 20
42587.87262198747
 30
0.0
 11
3593.613254994193
 21
42587.87262198747
 31
0.0
 12
3592.613254994193
 22
42593.87262198748
 32
0.0
 13
3592.613254994193
 23
42593.87262198748
 33
0.0
  0
MTEXT
  5
4095
330
4024
100
AcDbEntity
  8
Text
 62
     7
440
 16777216
100
AcDbMText
 10
3588.040274681899
 20
42576.3726220306
 30
0.0
 40
5.0
 41
0.0
 71
     5
 72
     1
  1
\A1;{\fSwis721 BT|b0|i1|c0|p34;35mm}
  7
2
 11
0.0000000000000001
 21
1.0
 31
0.0
 73
     1
 44
1.0
  0
POINT
  5
4096
330
4024
100
AcDbEntity
  8
DEFPOINTS
 62
     0
440
 16777216
100
AcDbPoint
 10
3562.281010894259
 20
42558.87262207371
 30
0.0
  0
POINT
  5
4097
330
4024
100
AcDbEntity
  8
DEFPOINTS
 62
     0
440
 16777216
100
AcDbPoint
 10
3561.531010896106
 20
42593.87262198748
 30
0.0
  0
POINT
  5
4098
330
4024
100
AcDbEntity
  8
DEFPOINTS
 62
     0
440
 16777216
100
AcDbPoint
 10
3592.613254994193
 20
42593.87262198748
 30
0.0
  0
ENDBLK
  5
4026
330
4024
100
AcDbEntity
  8
0
100
AcDbBlockEnd
  0
BLOCK
  5
4031
330
4030
100
AcDbEntity
  8
0
100
AcDbBlockBegin
  2
*D14
 70
     1
 10
0.0
 20
0.0
 30
0.0
  3
*D14
  1

  0
LINE
  5
4099
330
4030
100
AcDbEntity
  8
Text
 62
     7
440
 16777216
370
    -2
100
AcDbLine
 10
3563.531010896106
 20
42593.8726219875
 30
0.0
 11
3608.596669600783
 21
42593.8726219875
 31
0.0
  0
LINE
  5
409A
330
4030
100
AcDbEntity
  8
Text
 62
     7
440
 16777216
370
    -2
100
AcDbLine
 10
3562.781010897953
 20
42608.87262195056
 30
0.0
 11
3608.596669600783
 21
42608.87262195056
 31
0.0
  0
LINE
  5
409B
330
4030
100
AcDbEntity
  8
Text
 62
     7
440
 16777216
370
    -2
100
AcDbLine
 10
3606.596669600783
 20
42587.87262198749
 30
0.0
 11
3606.596669600783
 21
42581.87262198749
 31
0.0
  0
LINE
  5
409C
330
4030
100
AcDbEntity
  8
Text
 62
     7
440
 16777216
370
    -2
100
AcDbLine
 10
3606.596669600783
 20
42614.87262195056
 30
0.0
 11
3606.596669600783
 21
42620.87262195056
 31
0.0
  0
SOLID
  5
409D
330
4030
100
AcDbEntity
  8
Text
 62
     7
440
 16777216
100
AcDbTrace
 10
3605.596669600783
 20
42587.87262198749
 30
0.0
 11
3607.596669600783
 21
42587.87262198749
 31
0.0
 12
3606.596669600783
 22
42593.8726219875
 32
0.0
 13
3606.596669600783
 23
42593.8726219875
 33
0.0
  0
SOLID
  5
409E
330
4030
100
AcDbEntity
  8
Text
 62
     7
440
 16777216
100
AcDbTrace
 10
3605.596669600783
 20
42614.87262195056
 30
0.0
 11
3607.596669600783
 21
42614.87262195056
 31
0.0
 12
3606.596669600783
 22
42608.87262195056
 32
0.0
 13
3606.596669600783
 23
42608.87262195056
 33
0.0
  0
MTEXT
  5
409F
330
4030
100
AcDbEntity
  8
Text
 62
     7
440
 16777216
100
AcDbMText
 10
3606.596669600776
 20
42601.37262196902
 30
0.0
 40
5.0
 41
0.0
 71
     5
 72
     1
  1
\A1;15mm max
  7
2
 11
0.9999984769132876
 21
0.0017453283658983
 31
0.0
 73
     1
 44
1.0
  0
POINT
  5
40A0
330
4030
100
AcDbEntity
  8
DEFPOINTS
 62
     0
440
 16777216
100
AcDbPoint
 10
3561.531010896106
 20
42593.8726219875
 30
0.0
  0
POINT
  5
40A1
330
4030
100
AcDbEntity
  8
DEFPOINTS
 62
     0
440
 16777216
100
AcDbPoint
 10
3560.781010897953
 20
42608.87262195056
 30
0.0
  0
POINT
  5
40A2
330
4030
100
AcDbEntity
  8
DEFPOINTS
 62
     0
440
 16777216
100
AcDbPoint
 10
3606.596669600783
 20
42608.87262195056
 30
0.0
  0
ENDBLK
  5
4032
330
4030
100
AcDbEntity
  8
0
100
AcDbBlockEnd
  0
BLOCK
  5
403E
330
403D
100
AcDbEntity
  8
0
100
AcDbBlockBegin
  2
*D15
 70
     1
 10
0.0
 20
0.0
 30
0.0
  3
*D15
  1

  0
LINE
  5
40A3
330
403D
100
AcDbEntity
  8
Text
 62
     7
440
 16777216
370
    -2
100
AcDbLine
 10
3485.281011078992
 20
42608.87262195056
 30
0.0
 11
3448.37612046374
 21
42608.87262195056
 31
0.0
  0
LINE
  5
40A4
330
403D
100
AcDbEntity
  8
Text
 62
     7
440
 16777216
370
    -2
100
AcDbLine
 10
3483.781011082687
 20
42558.87262207371
 30
0.0
 11
3448.37612046374
 21
42558.87262207371
 31
0.0
  0
LINE
  5
40A5
330
403D
100
AcDbEntity
  8
Text
 62
     7
440
 16777216
370
    -2
100
AcDbLine
 10
3450.376120463739
 20
42602.87262195056
 30
0.0
 11
3450.376120463739
 21
42564.87262207372
 31
0.0
  0
SOLID
  5
40A6
330
403D
100
AcDbEntity
  8
Text
 62
     7
440
 16777216
100
AcDbTrace
 10
3449.376120463739
 20
42602.87262195056
 30
0.0
 11
3451.37612046374
 21
42602.87262195056
 31
0.0
 12
3450.376120463739
 22
42608.87262195056
 32
0.0
 13
3450.376120463739
 23
42608.87262195056
 33
0.0
  0
SOLID
  5
40A7
330
403D
100
AcDbEntity
  8
Text
 62
     7
440
 16777216
100
AcDbTrace
 10
3449.376120463739
 20
42564.87262207372
 30
0.0
 11
3451.37612046374
 21
42564.87262207372
 31
0.0
 12
3450.376120463739
 22
42558.87262207371
 32
0.0
 13
3450.376120463739
 23
42558.87262207371
 33
0.0
  0
MTEXT
  5
40A8
330
403D
100
AcDbEntity
  8
Text
 62
     7
440
 16777216
100
AcDbMText
 10
3445.803140151446
 20
42583.87262201214
 30
0.0
 40
5.0
 41
0.0
 71
     5
 72
     1
  1
\A1;{\fSwis721 BT|b0|i1|c0|p34;50mm}
  7
2
 11
0.0000000000000001
 21
1.0
 31
0.0
 73
     1
 44
1.0
  0
POINT
  5
40A9
330
403D
100
AcDbEntity
  8
DEFPOINTS
 62
     0
440
 16777216
100
AcDbPoint
 10
3487.281011078993
 20
42608.87262195056
 30
0.0
  0
POINT
  5
40AA
330
403D
100
AcDbEntity
  8
DEFPOINTS
 62
     0
440
 16777216
100
AcDbPoint
 10
3485.781011082687
 20
42558.87262207371
 30
0.0
  0
POINT
  5
40AB
330
403D
100
AcDbEntity
  8
DEFPOINTS
 62
     0
440
 16777216
100
AcDbPoint
 10
3450.376120463739
 20
42558.87262207371
 30
0.0
  0
ENDBLK
  5
403F
330
403D
100
AcDbEntity
  8
0
100
AcDbBlockEnd
  0
ENDSEC
  0
SECTION
  2
ENTITIES
  0
LINE
  5
2909
102
{ACAD_REACTORS
330
3780
102
}
330
2
100
AcDbEntity
  8
HB_XDET_TEXT
370
     9
100
AcDbLine
 10
3525.841325665556
 20
42401.20551670441
 30
0.0
 11
3532.752414163321
 21
42406.75082787943
 31
0.0
  0
LINE
  5
290B
330
2
100
AcDbEntity
  8
HB_XDET_TEXT
370
     9
100
AcDbLine
 10
3522.787590140163
 20
42412.29613905443
 30
0.0
 11
3525.841325665556
 21
42401.20551670441
 31
0.0
  0
LINE
  5
290C
330
2
100
AcDbEntity
  8
HB_XDET_TEXT
370
     9
100
AcDbLine
 10
3515.876501642399
 20
42406.75082787943
 30
0.0
 11
3522.787590140163
 21
42412.29613905443
 31
0.0
  0
LINE
  5
290D
330
2
100
AcDbEntity
  8
HB_XDET_TEXT
370
     9
100
AcDbLine
 10
3475.470887476437
 20
42406.75082787943
 30
0.0
 11
3515.876501642401
 21
42406.75082787943
 31
0.0
  0
LINE
  5
291F
330
2
100
AcDbEntity
  8
Supercrete
370
    50
100
AcDbLine
 10
3486.531010867472
 20
42593.8726224484
 30
0.0
 11
3561.531010867467
 21
42593.8726224484
 31
0.0
  0
LINE
  5
2923
330
2
100
AcDbEntity
  8
Supercrete
370
    50
100
AcDbLine
 10
3486.531010867472
 20
42593.8726224484
 30
0.0
 11
3486.531010867472
 21
42406.75082787943
 31
0.0
  0
LINE
  5
2924
330
2
100
AcDbEntity
  8
Supercrete
370
    50
100
AcDbLine
 10
3561.531010867467
 20
42593.87262244838
 30
0.0
 11
3561.531010867471
 21
42406.75082787943
 31
0.0
  0
LINE
  5
371F
102
{ACAD_REACTORS
330
3780
102
}
330
2
100
AcDbEntity
  8
HB_XDET_TEXT
370
     9
100
AcDbLine
 10
3573.158028329282
 20
42406.75082787943
 30
0.0
 11
3532.752414163328
 21
42406.75082787943
 31
0.0
  0
LINE
  5
3751
330
2
100
AcDbEntity
  8
Concrete
370
    50
100
AcDbLine
 10
3404.120469275026
 20
42608.8726224484
 30
0.0
 11
3648.89762973426
 21
42608.8726224484
 31
0.0
  0
SPLINE
  5
375F
330
2
100
AcDbEntity
  8
DEFPOINTS
100
AcDbSpline
210
0.0
220
0.0
230
1.0
 70
  1064
 71
     3
 72
    16
 73
    12
 74
    10
 42
0.000000001
 43
0.0000000001
 44
0.00001
 40
0.0
 40
0.0
 40
0.0
 40
0.0
 40
23.25168014101936
 40
53.14889212045344
 40
78.09647490595935
 40
115.4393887404401
 40
151.1591341974154
 40
187.2948656808938
 40
222.2900420447334
 40
243.3927969582444
 40
270.0222243825688
 40
270.0222243825688
 40
270.0222243825688
 40
270.0222243825688
 10
3404.120469275026
 20
42608.8726224484
 30
0.0
 10
3410.578795570491
 20
42613.33257821145
 30
0.0
 10
3425.341288877629
 20
42623.52719246655
 30
0.0
 10
3453.641965071261
 20
42623.70772024445
 30
0.0
 10
3475.067414939287
 20
42646.70672506234
 30
0.0
 10
3509.42925723309
 20
42661.13559916914
 30
0.0
 10
3542.070165165465
 20
42633.45429874876
 30
0.0
 10
3576.914794192805
 20
42651.79054768129
 30
0.0
 10
3610.943950665277
 20
42642.79768647607
 30
0.0
 10
3624.11143955168
 20
42616.58520088674
 30
0.0
 10
3640.021518802678
 20
42611.6345566657
 30
0.0
 10
3648.89762973426
 20
42608.8726224484
 30
0.0
 11
3404.120469275026
 21
42608.8726224484
 31
0.0
 11
3424.356261081852
 21
42620.32485601226
 31
0.0
 11
3453.317416635087
 21
42627.74743140016
 31
0.0
 11
3473.367446523167
 21
42642.59258217594
 31
0.0
 11
3509.011945372433
 21
42653.7264440018
 31
0.0
 11
3542.428665663927
 21
42641.10806559119
 31
0.0
 11
3578.07316451319
 21
42647.04612690628
 31
0.0
 11
3611.489880993322
 21
42636.65452086084
 31
0.0
 11
3624.856567585379
 21
42620.32485601226
 31
0.0
 11
3648.89762973426
 21
42608.8726224484
 31
0.0
  0
LWPOLYLINE
  5
3769
102
{ACAD_REACTORS
330
38D1
102
}
330
2
100
AcDbEntity
  8
Fixings & brackets
100
AcDbPolyline
 90
       12
 70
     1
 43
0.0
 10
3485.781010867467
 20
42558.8726224484
 10
3485.781010867467
 20
42607.3726224484
 42
-0.4142135623730951
 10
3487.281010867467
 20
42608.8726224484
 10
3560.781010867467
 20
42608.8726224484
 42
-0.4142135623730951
 10
3562.281010867467
 20
42607.3726224484
 10
3562.281010867467
 20
42558.8726224484
 10
3561.531010867467
 20
42558.8726224484
 10
3561.531010867467
 20
42607.3726224484
 42
0.4142135623730951
 10
3560.781010867467
 20
42608.1226224484
 10
3487.281010867467
 20
42608.1226224484
 42
0.4142135623730951
 10
3486.531010867467
 20
42607.3726224484
 10
3486.531010867467
 20
42558.8726224484
  0
HATCH
  5
3780
330
2
100
AcDbEntity
  8
Hatch
100
AcDbHatch
 10
0.0
 20
0.0
 30
0.0
210
0.0
220
0.0
230
1.0
  2
AR-SAND
 70
     0
 71
     0
 91
        1
 92
        1
 93
        8
 72
     1
 10
3525.841325665555
 20
42401.2055167044
 11
3532.752414163335
 21
42406.75082787943
 72
     1
 10
3532.752414163335
 20
42406.75082787943
 11
3561.531010867471
 21
42406.75082787943
 72
     1
 10
3561.531010867471
 20
42406.75082787943
 11
3561.531010867467
 21
42593.87262244839
 72
     1
 10
3561.531010867467
 20
42593.87262244839
 11
3486.531010867472
 21
42593.87262244839
 72
     1
 10
3486.531010867472
 20
42593.87262244839
 11
3486.531010867472
 21
42406.75082787943
 72
     1
 10
3486.531010867472
 20
42406.75082787943
 11
3507.438545381929
 21
42406.75082787942
 72
     1
 10
3507.438545381929
 20
42406.75082787942
 11
3521.260722377466
 21
42417.84145022944
 72
     1
 10
3521.260722377466
 20
42417.84145022944
 11
3525.841325665555
 21
42401.2055167044
 97
        0
 75
     0
 76
     1
 52
0.0
 41
5.0
 77
     0
 78
     4
 53
37.5
 43
3486.531010867472
 44
42395.66020552939
 45
-0.3149667905480408
 46
9.634118845065792
 79
     6
 49
0.0
 49
-7.599999999999999
 49
0.0
 49
-8.5
 49
0.0
 49
-8.125
 53
7.499999999999999
 43
3486.531010867472
 44
42395.66020552939
 45
8.848883526338635
 46
14.1107303261487
 79
     6
 49
0.0
 49
-4.099999999999999
 49
0.0
 49
-6.85
 49
0.0
 49
-2.625
 53
327.5
 43
3480.381010867471
 44
42395.66020552939
 45
15.57070930875747
 46
0.0282952676848225
 79
     6
 49
0.0
 49
-2.5
 49
0.0
 49
-9.0
 49
0.0
 49
-11.75
 53
317.5
 43
3480.381010867471
 44
42395.66020552939
 45
15.03063302286146
 46
4.388377824671245
 79
     6
 49
0.0
 49
-1.25
 49
0.0
 49
-5.899999999999999
 49
0.0
 49
-6.75
 98
        1
 10
3532.030670942527
 20
42549.2574992115
1001
ACAD
1010
3486.531010867472
1020
42395.66020552939
1030
0.0
  0
INSERT
  5
37D2
330
2
100
AcDbEntity
  8
Fastenings and sealants
100
AcDbBlockReference
  2
pin
 10
3524.031010867467
 20
42638.1226224484
 30
0.0
  0
HATCH
  5
37DF
330
2
100
AcDbEntity
  8
Concrete
100
AcDbHatch
 10
0.0
 20
0.0
 30
0.0
210
0.0
220
0.0
230
1.0
  2
AR-CONC
 70
     0
 71
     0
 91
        1
 92
        5
 93
        7
 72
     4
 94
        3
 73
     0
 74
     0
 95
       16
 96
       12
 40
0.0
 40
0.0
 40
0.0
 40
0.0
 40
26.6294258828008
 40
47.73218078630515
 40
82.72735783282504
 40
118.8630862798463
 40
154.5828380812421
 40
191.9257514299973
 40
216.8733404932455
 40
246.770550335767
 40
270.0222368047156
 40
270.0222368047156
 40
270.0222368047156
 40
270.0222368047156
 10
3648.89762973426
 20
42608.8726224484
 10
3640.021519316499
 20
42611.63455650582
 10
3624.111446414273
 20
42616.58521283348
 10
3610.943955567319
 20
42642.797693307
 10
3576.91480068475
 20
42651.79055823128
 10
3542.07017049369
 20
42633.45430139882
 10
3509.429264770961
 20
42661.13560857791
 10
3475.067412415484
 20
42646.70673907778
 10
3453.641978761468
 20
42623.70771033515
 10
3425.341296749303
 20
42623.52718579198
 10
3410.57879732812
 20
42613.33257942522
 10
3404.120469275026
 20
42608.8726224484
 72
     1
 10
3404.120469275017
 20
42608.8726224484
 11
3522.531010867467
 21
42608.8726224484
 72
     1
 10
3522.531010867467
 20
42608.8726224484
 11
3522.531010867467
 21
42633.12262244841
 72
     1
 10
3522.531010867467
 20
42633.12262244841
 11
3524.031010867466
 21
42638.1226224484
 72
     1
 10
3524.031010867466
 20
42638.1226224484
 11
3525.531010867467
 21
42633.1226224484
 72
     1
 10
3525.531010867467
 20
42633.1226224484
 11
3525.531010867467
 21
42608.8726224484
 72
     1
 10
3525.531010867467
 20
42608.8726224484
 11
3648.89762973425
 21
42608.8726224484
 97
        0
 75
     0
 76
     1
 52
0.0
 41
5.0
 77
     0
 78
    13
 53
50.0
 43
3404.120469275017
 44
42608.8726224484
 45
35.86300913003768
 46
-3.137606749129755
 79
     2
 49
3.75
 49
-41.25
 53
355.0
 43
3404.120469275017
 44
42608.8726224484
 45
-6.93756668065
 46
37.6096066850006
 79
     2
 49
3.0
 49
-33.0
 53
100.4514
 43
3407.109053275018
 44
42608.6111554484
 45
28.92546908570108
 46
34.47197710304768
 79
     2
 49
3.1870095
 49
-35.0571056
 53
46.1842
 43
3404.120469275017
 44
42618.87262244839
 45
53.36205243128222
 46
-8.275950716450903
 79
     2
 49
5.625
 49
-61.875
 53
96.6356
 43
3408.567306525017
 44
42618.18295709839
 45
46.73313527743516
 46
48.70589354502208
 79
     2
 49
4.780514399999999
 49
-52.58565
 53
351.1842000000001
 43
3404.120469275017
 44
42618.87262244839
 45
46.73309725668135
 46
48.70593004626623
 79
     2
 49
4.5
 49
-49.5
 53
21.0
 43
3409.120469275017
 44
42616.3726224484
 45
29.84535260592308
 46
-20.13094453326694
 79
     2
 49
3.75
 49
-41.25
 53
326.0
 43
3409.120469275017
 44
42616.3726224484
 45
12.16576659607908
 46
36.25750225234265
 79
     2
 49
3.0
 49
-33.0
 53
71.45140000000001
 43
3411.607580925017
 44
42614.6950421484
 45
42.01113142907449
 46
16.12652483549762
 79
     2
 49
3.1870095
 49
-35.0571056
 53
37.5
 43
3404.120469275017
 44
42608.8726224484
 45
0.6079927658645335
 46
16.64469269156557
 79
     6
 49
0.0
 49
-32.6
 49
0.0
 49
-33.5
 49
0.0
 49
-33.125
 53
7.499999999999999
 43
3404.120469275017
 44
42608.8726224484
 45
13.15347687210743
 46
19.72058559411801
 79
     6
 49
0.0
 49
-19.1
 49
0.0
 49
-31.85
 49
0.0
 49
-12.625
 53
327.5
 43
3392.970469275017
 44
42608.8726224484
 45
26.69112180862045
 46
-1.127743586718989
 79
     6
 49
0.0
 49
-12.5
 49
0.0
 49
-39.0
 49
0.0
 49
-51.75
 53
317.5
 43
3387.970469275017
 44
42608.8726224484
 45
29.15930846711931
 46
5.005249116615882
 79
     6
 49
0.0
 49
-16.25
 49
0.0
 49
-25.9
 49
0.0
 49
-36.75
 47
0.4540763080453822
 98
        1
 10
3559.830443848747
 20
42623.78643378892
1001
ACAD
1010
3404.120469275017
1020
42608.8726224484
1030
0.0
  0
HATCH
  5
3930
330
2
100
AcDbEntity
  8
Hatch
 62
    21
100
AcDbHatch
 10
0.0
 20
0.0
 30
0.0
210
0.0
220
0.0
230
1.0
  2
SOLID
 70
     1
 71
     0
 91
        2
 92
        7
 72
     1
 73
     1
 93
        8
 10
3560.781010867467
 20
42608.8726224484
 42
0.0
 10
3525.531010867468
 20
42608.87262244839
 42
0.0
 10
3525.531010867467
 20
42608.1226224484
 42
0.0
 10
3560.781010867467
 20
42608.1226224484
 42
-0.4142135623730951
 10
3561.531010867467
 20
42607.3726224484
 42
0.0
 10
3561.531010867468
 20
42558.8726224484
 42
0.0
 10
3562.281010867468
 20
42558.87262244841
 42
0.0
 10
3562.281010867467
 20
42607.3726224484
 42
0.4142135623716745
 97
        0
 92
        7
 72
     1
 73
     1
 93
        9
 10
3522.531010867467
 20
42608.8726224484
 42
0.0
 10
3487.281010867467
 20
42608.8726224484
 42
0.4142135623716746
 10
3485.781010867467
 20
42607.3726224484
 42
0.0
 10
3485.781010867468
 20
42558.8726224484
 42
0.0
 10
3486.531010867472
 20
42558.8726224484
 42
0.0
 10
3486.531010867472
 20
42593.8726224484
 42
0.0
 10
3486.531010867467
 20
42607.3726224484
 42
-0.4142135623730951
 10
3487.281010867467
 20
42608.1226224484
 42
0.0
 10
3522.531010867467
 20
42608.1226224484
 42
0.0
 97
        0
 75
     0
 76
     1
 47
0.1917518894570748
 98
        2
 10
3543.133104253033
 20
42608.72398111426
 10
3518.769581915484
 20
42608.53223084607
450
        0
451
        0
460
0.0
461
0.0
452
        1
462
1.0
453
        2
463
0.0
 63
     5
421
      255
463
1.0
 63
     7
421
 16777215
470
LINEAR
1001
ACAD
1010
3485.781010867468
1020
42558.8726224484
1030
0.0
  0
SPLINE
  5
3961
330
2
100
AcDbEntity
  8
Sealant
100
AcDbSpline
210
0.0
220
0.0
230
1.0
 70
  1064
 71
     3
 72
    14
 73
    10
 74
     8
 42
0.000000001
 43
0.0000000001
 44
0.00001
 40
0.0
 40
0.0
 40
0.0
 40
0.0
 40
4.556320151137621
 40
9.267398870332236
 40
14.17989644855482
 40
20.3843813017142
 40
26.67868217285084
 40
40.19352907777261
 40
45.71927322564078
 40
45.71927322564078
 40
45.71927322564078
 40
45.71927322564078
 10
3524.069294487876
 20
42604.96305588609
 30
0.0
 10
3522.537505741189
 20
42604.92475790317
 30
0.0
 10
3519.421899813594
 20
42604.84685059923
 30
0.0
 10
3514.914378011757
 20
42606.30247523845
 30
0.0
 10
3509.760611136621
 20
42608.06564984703
 30
0.0
 10
3503.746642607308
 20
42604.53080983388
 30
0.0
 10
3504.360711011451
 20
42593.69939394255
 30
0.0
 10
3515.826050173196
 20
42594.46519415297
 30
0.0
 10
3521.929807359922
 20
42594.40354566522
 30
0.0
 10
3523.701170384302
 20
42594.38565793542
 30
0.0
 11
3524.069294487876
 21
42604.96305588609
 31
0.0
 11
3519.514935463813
 21
42605.09694823948
 31
0.0
 11
3514.96057643975
 21
42606.30196686011
 31
0.0
 11
3510.138313046893
 21
42607.2392057979
 31
0.0
 11
3504.914195006524
 21
42603.89192710689
 31
0.0
 11
3505.04814528524
 21
42597.599046785
 31
0.0
 11
3518.175417431201
 21
42594.38565793542
 31
0.0
 11
3523.701170384302
 21
42594.38565793542
 31
0.0
  0
SPLINE
  5
3962
330
2
100
AcDbEntity
  8
Sealant
100
AcDbSpline
210
0.0
220
0.0
230
1.0
 70
  1064
 71
     3
 72
    14
 73
    10
 74
     8
 42
0.000000001
 43
0.0000000001
 44
0.00001
 40
0.0
 40
0.0
 40
0.0
 40
0.0
 40
4.556319987193147
 40
9.267398715447013
 40
14.17989631293341
 40
20.3843811895991
 40
26.67868208780069
 40
40.19352899303834
 40
46.3789541386527
 40
46.3789541386527
 40
46.3789541386527
 40
46.3789541386527
 10
3523.992727247059
 20
42604.96305588609
 30
0.0
 10
3525.524512295827
 20
42604.92475882815
 30
0.0
 10
3528.640110749572
 20
42604.84685364374
 30
0.0
 10
3533.147690374181
 20
42606.30246343639
 30
0.0
 10
3538.301206339042
 20
42608.0657017222
 30
0.0
 10
3544.316371851187
 20
42604.53055827894
 30
0.0
 10
3543.695758717451
 20
42593.70080187976
 30
0.0
 10
3531.973890508216
 20
42594.47588995909
 30
0.0
 10
3525.677948877927
 20
42594.40721647826
 30
0.0
 10
3523.701170384302
 20
42594.38565793542
 30
0.0
 11
3523.992727247059
 21
42604.96305588609
 31
0.0
 11
3528.547086271122
 21
42605.09694823948
 31
0.0
 11
3533.101445295185
 21
42606.30196686011
 31
0.0
 11
3537.923708688042
 21
42607.2392057979
 31
0.0
 11
3543.14782672841
 21
42603.89192710689
 31
0.0
 11
3543.013876449695
 21
42597.599046785
 31
0.0
 11
3529.886604303734
 21
42594.38565793542
 31
0.0
 11
3523.701170384302
 21
42594.38565793542
 31
0.0
  0
HATCH
  5
396E
330
2
100
AcDbEntity
  8
Sealant
100
AcDbHatch
 10
0.0
 20
0.0
 30
0.0
210
0.0
220
0.0
230
1.0
  2
ANSI31
 70
     0
 71
     0
 91
        1
 92
        5
 93
        2
 72
     4
 94
        3
 73
     0
 74
     0
 95
       14
 96
       10
 40
0.0379588571657408
 40
0.0379588571657408
 40
0.0379588571657408
 40
0.0379588571657408
 40
6.223392776597229
 40
19.73824171740224
 40
26.03254751095068
 40
32.23703652577051
 40
37.14953497936726
 40
41.86061298722665
 40
46.37898086136106
 40
46.37898086136106
 40
46.37898086136106
 40
46.37898086136106
 10
3523.701170384302
 20
42594.38565793542
 10
3525.67795168192
 20
42594.40721650884
 10
3531.973896513465
 20
42594.47587943534
 10
3543.695770629453
 20
42593.70080247151
 10
3544.316381325893
 20
42604.53056174463
 10
3538.301214471332
 20
42608.06570972085
 10
3533.147696274187
 20
42606.30247146584
 10
3528.652181444338
 20
42604.8507604027
 10
3525.550034424215
 20
42604.92413793033
 10
3524.031011283758
 20
42604.96209886767
 72
     4
 94
        3
 73
     0
 74
     0
 95
       14
 96
       10
 40
0.0379579413933533
 40
0.0379579413933533
 40
0.0379579413933533
 40
0.0379579413933533
 40
4.556326731300142
 40
9.267404739159545
 40
14.17990319275628
 40
20.38439220757612
 40
26.67869800112455
 40
40.19354694192957
 40
45.71929989503046
 40
45.71929989503046
 40
45.71929989503046
 40
45.71929989503046
 10
3524.031011283757
 20
42604.96209886767
 10
3522.511984223584
 20
42604.92413700609
 10
3519.409829684392
 20
42604.85075754577
 10
3514.91437224828
 20
42606.30248332839
 10
3509.76060314232
 20
42608.06565796778
 10
3503.746633209866
 20
42604.53081346011
 10
3504.360699022253
 20
42593.69939479209
 10
3515.826044165045
 20
42594.46518320946
 10
3521.929804537268
 20
42594.40354569372
 10
3523.701170384302
 20
42594.38565793542
 97
        0
 75
     0
 76
     1
 52
0.0
 41
10.0
 77
     0
 78
     1
 53
45.0
 43
3503.746633209866
 44
42593.69939479209
 45
-0.8838834764831842
 46
0.8838834764831844
 79
     0
 47
0.1478879725658201
 98
        1
 10
3522.562995113786
 20
42600.30218675168
1001
ACAD
1010
3503.746633209866
1020
42593.69939479209
1030
0.0
  0
DIMENSION
  5
4011
330
2
100
AcDbEntity
  8
Text
100
AcDbDimension
  2
*D13
 10
3592.613254994193
 20
42593.87262198748
 30
0.0
 11
3588.040274681899
 21
42576.3726220306
 31
0.0
 70
    32
  1
{\fSwis721 BT|b0|i1|c0|p34;35mm}
 71
     5
 42
34.99999991376535
  3
Dim 2
100
AcDbAlignedDimension
 13
3562.281010894259
 23
42558.87262207371
 33
0.0
 14
3561.531010896106
 24
42593.87262198748
 34
0.0
 50
90.0
100
AcDbRotatedDimension
1001
ACAD_DIMASSOC_CALC_DIMLFAC
1040
-5.000000010259193
1001
ACAD_DIMASSOC_DIMLFAC
1040
-5.000000010259193
1001
ACAD_DIMASSOC_OVERRIDDEN_DIMLFAC
1040
0.0
  0
DIMENSION
  5
4012
330
2
100
AcDbEntity
  8
Text
100
AcDbDimension
  2
*D14
 10
3606.596669600783
 20
42608.87262195056
 30
0.0
 11
3606.596669600776
 21
42601.37262196902
 31
0.0
 70
   160
  1
15mm max
 71
     5
 42
14.99999996306724
 53
0.1
  3
Dim 2
100
AcDbAlignedDimension
 13
3561.531010896106
 23
42593.8726219875
 33
0.0
 14
3560.781010897953
 24
42608.87262195056
 34
0.0
 50
90.0
100
AcDbRotatedDimension
1001
ACAD_DIMASSOC_CALC_DIMLFAC
1040
-5.000000010259193
1001
ACAD_DIMASSOC_DIMLFAC
1040
-5.000000010259193
1001
ACAD_DIMASSOC_OVERRIDDEN_DIMLFAC
1040
0.0
  0
MTEXT
  5
4013
330
2
100
AcDbEntity
  8
Text
100
AcDbMText
 10
3581.693805133046
 20
42677.01549455614
 30
0.0
 40
5.0
 41
95.28046888722746
 71
     1
 72
     5
  1
{\fSwis721 BT|b0|i1|c0|p34;Deflection head fixed to soffit}
  7
1
 73
     1
 44
1.0
  0
LEADER
  5
4014
330
2
100
AcDbEntity
  8
Text
100
AcDbLeader
  3
STANDARD
 72
     1
 76
     4
 10
3525.956828095695
 20
42608.15441184419
 30
0.0
 10
3536.207645726583
 20
42645.26459414107
 30
0.0
 10
3560.187385023222
 20
42672.84522463758
 30
0.0
 10
3575.297905478192
 20
42674.15858715335
 30
0.0
1001
ACAD
1000
DSTYLE
1002
{
1070
    41
1040
6.0
1070
   147
1040
1.0
1070
    77
1070
     0
1002
}
  0
MTEXT
  5
4015
330
2
100
AcDbEntity
  8
Text
100
AcDbMText
 10
3364.333541454351
 20
42645.00223190705
 30
0.0
 40
5.0
 41
95.28046888722746
 71
     1
 72
     5
  1
{\fSwis721 BT|b0|i1|c0|p34;22mm IBS Promaseal}
  7
1
 73
     1
 44
1.0
  0
LEADER
  5
4016
330
2
100
AcDbEntity
  8
Text
100
AcDbLeader
  3
STANDARD
 72
     1
 76
     4
 10
3516.182619458465
 20
42600.77574532871
 30
0.0
 10
3493.33645686888
 20
42616.59090841531
 30
0.0
 10
3454.038872611811
 20
42640.46694693279
 30
0.0
 10
3434.12693887263
 20
42642.0934660203
 30
0.0
213
31.19604235927909
223
9.509110259962426
233
0.0
1001
ACAD
1000
DSTYLE
1002
{
1070
    41
1040
6.0
1070
    77
1070
     0
1002
}
  0
MTEXT
  5
4017
330
2
100
AcDbEntity
  8
Text
100
AcDbMText
 10
3491.531619156589
 20
42408.06381898609
 30
0.0
 40
2.5
 41
0.0
 71
     6
 72
     1
  1
\A1;
  7
1
 73
     1
 44
1.0
  0
DIMENSION
  5
401F
330
2
100
AcDbEntity
  8
Text
100
AcDbDimension
  2
*D15
 10
3450.376120463739
 20
42558.87262207371
 30
0.0
 11
3445.803140151446
 21
42583.87262201214
 31
0.0
 70
    32
  1
{\fSwis721 BT|b0|i1|c0|p34;<>mm}
 71
     5
 42
49.99999987684714
  3
Dim 2
100
AcDbAlignedDimension
 13
3487.281011078993
 23
42608.87262195056
 33
0.0
 14
3485.781011082687
 24
42558.87262207371
 34
0.0
 50
90.0
100
AcDbRotatedDimension
1001
ACAD_DIMASSOC_CALC_DIMLFAC
1040
-2.000000004926168
1001
ACAD_DIMASSOC_DIMLFAC
1040
-2.000000004926168
1001
ACAD_DIMASSOC_OVERRIDDEN_DIMLFAC
1040
0.0
  0
MTEXT
  5
4020
102
{ACAD_XDICTIONARY
360
4021
102
}
330
2
100
AcDbEntity
  8
Text
100
AcDbMText
 10
3392.112017884499
 20
42487.00290458195
 30
0.0
 40
5.0
 41
82.01927247400908
 71
     1
 72
     5
  1
{\fSwis721 BT|b0|i1|c0|p34;75mm Supercrete}\U+2122{\fSwis721 BT|b0|i1|c0|p34; Panel}
  7
1
 73
     1
 44
1.0
  0
LEADER
  5
4022
330
2
100
AcDbEntity
  8
Text
100
AcDbLeader
  3
STANDARD
 72
     1
 76
     4
 10
3528.747215909643
 20
42512.446782422
 30
0.0
 10
3504.028723269041
 20
42495.84023471242
 30
0.0
 10
3483.530141291358
 20
42484.69260236347
 30
0.0
 10
3474.01879317826
 20
42483.57409878276
 30
0.0
213
52.90393422634224
223
9.207653021699115
233
0.0
1001
ACAD
1000
DSTYLE
1002
{
1070
    41
1040
6.0
1070
    77
1070
     0
1002
}
  0
MTEXT
  5
4023
330
2
100
AcDbEntity
  8
Text
100
AcDbMText
 10
3549.165999053331
 20
42631.29397879928
 30
0.0
 40
5.0
 41
46.17125017635408
 71
     1
 72
     5
  1
{\fSwis721 BT|b0|i1|c0|p34;Concrete soffit}
  7
1
 73
     1
 44
1.0
 90
        3
 63
   256
 45
1.5
441
  7800386
  0
TEXT
  5
40AC
330
2
100
AcDbEntity
  8
3
 62
     7
100
AcDbText
 10
1732.785331738051
 20
42334.66709311306
 30
0.0
 40
16.0
  1

 41
0.85
  7
ROMANS
100
AcDbText
  0
LINE
  5
40AD
330
2
100
AcDbEntity
  8
Title block
100
AcDbLine
 10
3332.866446614882
 20
42284.75985464429
 30
0.0
 11
3332.866446614882
 21
42218.15307245545
 31
0.0
  0
LINE
  5
40AE
330
2
100
AcDbEntity
  8
Title block
100
AcDbLine
 10
3332.866446614882
 20
42218.15307245545
 30
0.0
 11
3712.866446614882
 21
42218.15307245545
 31
0.0
  0
LINE
  5
40AF
330
2
100
AcDbEntity
  8
Title block
100
AcDbLine
 10
3712.866446614882
 20
42218.15307245545
 30
0.0
 11
3712.866446614882
 21
42284.75985464429
 31
0.0
  0
LINE
  5
40B1
330
2
100
AcDbEntity
  8
Title block
100
AcDbLine
 10
3450.299518568095
 20
42256.85127261626
 30
0.0
 11
3713.223603851789
 21
42256.85127261626
 31
0.0
  0
LINE
  5
40B2
330
2
100
AcDbEntity
  8
Title block
100
AcDbLine
 10
3450.299518568095
 20
42238.78159343717
 30
0.0
 11
3713.22360385179
 21
42238.78159343717
 31
0.0
  0
TEXT
  5
40B3
330
2
100
AcDbEntity
  8
0
100
AcDbText
 10
3459.006714565298
 20
42245.60566980761
 30
0.0
 40
5.0
  1
Date:    March 2016
  7
Title block
100
AcDbText
  0
TEXT
  5
40B4
330
2
100
AcDbEntity
  8
0
100
AcDbText
 10
3622.434808442238
 20
42245.72733694704
 30
0.0
 40
5.0
  1
Detail No.
  7
Title block
100
AcDbText
  0
TEXT
  5
40B5
330
2
100
AcDbEntity
  8
0
100
AcDbText
 10
3458.65942875082
 20
42275.84737976338
 30
0.0
 40
5.0
  1
Title:
  7
Title block
100
AcDbText
  0
LWPOLYLINE
  5
40B6
330
2
100
AcDbEntity
  8
Title block
100
AcDbPolyline
 90
        2
 70
     0
 43
0.0
 10
3332.866446614882
 20
42284.75985464429
 10
3712.866446614882
 20
42284.75985464429
  0
MTEXT
  5
40B7
330
2
100
AcDbEntity
  8
Title block
100
AcDbMText
 10
3452.873211176721
 20
42234.64265654387
 30
0.0
 40
5.0
 41
259.6916423192433
 71
     1
 72
     1
  1
This drawing is to be read in conjunction with all the current, relevant Supercrete \PTechnical Literature, Project Specific Design Documentation and Specifications
  7
Title block
 73
     1
 44
1.0
  0
LWPOLYLINE
  5
40B8
330
2
100
AcDbEntity
  8
Title block
100
AcDbPolyline
 90
        2
 70
     0
 43
0.0
 10
3533.079124234558
 20
42256.85127261626
 10
3533.079124234558
 20
42238.78159343717
  0
LWPOLYLINE
  5
40B9
330
2
100
AcDbEntity
  8
Title block
100
AcDbPolyline
 90
        2
 70
     0
 43
0.0
 10
3619.153440574312
 20
42256.85127261626
 10
3619.153440574312
 20
42238.78159343717
  0
TEXT
  5
40BA
330
2
100
AcDbEntity
  8
0
100
AcDbText
 10
3541.78632023176
 20
42245.60566980761
 30
0.0
 40
5.0
  1
Scale:
  7
Title block
100
AcDbText
  0
LINE
  5
40C0
330
2
100
AcDbEntity
  8
Title block
100
AcDbLine
 10
3449.976126881548
 20
42284.77828845545
 30
0.0
 11
3449.976126881548
 21
42218.17150626661
 31
0.0
  0
IMAGE
  5
40C1
330
2
100
AcDbEntity
  8
Title block
 92
      140
310
8C000000010000008400000006000000050000004B05E49EBB09AA401FA7E6F54BA2E44000000000000000004B05E49EBB09AA40DEAFBA5098A5E4400000000000000000FE11E7C6F3F3AA40DEAFBA5098A5E4400000000000000000FE11E7C6F3F3AA401FA7E6F54BA2E44000000000000000004B05E49EBB09AA401FA7E6
310
F54BA2E4400000000000000000
100
AcDbRasterImage
 90
        0
 10
3332.866446614882
 20
42258.37376721039
 30
0.0
 11
0.085669115045111
 21
0.0
 31
0.0
 12
0.0
 22
0.085669115045111
 32
0.0
 13
1367.0
 23
308.0
340
3FCA
 70
     7
280
     0
281
    50
282
    50
283
     0
360
40C2
 71
     1
 91
        2
 14
-0.5
 24
-0.5
 14
1366.5
 24
307.5
  0
MTEXT
  5
40C4
102
{ACAD_XDICTIONARY
360
4154
102
}
330
2
100
AcDbEntity
  8
Text
100
AcDbMText
 10
3472.713788322123
 20
42283.38632759125
 30
0.0
 40
10.0
 41
246.1397015042312
 71
     1
 72
     5
  1
\pi32.023;{\H0.8x;A.W.S. - Deflection Head - Top Track\P\pi35.254;\fTahoma|b0|i0|c0|p34;\H0.75x;Use where H \U+2264 3200mm for Wall Types 2, 3 & 4}
  7
2
 73
     1
 44
1.0
1001
ACAD
1000
ACAD_MTEXT_COLUMN_INFO_BEGIN
1070
    75
1070
     2
1070
    79
1070
     0
1070
    76
1070
     1
1070
    78
1070
     0
1070
    48
1040
246.1397015042312
1070
    49
1040
25.0
1070
    50
1070
     1
1040
0.0
1000
ACAD_MTEXT_COLUMN_INFO_END
  0
MTEXT
  5
40C5
330
2
100
AcDbEntity
  8
Text
100
AcDbMText
 10
3660.84155252318
 20
42254.05678418406
 30
0.0
 40
10.0
 41
67.98035350380814
 71
     1
 72
     5
  1
10.1.7
  7
2
 73
     1
 44
1.0
1001
ACAD
1000
ACAD_MTEXT_COLUMN_INFO_BEGIN
1070
    75
1070
     2
1070
    79
1070
     0
1070
    76
1070
     1
1070
    78
1070
     0
1070
    48
1040
67.98035350380814
1070
    49
1040
25.0
1070
    50
1070
     1
1040
0.0
1000
ACAD_MTEXT_COLUMN_INFO_END
  0
VIEWPORT
  5
5F
330
5E
100
AcDbEntity
 67
     1
  8
0
100
AcDbViewport
 10
87.70812920605621
 20
546.6625540199975
 30
0.0
 40
449.2527573529804
 41
299.3737365081025
 68
     1
 69
     1
 12
87.70812920605621
 22
546.6625540199975
 13
0.0
 23
0.0
 14
1.0
 24
1.0
 15
1900.0
 25
1900.0
 16
0.0
 26
0.0
 36
1.0
 17
0.0
 27
0.0
 37
0.0
 42
50.0
 43
0.0
 44
0.0
 45
299.3737365081025
 50
0.0
 51
0.0
 72
 20000
 90
    32768
  1

281
     0
 71
     1
 74
     0
110
0.0
120
0.0
130
0.0
111
1.0
121
0.0
131
0.0
112
0.0
122
1.0
132
0.0
 79
     0
146
0.0
170
     0
  0
VIEWPORT
  5
24CE
102
{ACAD_REACTORS
330
38D1
102
}
330
5E
100
AcDbEntity
 67
     1
  8
DEFPOINTS
100
AcDbViewport
 10
86.06563464237343
 20
554.8281275898285
 30
0.0
 40
185.7014191676817
 41
202.0418586604274
 68
     2
 69
     2
 12
-19664.47788711193
 22
8440.631847989989
 13
0.0
 23
0.0
 14
1.0
 24
1.0
 15
1900.0
 25
1900.0
 16
0.0
 26
0.0
 36
1.0
 17
23187.54216236222
 27
34067.94128341666
 37
1200.0
 42
50.0
 43
0.0
 44
0.0
 45
404.0837183161469
 50
0.0
 51
0.0
 72
 20000
 90
    32768
  1

281
     0
 71
     1
 74
     0
110
0.0
120
0.0
130
0.0
111
1.0
121
0.0
131
0.0
112
0.0
122
1.0
132
0.0
 79
     0
146
0.0
170
     0
  0
DIMENSION
  5
32CB
330
5E
100
AcDbEntity
 67
     1
  8
Text
100
AcDbDimension
  2
*D1
 10
120.8401244526352
 20
597.4778730056465
 30
0.0
 11
118.5536342964912
 21
588.7278730272039
 31
0.0
 70
    32
  1
{\fSwis721 BT|b0|i1|c0|p34;35mm}
 71
     5
 42
87.4999999639612
  3
STANDARD
100
AcDbAlignedDimension
 13
105.674002402668
 23
579.9778730487615
 33
0.0
 14
105.2990024035917
 24
597.4778730056465
 34
0.0
 50
90.0
100
AcDbRotatedDimension
1001
ACAD_DIMASSOC_CALC_DIMLFAC
1040
-5.000000010259193
1001
ACAD_DIMASSOC_DIMLFAC
1040
-5.000000010259193
1001
ACAD_DIMASSOC_OVERRIDDEN_DIMLFAC
1040
0.0
1001
ACAD
1000
DSTYLE
1002
{
1070
   144
1040
-5.000000010259193
1002
}
  0
DIMENSION
  5
333C
330
5E
100
AcDbEntity
 67
     1
  8
Text
100
AcDbDimension
  2
*D2
 10
120.8401244526352
 20
604.9778729871843
 30
0.0
 11
127.8318317559269
 21
601.3341395508405
 31
0.0
 70
   160
  1
15mm max
 71
     5
 42
37.4999999845967
 53
0.1
  3
STANDARD
100
AcDbAlignedDimension
 13
105.2990024035917
 23
597.4778730056538
 33
0.0
 14
104.9240024045153
 24
604.9778729871843
 34
0.0
 50
90.0
100
AcDbRotatedDimension
1001
ACAD_DIMASSOC_CALC_DIMLFAC
1040
-5.000000010259193
1001
ACAD_DIMASSOC_DIMLFAC
1040
-5.000000010259193
1001
ACAD_DIMASSOC_OVERRIDDEN_DIMLFAC
1040
0.0
1001
ACAD
1000
DSTYLE
1002
{
1070
   279
1070
     2
1070
   144
1040
-5.000000010259193
1002
}
  0
MTEXT
  5
35D5
330
5E
100
AcDbEntity
 67
     1
  8
Text
100
AcDbMText
 10
115.3803995220614
 20
639.0493092899705
 30
0.0
 40
2.5
 41
47.64023444361373
 71
     1
 72
     5
  1
{\fSwis721 BT|b0|i1|c0|p34;Deflection head fixed to soffit}
  7
1
 73
     1
 44
1.0
  0
LEADER
  5
35D7
330
5E
100
AcDbEntity
 67
     1
  8
Text
100
AcDbLeader
  3
STANDARD
 72
     1
 76
     4
 10
87.51191100338614
 20
604.618767934003
 30
0.0
 10
92.63731981883006
 20
623.1738590824372
 30
0.0
 10
104.6271894671495
 20
636.9641743306922
 30
0.0
 10
112.1824496946344
 20
637.6208555885768
 30
0.0
1001
ACAD
1000
DSTYLE
1002
{
1070
   147
1040
1.0
1070
    77
1070
     0
1002
}
  0
MTEXT
  5
35D8
330
5E
100
AcDbEntity
 67
     1
  8
Text
100
AcDbMText
 10
125.2949469969216
 20
577.3815487020742
 30
0.0
 40
2.5
 41
0.0
 71
     4
 72
     1
  1
\A1;
  7
1
 73
     1
 44
1.0
  0
MTEXT
  5
35DA
330
5E
100
AcDbEntity
 67
     1
  8
Text
100
AcDbMText
 10
6.700267682714184
 20
623.0426779654344
 30
0.0
 40
2.5
 41
47.64023444361373
 71
     1
 72
     5
  1
{\fSwis721 BT|b0|i1|c0|p34;22mm IBS Promaseal}
  7
1
 73
     1
 44
1.0
  0
MTEXT
  5
35DC
330
5E
100
AcDbEntity
 67
     1
  8
Text
100
AcDbMText
 10
29.48610194748653
 20
505.2299670582855
 30
0.0
 40
2.5
 41
0.0
 71
     6
 72
     1
  1
\A1;
  7
1
 73
     1
 44
1.0
  0
LEADER
  5
35DD
330
5E
100
AcDbEntity
 67
     1
  8
Text
100
AcDbLeader
  3
STANDARD
 72
     1
 73
     0
 40
2.5
 76
     4
 10
82.6248066847711
 20
600.9294346762649
 30
0.0
 10
71.20172538997872
 20
608.8370162195574
 30
0.0
 10
51.55293326144397
 20
620.7750354782993
 30
0.0
 10
41.59696639185381
 20
621.5882950220575
 30
0.0
340
35DC
213
15.59802117963954
223
4.754555129981213
233
0.0
1001
ACAD
1000
DSTYLE
1002
{
1070
   147
1040
1.0
1070
    77
1070
     0
1002
}
  0
INSERT
  5
3700
330
5E
100
AcDbEntity
 67
     1
  8
Border
100
AcDbBlockReference
 66
     1
  2
A4 Title Block
 10
44.36096046521856
 20
430.8170082888836
 30
0.0
  0
ATTRIB
  5
3701
330
3700
100
AcDbEntity
 67
     1
  8
Title block
100
AcDbText
 10
75.98134652485487
 20
433.1439115376544
 30
0.0
 40
4.0
  1
A.W.S. -  Deflection Head - Top Track. 
100
AcDbAttribute
  2
TITLE
 70
     0
1001
AcDbAttr
1070
     0
1070
     1
  0
ATTRIB
  5
3702
330
3700
100
AcDbEntity
 67
     1
  8
Title block
100
AcDbText
 10
56.773201489945
 20
419.0611445253566
 30
0.0
 40
2.5
  1
December 2013
100
AcDbAttribute
  2
DATE
 70
     0
1001
AcDbAttr
1070
     0
1070
     1
  0
ATTRIB
  5
3703
330
3700
100
AcDbEntity
 67
     1
  8
Title block
100
AcDbText
 10
107.5972574667264
 20
418.8825747423875
 30
0.0
 40
2.5
  1
1:2
100
AcDbAttribute
  2
SCALE
 70
     0
1001
AcDbAttr
1070
     0
1070
     1
  0
ATTRIB
  5
3704
330
3700
100
AcDbEntity
 67
     1
  8
Title block
100
AcDbText
 10
154.2213846492511
 20
418.666281131994
 30
0.0
 40
3.5
  1
10.1.7
100
AcDbAttribute
  2
DRGNO
 70
     0
1001
AcDbAttr
1070
     0
1070
     1
  0
ATTRIB
  5
3705
330
3700
100
AcDbEntity
 67
     1
  8
Title block
100
AcDbText
 10
76.24137808240334
 20
426.2230966778624
 30
0.0
 40
3.0
  1
Use where H \U+2264 3200mm for Wall Types 2, 3 & 4
100
AcDbAttribute
  2
TITLE2
 70
     0
1001
AcDbAttr
1070
     0
1070
     1
  0
SEQEND
  5
3706
330
3700
100
AcDbEntity
 67
     1
  8
Border
  0
DIMENSION
  5
38BA
102
{ACAD_XDICTIONARY
360
38C7
102
}
102
{ACAD_REACTORS
330
38D1
102
}
330
5E
100
AcDbEntity
 67
     1
  8
Text
100
AcDbDimension
  2
*D8
 10
49.72155718740843
 20
579.9778730487611
 30
0.0
 11
47.43506703126441
 21
592.4778730179725
 31
0.0
 70
    32
  1
{\fSwis721 BT|b0|i1|c0|p34;<>mm}
 71
     5
 42
49.99999999999999
  3
STANDARD
100
AcDbAlignedDimension
 13
68.17400249503475
 23
604.977872987184
 33
0.0
 14
67.42400249688206
 24
579.9778730487611
 34
0.0
 50
90.0
100
AcDbRotatedDimension
1001
ACAD_DIMASSOC_CALC_DIMLFAC
1040
-2.000000004926168
1001
ACAD_DIMASSOC_DIMLFAC
1040
-2.000000004926168
1001
ACAD_DIMASSOC_OVERRIDDEN_DIMLFAC
1040
0.0
1001
ACAD
1000
DSTYLE
1002
{
1070
   144
1040
-2.000000004926168
1002
}
  0
MTEXT
  5
38F6
102
{ACAD_XDICTIONARY
360
3DB3
102
}
330
5E
100
AcDbEntity
 67
     1
  8
Text
100
AcDbMText
 10
20.58950589778806
 20
544.0430143028809
 30
0.0
 40
2.5
 41
31.70925384154953
 71
     1
 72
     5
  1
{\fSwis721 BT|b0|i1|c0|p34;75mm Supercrete}\U+2122{\fSwis721 BT|b0|i1|c0|p34; Panel}
  7
1
 73
     1
 44
1.0
  0
LEADER
  5
38F7
330
5E
100
AcDbEntity
 67
     1
  8
Text
100
AcDbLeader
  3
STANDARD
 72
     1
 73
     0
 40
2.5
 76
     4
 10
88.90710491035974
 20
556.7649532229061
 30
0.0
 10
76.54785859005892
 20
548.4616793681113
 30
0.0
 10
63.15934135452471
 20
543.6971814310066
 30
0.0
 10
52.45091232538539
 20
542.4379034392597
 30
0.0
340
35DC
213
26.45196711317112
223
4.603826510849557
233
0.0
1001
ACAD
1000
DSTYLE
1002
{
1070
   147
1040
1.0
1070
    77
1070
     0
1002
}
  0
MTEXT
  5
38F8
330
5E
100
AcDbEntity
 67
     1
  8
Text
100
AcDbMText
 10
99.11649648220441
 20
616.1885514115417
 30
0.0
 40
2.5
 41
23.08562508817704
 71
     1
 72
     5
  1
{\fSwis721 BT|b0|i1|c0|p34;Concrete soffit}
  7
1
 73
     1
 44
1.0
 90
        3
 63
   256
 45
1.5
441
  7800386
  0
ENDSEC
  0
SECTION
  2
OBJECTS
  0
DICTIONARY
  5
562
330
0
100
AcDbDictionary
281
     1
  3
ACAD_2007HEADERVARS_RT
350
4157
  3
ACAD_CIP_PREVIOUS_PRODUCT_INFO
350
3CF2
  3
ACAD_COLOR
350
2F60
  3
ACAD_DETAILVIEWSTYLE
350
3CE5
  3
ACAD_GROUP
350
560
  3
ACAD_IMAGE_DICT
350
3025
  3
ACAD_IMAGE_VARS
350
302E
  3
ACAD_LAYOUT
350
58C
  3
ACAD_MATERIAL
350
2F36
  3
ACAD_MLEADERSTYLE
350
2F85
  3
ACAD_MLINESTYLE
350
561
  3
ACAD_PLOTSETTINGS
350
58D
  3
ACAD_PLOTSTYLENAME
350
58A
  3
ACAD_SCALELIST
350
2F63
  3
ACAD_SECTIONVIEWSTYLE
350
3CE2
  3
ACAD_TABLESTYLE
350
2F61
  3
ACAD_VISUALSTYLE
350
2F4F
  3
AcadDim
350
35D6
  3
ACDB_RECOMPOSE_DATA
350
4156
  3
AcDbVariableDictionary
350
599
  3
AcDsDecomposeData
350
415F
  3
AEC_PROPERTY_SET_DEFS
350
36FF
  3
ASE_INDEX_DICTIONARY
350
596
  0
DICTIONARY
  5
2FC5
330
55B
100
AcDbDictionary
280
     1
281
     1
  0
DICTIONARY
  5
2C65
330
553
100
AcDbDictionary
280
     1
281
     1
  3
ACAD_LAYERFILTERS
360
2C66
  3
ACAD_LAYERSTATES
360
2FE7
  0
DICTIONARY
  5
2F90
330
24
100
AcDbDictionary
280
     1
281
     1
  3
ADSK_XREC_LAYER_RECONCILED
360
2F91
  0
DICTIONARY
  5
2F94
330
4
100
AcDbDictionary
280
     1
281
     1
  3
ADSK_XREC_LAYER_RECONCILED
360
2F95
  0
DICTIONARY
  5
2FF7
330
2FF6
100
AcDbDictionary
280
     1
281
     1
  0
DICTIONARY
  5
2FF9
330
2FF8
100
AcDbDictionary
280
     1
281
     1
  0
DICTIONARY
  5
37C1
330
37C0
100
AcDbDictionary
280
     1
281
     1
  0
DICTIONARY
  5
3FAF
330
3FAE
100
AcDbDictionary
280
     1
281
     1
  0
DICTIONARY
  5
30CC
330
2
100
AcDbDictionary
280
     1
281
     1
  3
ACAD_SORTENTS
360
30CD
  0
DICTIONARY
  5
3021
330
300A
100
AcDbDictionary
280
     1
281
     1
  3
ACAD_SORTENTS
360
3FC9
  0
IMAGEDEF_REACTOR
  5
3FC8
330
3FC7
100
AcDbRasterImageDefReactor
 90
        2
330
3FC7
  0
DICTIONARY
  5
4021
330
4020
100
AcDbDictionary
280
     1
281
     1
  3
ACAD_MTEXT_2008_RT
360
419C
  0
IMAGEDEF_REACTOR
  5
40C2
330
40C1
100
AcDbRasterImageDefReactor
 90
        2
330
40C1
  0
DICTIONARY
  5
4154
330
40C4
100
AcDbDictionary
280
     1
281
     1
  3
ACAD_MTEXT_2008_RT
360
419D
  0
DICTIONARY
  5
38C7
330
38BA
100
AcDbDictionary
280
     1
281
     1
  3
ACAD_DIMASSOC
360
38D1
  0
DICTIONARY
  5
3DB3
330
38F6
100
AcDbDictionary
280
     1
281
     1
  3
ACAD_MTEXT_2008_RT
360
4186
  0
DICTIONARY
  5
4157
102
{ACAD_REACTORS
330
562
102
}
330
562
100
AcDbDictionary
281
     1
  3
DIMFXL
350
4158
  3
DIMJOGANG
350
4159
  0
XRECORD
  5
3CF2
102
{ACAD_REACTORS
330
562
102
}
330
562
100
AcDbXrecord
280
     1
300
ACD
300
2013
300
ACD_F_S
  0
DICTIONARY
  5
2F60
102
{ACAD_REACTORS
330
562
102
}
330
562
100
AcDbDictionary
281
     1
  0
DICTIONARY
  5
3CE5
102
{ACAD_REACTORS
330
562
102
}
330
562
100
AcDbDictionary
281
     1
  3
Imperial24
350
3CE6
  0
DICTIONARY
  5
560
102
{ACAD_REACTORS
330
562
102
}
330
562
100
AcDbDictionary
281
     1
  0
DICTIONARY
  5
3025
102
{ACAD_REACTORS
330
562
102
}
330
562
100
AcDbDictionary
281
     1
  3
Supercrete Hi Res
350
3FCA
  0
RASTERVARIABLES
  5
302E
102
{ACAD_REACTORS
330
562
102
}
330
562
100
AcDbRasterVariables
 90
        0
 70
     1
 71
     1
 72
     0
  0
DICTIONARY
  5
58C
102
{ACAD_REACTORS
330
562
102
}
330
562
100
AcDbDictionary
281
     1
  3
12.1.7
350
58F
  3
Model
350
58E
  0
DICTIONARY
  5
2F36
102
{ACAD_REACTORS
330
562
102
}
330
562
100
AcDbDictionary
281
     1
  3
ByBlock
350
2F3F
  3
ByLayer
350
2F37
  3
Global
350
2F47
  0
DICTIONARY
  5
2F85
102
{ACAD_REACTORS
330
562
102
}
330
562
100
AcDbDictionary
281
     1
  3
Standard
350
2F86
  0
DICTIONARY
  5
561
102
{ACAD_REACTORS
330
562
102
}
330
562
100
AcDbDictionary
281
     1
  3
STANDARD
350
563
  0
DICTIONARY
  5
58D
102
{ACAD_REACTORS
330
562
102
}
330
562
100
AcDbDictionary
281
     1
  0
ACDBDICTIONARYWDFLT
  5
58A
102
{ACAD_REACTORS
330
562
102
}
330
562
100
AcDbDictionary
281
     1
  3
Normal
350
58B
100
AcDbDictionaryWithDefault
340
58B
  0
DICTIONARY
  5
2F63
102
{ACAD_REACTORS
330
562
102
}
330
562
100
AcDbDictionary
281
     1
  3
A0
350
2F64
  3
A1
350
2F65
  3
A2
350
2F66
  3
A3
350
2F67
  3
A4
350
2F68
  3
A5
350
2F69
  3
A6
350
2F6A
  3
A7
350
2F6B
  3
A8
350
2F6C
  3
A9
350
2F6D
  3
B0
350
2F6E
  3
B1
350
2F6F
  3
B2
350
2F70
  3
B3
350
2F71
  3
B4
350
2F72
  3
B5
350
2F73
  3
B6
350
2F74
  3
B7
350
2F75
  3
B8
350
2F76
  3
B9
350
2F77
  3
C0
350
2F78
  3
C1
350
2F79
  3
C2
350
2F7A
  3
C3
350
2F7B
  3
C4
350
2F7C
  3
C5
350
2F7D
  3
C6
350
2F7E
  3
C7
350
2F7F
  3
C8
350
2F80
  3
C9
350
2F81
  3
D0
350
2F82
  3
D1
350
2F83
  3
D2
350
2F84
  0
DICTIONARY
  5
3CE2
102
{ACAD_REACTORS
330
562
102
}
330
562
100
AcDbDictionary
281
     1
  3
Imperial24
350
3CE4
  0
DICTIONARY
  5
2F61
102
{ACAD_REACTORS
330
562
102
}
330
562
100
AcDbDictionary
281
     1
  3
Standard
350
2F62
  0
DICTIONARY
  5
2F4F
102
{ACAD_REACTORS
330
562
102
}
330
562
100
AcDbDictionary
281
     1
  3
2dWireframe
350
2F55
  3
3D Hidden
350
2F57
  3
3dWireframe
350
2F56
  3
Basic
350
2F54
  3
Brighten
350
2F5B
  3
ColorChange
350
2F5F
  3
Conceptual
350
2F58
  3
Dim
350
2F5A
  3
EdgeColorOff
350
3CE1
  3
Facepattern
350
2F5E
  3
Flat
350
2F50
  3
FlatWithEdges
350
2F51
  3
Gouraud
350
2F52
  3
GouraudWithEdges
350
2F53
  3
Hidden
350
3CD9
  3
JitterOff
350
3CDF
  3
Linepattern
350
2F5D
  3
OverhangOff
350
3CE0
  3
Realistic
350
2F59
  3
Shaded
350
3CDE
  3
Shaded with edges
350
3CDD
  3
Shades of Gray
350
3CDA
  3
Sketchy
350
3CDB
  3
Thicken
350
2F5C
  3
Wireframe
350
3CD8
  3
X-Ray
350
3CDC
  0
XRECORD
  5
35D6
102
{ACAD_REACTORS
330
562
102
}
330
562
100
AcDbXrecord
280
     1
 90
   990106
  3

 60
     0
 61
     0
 62
     2
 63
     2
 64
     0
 65
     1
 66
     0
 67
     4
 68
     1
 69
     0
 70
     0
 71
     0
 72
     0
 40
0.0
170
     1
340
35DC
  0
XRECORD
  5
4156
102
{ACAD_REACTORS
330
562
102
}
330
562
100
AcDbXrecord
280
     1
 90
        1
330
2F62
330
333C
330
4012
330
40C4
330
40C5
  0
DICTIONARY
  5
599
102
{ACAD_REACTORS
330
562
102
}
330
562
100
AcDbDictionary
281
     1
  3
CANNOSCALE
350
2FD3
  3
CMLEADERSTYLE
350
2FD2
  3
CTABLESTYLE
350
2FD1
  3
CVIEWDETAILSTYLE
350
3DC9
  3
CVIEWSECTIONSTYLE
350
3DCA
  3
DIMASSOC
350
59A
  0
DICTIONARY
  5
415F
102
{ACAD_REACTORS
330
562
102
}
330
562
100
AcDbDictionary
281
     1
  3
AcDsRecords
350
4161
  3
AcDsSchemas
350
4160
1001
ACAD
1070
     2
  0
DICTIONARY
  5
36FF
102
{ACAD_REACTORS
330
562
102
}
330
562
100
AcDbDictionary
281
     1
  0
DICTIONARY
  5
596
102
{ACAD_REACTORS
330
562
102
}
330
562
100
AcDbDictionary
281
     1
  3
ASEBlockHierarchyIndexRecord
350
598
1001
DCO15
1040
1440471924.124
  0
DICTIONARY
  5
2C66
102
{ACAD_REACTORS
330
2C65
102
}
330
2C65
100
AcDbDictionary
280
     1
281
     1
  3
DIMENSION
360
2C67
  3
HB_X
360
2C68
  0
DICTIONARY
  5
2FE7
102
{ACAD_REACTORS
330
2C65
102
}
330
2C65
100
AcDbDictionary
281
     1
  3
ACET-LAYISO
350
35F7
  0
XRECORD
  5
2F91
102
{ACAD_REACTORS
330
2F90
102
}
330
2F90
100
AcDbXrecord
280
     1
290
     1
  0
XRECORD
  5
2F95
102
{ACAD_REACTORS
330
2F94
102
}
330
2F94
100
AcDbXrecord
280
     1
290
     1
  0
SORTENTSTABLE
  5
30CD
102
{ACAD_REACTORS
330
30CC
102
}
330
30CC
100
AcDbSortentsTable
330
2
331
40B3
  5
40AF
331
2909
  5
2910
331
40AD
  5
4020
331
375F
  5
3902
331
4020
  5
40BF
331
40B4
  5
40B0
331
4011
  5
4011
331
3930
  5
3777
331
3961
  5
3964
331
40AE
  5
4022
331
3751
  5
37D2
331
4012
  5
4012
331
40B5
  5
40B1
331
290B
  5
2922
331
40AF
  5
4023
331
3962
  5
3965
331
37D2
  5
391A
331
4022
  5
40C0
331
4013
  5
4013
331
40B6
  5
40B2
331
290C
  5
375F
331
2923
  5
37D3
331
3780
  5
290F
331
4023
  5
40C1
331
4014
  5
4014
331
40B7
  5
40B3
331
290D
  5
3760
331
2924
  5
37D4
331
3769
  5
3903
331
40B8
  5
40B4
331
4015
  5
4015
331
291F
  5
3761
331
401F
  5
40BE
331
40B9
  5
40B5
331
4016
  5
4016
331
37DF
  5
3764
331
40C0
  5
40BC
331
40B1
  5
40AD
331
40BA
  5
40B6
331
4017
  5
4017
331
40C1
  5
40BD
331
40B2
  5
40AE
331
396E
  5
3962
331
40AC
  5
401F
331
371F
  5
3901
  0
SORTENTSTABLE
  5
3FC9
102
{ACAD_REACTORS
330
3021
102
}
330
3021
100
AcDbSortentsTable
330
300A
  0
XRECORD
  5
419C
102
{ACAD_REACTORS
330
4021
102
}
330
4021
100
AcDbXrecord
280
     1
 40
304935.0
  1
{\fSwis721 BT|b0|i1|c0|p34;75mm Supercrete}™{\fSwis721 BT|b0|i1|c0|p34; Panel}
  0
XRECORD
  5
419D
102
{ACAD_REACTORS
330
4154
102
}
330
4154
100
AcDbXrecord
280
     1
 40
825519.0
  1
\pi32.023;{\H0.8x;A.W.S. - Deflection Head - Top Track\P\pi35.254;\fTahoma|b0|i0|c0|p34;\H0.75x;Use where H \U+2264 3200mm for Wall Types 2, 3 & 4}
  0
DIMASSOC
  5
38D1
102
{ACAD_REACTORS
330
38C7
102
}
330
38C7
100
AcDbDimAssoc
330
38BA
 90
        3
 70
     1
 71
     0
  1
AcDbOsnapPointRef
 72
     1
331
24CE
331
3769
 73
     2
 91
        2
 40
1.570796326796014
 10
0.0
 20
0.0
 30
2.000000000000000E+50
 75
     0
  1
AcDbOsnapPointRef
 72
     1
331
24CE
331
3769
 73
     2
 91
       12
 40
1.0
 10
0.0
 20
0.0
 30
2.000000000000000E+50
 75
     0
  0
XRECORD
  5
4186
102
{ACAD_REACTORS
330
3DB3
102
}
330
3DB3
100
AcDbXrecord
280
     1
 40
304935.0
  1
{\fSwis721 BT|b0|i1|c0|p34;75mm Supercrete}™{\fSwis721 BT|b0|i1|c0|p34; Panel}
  0
XRECORD
  5
4158
102
{ACAD_REACTORS
330
4157
102
}
330
4157
100
AcDbXrecord
280
     1
 40
1.25
  0
XRECORD
  5
4159
102
{ACAD_REACTORS
330
4157
102
}
330
4157
100
AcDbXrecord
280
     1
 40
1.570796326794896
  0
ACDBDETAILVIEWSTYLE
  5
3CE6
102
{ACAD_REACTORS
330
3CE5
102
}
330
3CE5
100
AcDbModelDocViewStyle
 70
     0
  3
Imperial24
290
     0
100
AcDbDetailViewStyle
 70
     0
 71
     0
 90
        3
 71
     1
340
555
 62
   256
 40
0.24
340
0
 62
   256
 40
0.24
300

 40
0.36
280
     3
 71
     2
340
5
 90
       25
 62
   256
 71
     3
340
555
 62
   256
 40
0.24
 90
        1
 40
0.75
 90
        1
300
%<\AcVar ViewType \f "%tc1">% %<\AcVar ViewDetailId>%\PSCALE %<\AcVar ViewScale \f "%sn">%
 71
     4
340
5
 90
       25
 62
   256
340
5
 90
       25
 62
   256
280
     0
  0
IMAGEDEF
  5
3FCA
102
{ACAD_REACTORS
330
3FC8
330
3025
330
40C2
102
}
330
3025
100
AcDbRasterImageDef
 90
        0
  1
\\SAMBA24\dennis\hebel\Technical Support\Documents\Logos\Supercrete Hi Res.jpg
 10
1367.0
 20
308.0
 11
0.0846666666666667
 21
0.0846666666666667
280
     1
281
     5
  0
LAYOUT
  5
58F
102
{ACAD_XDICTIONARY
360
2FEB
102
}
102
{ACAD_REACTORS
330
58C
102
}
330
58C
100
AcDbPlotSettings
  1

  2
Adobe PDF.pc3
  4
A4
  6

 40
3.174999952316284
 41
3.174999952316284
 42
3.175003051757812
 43
3.17498779296875
 44
209.9733276367187
 45
297.0318298339844
 46
0.0
 47
0.0
 48
-18.13873906734903
 49
401.3216390553216
140
171.861260932651
141
684.3216390553216
142
1.0
143
1.0
 70
   672
 72
     1
 73
     0
 74
     5
  7
Hebel monochrome.ctb
 75
    16
147
0.9999999999999998
 76
     0
 77
     2
 78
   300
148
18.13873906734903
149
-401.3216390553216
100
AcDbLayout
  1
12.1.7
 70
     0
 71
     1
 10
-21.31373901966532
 20
398.1466391030053
 11
188.6595886170535
 21
695.1784689369897
 12
0.0
 22
0.0
 32
0.0
 14
-9.03327973702062
 24
409.6180982396285
 34
0.0
 15
181.1452988814333
 25
686.2211537137191
 35
0.0
146
0.0
 13
0.0
 23
0.0
 33
0.0
 16
1.0
 26
0.0
 36
0.0
 17
0.0
 27
1.0
 37
0.0
 76
     0
330
5E
331
5F
1001
ACAD_PSEXT
1000
Adobe PDF.pc3
1000
Adobe PDF Converter
1000
Documents\*.pdf
1000

1070
     0
  0
LAYOUT
  5
58E
102
{ACAD_REACTORS
330
58C
102
}
330
58C
100
AcDbPlotSettings
  1

  2
Adobe PDF.pc3
  4
A4
  6

 40
3.174999952316284
 41
3.174999952316284
 42
3.175003051757812
 43
3.17498779296875
 44
209.9733276367187
 45
297.0318298339844
 46
-107.4962692329318
 47
2.101960189428382
 48
0.0
 49
0.0
140
0.0
141
0.0
142
1.0
143
2.0
 70
 11940
 72
     1
 73
     0
 74
     0
  7
Hebel monochrome.ctb
 75
     0
147
0.3471940121154659
 76
     0
 77
     2
 78
   300
148
20083.06613737198
149
-8140.328157241672
100
AcDbLayout
  1
Model
 70
     1
 71
     0
 10
0.0
 20
0.0
 11
12.0
 21
9.0
 12
0.0
 22
0.0
 32
0.0
 14
0.0
 24
0.0
 34
0.0
 15
0.0
 25
0.0
 35
0.0
146
0.0
 13
0.0
 23
0.0
 33
0.0
 16
1.0
 26
0.0
 36
0.0
 17
0.0
 27
1.0
 37
0.0
 76
     0
330
2
331
2F34
1001
ACAD_PSEXT
1000
Adobe PDF.pc3
1000
Adobe PDF Converter
1000
Documents\*.pdf
1000

1070
     0
  0
MATERIAL
  5
2F3F
102
{ACAD_XDICTIONARY
360
2F40
102
}
102
{ACAD_REACTORS
330
2F36
102
}
330
2F36
100
AcDbMaterial
  1
ByBlock
 72
     0
 43
0.0208333333333333
 43
0.0
 43
0.0
 43
0.0
 43
0.0
 43
0.0208333333333333
 43
0.0
 43
0.0
 43
0.0
 43
0.0
 43
1.0
 43
0.0
 43
0.0
 43
0.0
 43
0.0
 43
1.0
 77
     0
 47
0.0208333333333333
 47
0.0
 47
0.0
 47
0.0
 47
0.0
 47
0.0208333333333333
 47
0.0
 47
0.0
 47
0.0
 47
0.0
 47
1.0
 47
0.0
 47
0.0
 47
0.0
 47
0.0
 47
1.0
171
     0
 49
0.0208333333333333
 49
0.0
 49
0.0
 49
0.0
 49
0.0
 49
0.0208333333333333
 49
0.0
 49
0.0
 49
0.0
 49
0.0
 49
1.0
 49
0.0
 49
0.0
 49
0.0
 49
0.0
 49
1.0
175
     0
142
0.0208333333333333
142
0.0
142
0.0
142
0.0
142
0.0
142
0.0208333333333333
142
0.0
142
0.0
142
0.0
142
0.0
142
1.0
142
0.0
142
0.0
142
0.0
142
0.0
142
1.0
179
     0
144
0.0208333333333333
144
0.0
144
0.0
144
0.0
144
0.0
144
0.0208333333333333
144
0.0
144
0.0
144
0.0
144
0.0
144
1.0
144
0.0
144
0.0
144
0.0
144
0.0
144
1.0
147
0.0208333333333333
147
0.0
147
0.0
147
0.0
147
0.0
147
0.0208333333333333
147
0.0
147
0.0
147
0.0
147
0.0
147
1.0
147
0.0
147
0.0
147
0.0
147
0.0
147
1.0
  0
MATERIAL
  5
2F37
102
{ACAD_XDICTIONARY
360
2F38
102
}
102
{ACAD_REACTORS
330
2F36
102
}
330
2F36
100
AcDbMaterial
  1
ByLayer
 72
     0
 43
0.0208333333333333
 43
0.0
 43
0.0
 43
0.0
 43
0.0
 43
0.0208333333333333
 43
0.0
 43
0.0
 43
0.0
 43
0.0
 43
1.0
 43
0.0
 43
0.0
 43
0.0
 43
0.0
 43
1.0
 77
     0
 47
0.0208333333333333
 47
0.0
 47
0.0
 47
0.0
 47
0.0
 47
0.0208333333333333
 47
0.0
 47
0.0
 47
0.0
 47
0.0
 47
1.0
 47
0.0
 47
0.0
 47
0.0
 47
0.0
 47
1.0
171
     0
 49
0.0208333333333333
 49
0.0
 49
0.0
 49
0.0
 49
0.0
 49
0.0208333333333333
 49
0.0
 49
0.0
 49
0.0
 49
0.0
 49
1.0
 49
0.0
 49
0.0
 49
0.0
 49
0.0
 49
1.0
175
     0
142
0.0208333333333333
142
0.0
142
0.0
142
0.0
142
0.0
142
0.0208333333333333
142
0.0
142
0.0
142
0.0
142
0.0
142
1.0
142
0.0
142
0.0
142
0.0
142
0.0
142
1.0
179
     0
144
0.0208333333333333
144
0.0
144
0.0
144
0.0
144
0.0
144
0.0208333333333333
144
0.0
144
0.0
144
0.0
144
0.0
144
1.0
144
0.0
144
0.0
144
0.0
144
0.0
144
1.0
147
0.0208333333333333
147
0.0
147
0.0
147
0.0
147
0.0
147
0.0208333333333333
147
0.0
147
0.0
147
0.0
147
0.0
147
1.0
147
0.0
147
0.0
147
0.0
147
0.0
147
1.0
  0
MATERIAL
  5
2F47
102
{ACAD_XDICTIONARY
360
2F48
102
}
102
{ACAD_REACTORS
330
2F36
102
}
330
2F36
100
AcDbMaterial
  1
Global
 72
     0
 43
0.0208333333333333
 43
0.0
 43
0.0
 43
0.0
 43
0.0
 43
0.0208333333333333
 43
0.0
 43
0.0
 43
0.0
 43
0.0
 43
1.0
 43
0.0
 43
0.0
 43
0.0
 43
0.0
 43
1.0
 77
     0
 47
0.0208333333333333
 47
0.0
 47
0.0
 47
0.0
 47
0.0
 47
0.0208333333333333
 47
0.0
 47
0.0
 47
0.0
 47
0.0
 47
1.0
 47
0.0
 47
0.0
 47
0.0
 47
0.0
 47
1.0
171
     0
 49
0.0208333333333333
 49
0.0
 49
0.0
 49
0.0
 49
0.0
 49
0.0208333333333333
 49
0.0
 49
0.0
 49
0.0
 49
0.0
 49
1.0
 49
0.0
 49
0.0
 49
0.0
 49
0.0
 49
1.0
175
     0
142
0.0208333333333333
142
0.0
142
0.0
142
0.0
142
0.0
142
0.0208333333333333
142
0.0
142
0.0
142
0.0
142
0.0
142
1.0
142
0.0
142
0.0
142
0.0
142
0.0
142
1.0
179
     0
144
0.0208333333333333
144
0.0
144
0.0
144
0.0
144
0.0
144
0.0208333333333333
144
0.0
144
0.0
144
0.0
144
0.0
144
1.0
144
0.0
144
0.0
144
0.0
144
0.0
144
1.0
147
0.0208333333333333
147
0.0
147
0.0
147
0.0
147
0.0
147
0.0208333333333333
147
0.0
147
0.0
147
0.0
147
0.0
147
1.0
147
0.0
147
0.0
147
0.0
147
0.0
147
1.0
  0
MLEADERSTYLE
  5
2F86
102
{ACAD_REACTORS
330
2F85
102
}
330
2F85
100
AcDbMLeaderStyle
170
     2
171
     1
172
     0
 90
        2
 40
0.0
 41
0.0
173
     1
 91
-1056964608
340
557
 92
       -2
290
     1
 42
0.09
291
     1
 43
0.36
  3
Standard
 44
0.18
300

342
555
174
     1
178
     6
175
     1
176
     0
 93
-1056964608
 45
0.18
292
     0
297
     0
 46
0.18
 94
-1056964608
 47
1.0
 49
1.0
140
1.0
293
     1
141
0.0
294
     1
177
     0
142
1.0
295
     0
296
     0
143
0.125
1001
ACAD_MLEADERVER
1070
     2
  0
MLINESTYLE
  5
563
102
{ACAD_REACTORS
330
561
102
}
330
561
100
AcDbMlineStyle
  2
STANDARD
 70
     0
  3

 62
   256
 51
90.0
 52
90.0
 71
     2
 49
0.5
 62
   256
  6
BYLAYER
 49
-0.5
 62
   256
  6
BYLAYER
  0
ACDBPLACEHOLDER
  5
58B
102
{ACAD_REACTORS
330
58A
102
}
330
58A
  0
SCALE
  5
2F64
102
{ACAD_REACTORS
330
2F63
102
}
330
2F63
100
AcDbScale
 70
     0
300
1:1
140
1.0
141
1.0
290
     1
  0
SCALE
  5
2F65
102
{ACAD_REACTORS
330
2F63
102
}
330
2F63
100
AcDbScale
 70
     0
300
1:2
140
1.0
141
2.0
290
     0
  0
SCALE
  5
2F66
102
{ACAD_REACTORS
330
2F63
102
}
330
2F63
100
AcDbScale
 70
     0
300
1:4
140
1.0
141
4.0
290
     0
  0
SCALE
  5
2F67
102
{ACAD_REACTORS
330
2F63
102
}
330
2F63
100
AcDbScale
 70
     0
300
1:5
140
1.0
141
5.0
290
     0
  0
SCALE
  5
2F68
102
{ACAD_REACTORS
330
2F63
102
}
330
2F63
100
AcDbScale
 70
     0
300
1:8
140
1.0
141
8.0
290
     0
  0
SCALE
  5
2F69
102
{ACAD_REACTORS
330
2F63
102
}
330
2F63
100
AcDbScale
 70
     0
300
1:10
140
1.0
141
10.0
290
     0
  0
SCALE
  5
2F6A
102
{ACAD_REACTORS
330
2F63
102
}
330
2F63
100
AcDbScale
 70
     0
300
1:16
140
1.0
141
16.0
290
     0
  0
SCALE
  5
2F6B
102
{ACAD_REACTORS
330
2F63
102
}
330
2F63
100
AcDbScale
 70
     0
300
1:20
140
1.0
141
20.0
290
     0
  0
SCALE
  5
2F6C
102
{ACAD_REACTORS
330
2F63
102
}
330
2F63
100
AcDbScale
 70
     0
300
1:30
140
1.0
141
30.0
290
     0
  0
SCALE
  5
2F6D
102
{ACAD_REACTORS
330
2F63
102
}
330
2F63
100
AcDbScale
 70
     0
300
1:40
140
1.0
141
40.0
290
     0
  0
SCALE
  5
2F6E
102
{ACAD_REACTORS
330
2F63
102
}
330
2F63
100
AcDbScale
 70
     0
300
1:50
140
1.0
141
50.0
290
     0
  0
SCALE
  5
2F6F
102
{ACAD_REACTORS
330
2F63
102
}
330
2F63
100
AcDbScale
 70
     0
300
1:100
140
1.0
141
100.0
290
     0
  0
SCALE
  5
2F70
102
{ACAD_REACTORS
330
2F63
102
}
330
2F63
100
AcDbScale
 70
     0
300
2:1
140
2.0
141
1.0
290
     0
  0
SCALE
  5
2F71
102
{ACAD_REACTORS
330
2F63
102
}
330
2F63
100
AcDbScale
 70
     0
300
4:1
140
4.0
141
1.0
290
     0
  0
SCALE
  5
2F72
102
{ACAD_REACTORS
330
2F63
102
}
330
2F63
100
AcDbScale
 70
     0
300
8:1
140
8.0
141
1.0
290
     0
  0
SCALE
  5
2F73
102
{ACAD_REACTORS
330
2F63
102
}
330
2F63
100
AcDbScale
 70
     0
300
10:1
140
10.0
141
1.0
290
     0
  0
SCALE
  5
2F74
102
{ACAD_REACTORS
330
2F63
102
}
330
2F63
100
AcDbScale
 70
     0
300
100:1
140
100.0
141
1.0
290
     0
  0
SCALE
  5
2F75
102
{ACAD_REACTORS
330
2F63
102
}
330
2F63
100
AcDbScale
 70
     0
300
1/128" = 1'-0"
140
0.0078125
141
12.0
290
     0
  0
SCALE
  5
2F76
102
{ACAD_REACTORS
330
2F63
102
}
330
2F63
100
AcDbScale
 70
     0
300
1/64" = 1'-0"
140
0.015625
141
12.0
290
     0
  0
SCALE
  5
2F77
102
{ACAD_REACTORS
330
2F63
102
}
330
2F63
100
AcDbScale
 70
     0
300
1/32" = 1'-0"
140
0.03125
141
12.0
290
     0
  0
SCALE
  5
2F78
102
{ACAD_REACTORS
330
2F63
102
}
330
2F63
100
AcDbScale
 70
     0
300
1/16" = 1'-0"
140
0.0625
141
12.0
290
     0
  0
SCALE
  5
2F79
102
{ACAD_REACTORS
330
2F63
102
}
330
2F63
100
AcDbScale
 70
     0
300
3/32" = 1'-0"
140
0.09375
141
12.0
290
     0
  0
SCALE
  5
2F7A
102
{ACAD_REACTORS
330
2F63
102
}
330
2F63
100
AcDbScale
 70
     0
300
1/8" = 1'-0"
140
0.125
141
12.0
290
     0
  0
SCALE
  5
2F7B
102
{ACAD_REACTORS
330
2F63
102
}
330
2F63
100
AcDbScale
 70
     0
300
3/16" = 1'-0"
140
0.1875
141
12.0
290
     0
  0
SCALE
  5
2F7C
102
{ACAD_REACTORS
330
2F63
102
}
330
2F63
100
AcDbScale
 70
     0
300
1/4" = 1'-0"
140
0.25
141
12.0
290
     0
  0
SCALE
  5
2F7D
102
{ACAD_REACTORS
330
2F63
102
}
330
2F63
100
AcDbScale
 70
     0
300
3/8" = 1'-0"
140
0.375
141
12.0
290
     0
  0
SCALE
  5
2F7E
102
{ACAD_REACTORS
330
2F63
102
}
330
2F63
100
AcDbScale
 70
     0
300
1/2" = 1'-0"
140
0.5
141
12.0
290
     0
  0
SCALE
  5
2F7F
102
{ACAD_REACTORS
330
2F63
102
}
330
2F63
100
AcDbScale
 70
     0
300
3/4" = 1'-0"
140
0.75
141
12.0
290
     0
  0
SCALE
  5
2F80
102
{ACAD_REACTORS
330
2F63
102
}
330
2F63
100
AcDbScale
 70
     0
300
1" = 1'-0"
140
1.0
141
12.0
290
     0
  0
SCALE
  5
2F81
102
{ACAD_REACTORS
330
2F63
102
}
330
2F63
100
AcDbScale
 70
     0
300
1-1/2" = 1'-0"
140
1.5
141
12.0
290
     0
  0
SCALE
  5
2F82
102
{ACAD_REACTORS
330
2F63
102
}
330
2F63
100
AcDbScale
 70
     0
300
3" = 1'-0"
140
3.0
141
12.0
290
     0
  0
SCALE
  5
2F83
102
{ACAD_REACTORS
330
2F63
102
}
330
2F63
100
AcDbScale
 70
     0
300
6" = 1'-0"
140
6.0
141
12.0
290
     0
  0
SCALE
  5
2F84
102
{ACAD_REACTORS
330
2F63
102
}
330
2F63
100
AcDbScale
 70
     0
300
1'-0" = 1'-0"
140
12.0
141
12.0
290
     0
  0
ACDBSECTIONVIEWSTYLE
  5
3CE4
102
{ACAD_REACTORS
330
3CE2
102
}
330
3CE2
100
AcDbModelDocViewStyle
 70
     0
  3
Imperial24
290
     0
100
AcDbSectionViewStyle
 70
     0
 71
     0
 90
       78
 71
     1
340
555
 62
   256
 40
0.24
340
0
340
0
 62
   256
 40
0.24
300
I, O, Q, S, X, Z
 40
0.48
 90
        3
 40
0.18
 90
        1
 71
     2
340
3CE3
 90
       25
 62
   256
340
5
 90
       50
 62
   256
 40
0.24
 40
0.0
 40
0.24
 71
     3
340
555
 62
   256
 40
0.24
 90
        1
 40
0.75
 90
        1
300
%<\AcVar ViewType \f "%tc1">% %<\AcVar ViewSectionStartId>%-%<\AcVar ViewSectionEndId>%\PSCALE %<\AcVar ViewScale \f "%sn">%
 71
     4
 62
   256
 62
   257
300
ANSI31
 40
1.0
 90
        0
290
     0
290
     0
 90
        6
 40
0.0
 40
1.570796326794896
 40
0.2617993877991494
 40
1.308996938995747
 40
-0.2617993877991494
 40
1.832595714594046
  0
TABLESTYLE
  5
2F62
102
{ACAD_XDICTIONARY
360
2FC0
102
}
102
{ACAD_REACTORS
330
2F61
102
}
330
2F61
100
AcDbTableStyle
  3
Standard
 70
     0
 71
     0
 40
0.06
 41
0.06
280
     0
281
     0
  7
STANDARD
140
0.18
170
     2
 62
     0
 63
     7
283
     0
274
    -2
284
     1
 64
     0
275
    -2
285
     1
 65
     0
276
    -2
286
     1
 66
     0
277
    -2
287
     1
 67
     0
278
    -2
288
     1
 68
     0
279
    -2
289
     1
 69
     0
  7
STANDARD
140
0.25
170
     5
 62
     0
 63
     7
283
     0
274
    -2
284
     1
 64
     0
275
    -2
285
     1
 65
     0
276
    -2
286
     1
 66
     0
277
    -2
287
     1
 67
     0
278
    -2
288
     1
 68
     0
279
    -2
289
     1
 69
     0
  7
STANDARD
140
0.18
170
     5
 62
     0
 63
     7
283
     0
274
    -2
284
     1
 64
     0
275
    -2
285
     1
 65
     0
276
    -2
286
     1
 66
     0
277
    -2
287
     1
 67
     0
278
    -2
288
     1
 68
     0
279
    -2
289
     1
 69
     0
  0
VISUALSTYLE
  5
2F55
102
{ACAD_XDICTIONARY
360
416F
102
}
102
{ACAD_REACTORS
330
2F4F
102
}
330
2F4F
100
AcDbVisualStyle
  2
2dWireframe
 70
     4
 71
     0
 72
     2
 73
     0
 90
        0
 40
-0.6
 41
-30.0
 62
     5
 63
     7
421
 16777215
 74
     1
 91
        4
 64
     7
 65
   257
 75
     1
175
     1
 42
1.0
 92
        0
 66
   257
 43
1.0
 76
     1
 77
     6
 78
     2
 67
     7
 79
     5
170
     0
171
     0
290
     0
174
     0
 93
        1
 44
0.0
173
     0
291
     0
 45
0.0
1001
ACAD
1000
AcDbSavedByObjectVersion
1070
     0
  0
VISUALSTYLE
  5
2F57
102
{ACAD_XDICTIONARY
360
4173
102
}
102
{ACAD_REACTORS
330
2F4F
102
}
330
2F4F
100
AcDbVisualStyle
  2
3D Hidden
 70
     6
 71
     1
 72
     2
 73
     2
 90
        0
 40
-0.6
 41
-30.0
 62
     5
 63
     7
421
 16777215
 74
     2
 91
        2
 64
     7
 65
   257
 75
     2
175
     1
 42
40.0
 92
        0
 66
   257
 43
1.0
 76
     1
 77
     6
 78
     2
 67
     7
 79
     3
170
     0
171
     0
290
     0
174
     0
 93
        1
 44
0.0
173
     0
291
     0
 45
0.0
1001
ACAD
1000
AcDbSavedByObjectVersion
1070
     0
  0
VISUALSTYLE
  5
2F56
102
{ACAD_XDICTIONARY
360
4171
102
}
102
{ACAD_REACTORS
330
2F4F
102
}
330
2F4F
100
AcDbVisualStyle
  2
3dWireframe
 70
     5
 71
     0
 72
     2
 73
     0
 90
        0
 40
-0.6
 41
-30.0
 62
     5
 63
     7
421
 16777215
 74
     1
 91
        4
 64
     7
 65
   257
 75
     1
175
     1
 42
1.0
 92
        0
 66
   257
 43
1.0
 76
     1
 77
     6
 78
     2
 67
     7
 79
     5
170
     0
171
     0
290
     0
174
     0
 93
        1
 44
0.0
173
     0
291
     0
 45
0.0
1001
ACAD
1000
AcDbSavedByObjectVersion
1070
     0
  0
VISUALSTYLE
  5
2F54
102
{ACAD_XDICTIONARY
360
416D
102
}
102
{ACAD_REACTORS
330
2F4F
102
}
330
2F4F
100
AcDbVisualStyle
  2
Basic
 70
     7
 71
     1
 72
     0
 73
     1
 90
        0
 40
-0.6
 41
-30.0
 62
     5
 63
     7
421
 16777215
 74
     0
 91
        4
 64
     7
 65
   257
 75
     1
175
     1
 42
1.0
 92
        8
 66
     7
 43
1.0
 76
     1
 77
     6
 78
     2
 67
     7
 79
     5
170
     0
171
     0
290
     0
174
     0
 93
        1
 44
0.0
173
     0
291
     1
 45
0.0
1001
ACAD
1000
AcDbSavedByObjectVersion
1070
     0
  0
VISUALSTYLE
  5
2F5B
102
{ACAD_XDICTIONARY
360
417B
102
}
102
{ACAD_REACTORS
330
2F4F
102
}
330
2F4F
100
AcDbVisualStyle
  2
Brighten
 70
    12
 71
     2
 72
     2
 73
     0
 90
        0
 40
-0.6
 41
-30.0
 62
     5
 63
     7
421
 16777215
 74
     1
 91
        4
 64
     7
 65
   257
 75
     1
175
     1
 42
1.0
 92
        8
 66
     7
 43
1.0
 76
     1
 77
     6
 78
     2
 67
     7
 79
     5
170
     0
171
     0
290
     0
174
     0
 93
        1
 44
50.0
173
     0
291
     1
 45
0.0
1001
ACAD
1000
AcDbSavedByObjectVersion
1070
     0
  0
VISUALSTYLE
  5
2F5F
102
{ACAD_XDICTIONARY
360
4183
102
}
102
{ACAD_REACTORS
330
2F4F
102
}
330
2F4F
100
AcDbVisualStyle
  2
ColorChange
 70
    16
 71
     2
 72
     2
 73
     3
 90
        0
 40
-0.6
 41
-30.0
 62
     5
 63
     8
421
  8421504
 74
     1
 91
        4
 64
     7
 65
   257
 75
     1
175
     1
 42
1.0
 92
        8
 66
     8
424
  8421504
 43
1.0
 76
     1
 77
     6
 78
     2
 67
     7
 79
     5
170
     0
171
     0
290
     0
174
     0
 93
        1
 44
0.0
173
     0
291
     1
 45
0.0
1001
ACAD
1000
AcDbSavedByObjectVersion
1070
     0
  0
VISUALSTYLE
  5
2F58
102
{ACAD_XDICTIONARY
360
4175
102
}
102
{ACAD_REACTORS
330
2F4F
102
}
330
2F4F
100
AcDbVisualStyle
  2
Conceptual
 70
     9
 71
     3
 72
     2
 73
     0
 90
        0
 40
-0.6
 41
-30.0
 62
     5
 63
     7
421
 16777215
 74
     2
 91
        2
 64
     7
 65
   257
 75
     1
175
     1
 42
40.0
 92
        8
 66
     7
 43
1.0
 76
     1
 77
     6
 78
     2
 67
     7
 79
     3
170
     0
171
     0
290
     0
174
     0
 93
        1
 44
0.0
173
     0
291
     0
 45
0.0
1001
ACAD
1000
AcDbSavedByObjectVersion
1070
     0
  0
VISUALSTYLE
  5
2F5A
102
{ACAD_XDICTIONARY
360
4179
102
}
102
{ACAD_REACTORS
330
2F4F
102
}
330
2F4F
100
AcDbVisualStyle
  2
Dim
 70
    11
 71
     2
 72
     2
 73
     0
 90
        0
 40
-0.6
 41
-30.0
 62
     5
 63
     7
421
 16777215
 74
     1
 91
        4
 64
     7
 65
   257
 75
     1
175
     1
 42
1.0
 92
        8
 66
     7
 43
1.0
 76
     1
 77
     6
 78
     2
 67
     7
 79
     5
170
     0
171
     0
290
     0
174
     0
 93
        1
 44
-50.0
173
     0
291
     1
 45
0.0
1001
ACAD
1000
AcDbSavedByObjectVersion
1070
     0
  0
VISUALSTYLE
  5
3CE1
102
{ACAD_XDICTIONARY
360
4199
102
}
102
{ACAD_REACTORS
330
2F4F
102
}
330
2F4F
100
AcDbVisualStyle
  2
EdgeColorOff
 70
    22
 71
     2
 72
     2
 73
     0
 90
        0
 40
-0.6
 41
-30.0
 62
     5
 63
     7
421
 16777215
 74
     1
 91
        4
 64
     7
 65
   257
 75
     1
175
     1
 42
1.0
 92
        8
 66
     7
 43
1.0
 76
     1
 77
     6
 78
     2
 67
     7
 79
     5
170
     0
171
     0
290
     0
174
     0
 93
        1
 44
0.0
173
     0
291
     1
 45
0.0
1001
ACAD
1000
AcDbSavedByObjectVersion
1070
     0
  0
VISUALSTYLE
  5
2F5E
102
{ACAD_XDICTIONARY
360
4181
102
}
102
{ACAD_REACTORS
330
2F4F
102
}
330
2F4F
100
AcDbVisualStyle
  2
Facepattern
 70
    15
 71
     2
 72
     2
 73
     0
 90
        0
 40
-0.6
 41
-30.0
 62
     5
 63
     7
421
 16777215
 74
     1
 91
        4
 64
     7
 65
   257
 75
     1
175
     1
 42
1.0
 92
        8
 66
     7
 43
1.0
 76
     1
 77
     6
 78
     2
 67
     7
 79
     5
170
     0
171
     0
290
     0
174
     0
 93
        1
 44
0.0
173
     0
291
     1
 45
0.0
1001
ACAD
1000
AcDbSavedByObjectVersion
1070
     0
  0
VISUALSTYLE
  5
2F50
102
{ACAD_XDICTIONARY
360
4165
102
}
102
{ACAD_REACTORS
330
2F4F
102
}
330
2F4F
100
AcDbVisualStyle
  2
Flat
 70
     0
 71
     2
 72
     1
 73
     1
 90
        2
 40
-0.6
 41
30.0
 62
     5
 63
     7
421
 16777215
 74
     0
 91
        4
 64
     7
 65
   257
 75
     1
175
     1
 42
1.0
 92
        8
 66
     7
 43
1.0
 76
     1
 77
     6
 78
     2
 67
     7
 79
     5
170
     0
171
     0
290
     0
174
     0
 93
       13
 44
0.0
173
     0
291
     1
 45
0.0
1001
ACAD
1000
AcDbSavedByObjectVersion
1070
     0
  0
VISUALSTYLE
  5
2F51
102
{ACAD_XDICTIONARY
360
4167
102
}
102
{ACAD_REACTORS
330
2F4F
102
}
330
2F4F
100
AcDbVisualStyle
  2
FlatWithEdges
 70
     1
 71
     2
 72
     1
 73
     1
 90
        2
 40
-0.6
 41
30.0
 62
     5
 63
     7
421
 16777215
 74
     1
 91
        4
 64
     7
 65
   257
 75
     1
175
     1
 42
1.0
 92
        0
 66
   257
 43
1.0
 76
     1
 77
     6
 78
     2
 67
     7
 79
     5
170
     0
171
     0
290
     0
174
     0
 93
       13
 44
0.0
173
     0
291
     1
 45
0.0
1001
ACAD
1000
AcDbSavedByObjectVersion
1070
     0
  0
VISUALSTYLE
  5
2F52
102
{ACAD_XDICTIONARY
360
4169
102
}
102
{ACAD_REACTORS
330
2F4F
102
}
330
2F4F
100
AcDbVisualStyle
  2
Gouraud
 70
     2
 71
     2
 72
     2
 73
     1
 90
        2
 40
-0.6
 41
30.0
 62
     5
 63
     7
421
 16777215
 74
     0
 91
        4
 64
     7
 65
   257
 75
     1
175
     1
 42
1.0
 92
        0
 66
     7
 43
1.0
 76
     1
 77
     6
 78
     2
 67
     7
 79
     5
170
     0
171
     0
290
     0
174
     0
 93
       13
 44
0.0
173
     0
291
     1
 45
0.0
1001
ACAD
1000
AcDbSavedByObjectVersion
1070
     0
  0
VISUALSTYLE
  5
2F53
102
{ACAD_XDICTIONARY
360
416B
102
}
102
{ACAD_REACTORS
330
2F4F
102
}
330
2F4F
100
AcDbVisualStyle
  2
GouraudWithEdges
 70
     3
 71
     2
 72
     2
 73
     1
 90
        2
 40
-0.6
 41
30.0
 62
     5
 63
     7
421
 16777215
 74
     1
 91
        4
 64
     7
 65
   257
 75
     1
175
     1
 42
1.0
 92
        0
 66
   257
 43
1.0
 76
     1
 77
     6
 78
     2
 67
     7
 79
     5
170
     0
171
     0
290
     0
174
     0
 93
       13
 44
0.0
173
     0
291
     1
 45
0.0
1001
ACAD
1000
AcDbSavedByObjectVersion
1070
     0
  0
VISUALSTYLE
  5
3CD9
102
{ACAD_XDICTIONARY
360
4189
102
}
102
{ACAD_REACTORS
330
2F4F
102
}
330
2F4F
100
AcDbVisualStyle
  2
Hidden
 70
     6
 71
     1
 72
     2
 73
     2
 90
        0
 40
-0.6
 41
-30.0
 62
     5
 63
     7
421
 16777215
 74
     2
 91
        2
 64
     7
 65
   257
 75
     2
175
     1
 42
40.0
 92
        0
 66
   257
 43
1.0
 76
     1
 77
     6
 78
     2
 67
     7
 79
     3
170
     0
171
     0
290
     0
174
     0
 93
        1
 44
0.0
173
     0
291
     0
 45
0.0
1001
ACAD
1000
AcDbSavedByObjectVersion
1070
     0
  0
VISUALSTYLE
  5
3CDF
102
{ACAD_XDICTIONARY
360
4195
102
}
102
{ACAD_REACTORS
330
2F4F
102
}
330
2F4F
100
AcDbVisualStyle
  2
JitterOff
 70
    20
 71
     2
 72
     2
 73
     0
 90
        0
 40
-0.6
 41
-30.0
 62
     5
 63
     7
421
 16777215
 74
     1
 91
        4
 64
     7
 65
   257
 75
     1
175
     1
 42
1.0
 92
       10
 66
     7
 43
1.0
 76
     1
 77
     6
 78
     2
 67
     7
 79
     5
170
     0
171
     0
290
     0
174
     0
 93
        1
 44
0.0
173
     0
291
     1
 45
0.0
1001
ACAD
1000
AcDbSavedByObjectVersion
1070
     0
  0
VISUALSTYLE
  5
2F5D
102
{ACAD_XDICTIONARY
360
417F
102
}
102
{ACAD_REACTORS
330
2F4F
102
}
330
2F4F
100
AcDbVisualStyle
  2
Linepattern
 70
    14
 71
     2
 72
     2
 73
     0
 90
        0
 40
-0.6
 41
-30.0
 62
     5
 63
     7
421
 16777215
 74
     1
 91
        4
 64
     7
 65
   257
 75
     7
175
     7
 42
1.0
 92
        8
 66
     7
 43
1.0
 76
     1
 77
     6
 78
     2
 67
     7
 79
     5
170
     0
171
     0
290
     0
174
     0
 93
        1
 44
0.0
173
     0
291
     1
 45
0.0
1001
ACAD
1000
AcDbSavedByObjectVersion
1070
     0
  0
VISUALSTYLE
  5
3CE0
102
{ACAD_XDICTIONARY
360
4197
102
}
102
{ACAD_REACTORS
330
2F4F
102
}
330
2F4F
100
AcDbVisualStyle
  2
OverhangOff
 70
    21
 71
     2
 72
     2
 73
     0
 90
        0
 40
-0.6
 41
-30.0
 62
     5
 63
     7
421
 16777215
 74
     1
 91
        4
 64
     7
 65
   257
 75
     1
175
     1
 42
1.0
 92
        9
 66
     7
 43
1.0
 76
     1
 77
     6
 78
     2
 67
     7
 79
     5
170
     0
171
     0
290
     0
174
     0
 93
        1
 44
0.0
173
     0
291
     1
 45
0.0
1001
ACAD
1000
AcDbSavedByObjectVersion
1070
     0
  0
VISUALSTYLE
  5
2F59
102
{ACAD_XDICTIONARY
360
4177
102
}
102
{ACAD_REACTORS
330
2F4F
102
}
330
2F4F
100
AcDbVisualStyle
  2
Realistic
 70
     8
 71
     2
 72
     2
 73
     0
 90
        0
 40
-0.6
 41
-30.0
 62
     5
 63
     7
421
 16777215
 74
     1
 91
        0
 64
     7
 65
   257
 75
     1
175
     1
 42
1.0
 92
        8
 66
     8
424
  7895160
 43
1.0
 76
     1
 77
     6
 78
     2
 67
     7
 79
     5
170
     0
171
     0
290
     0
174
     0
 93
       13
 44
0.0
173
     0
291
     0
 45
0.0
1001
ACAD
1000
AcDbSavedByObjectVersion
1070
     0
  0
VISUALSTYLE
  5
3CDE
102
{ACAD_XDICTIONARY
360
4193
102
}
102
{ACAD_REACTORS
330
2F4F
102
}
330
2F4F
100
AcDbVisualStyle
  2
Shaded
 70
    27
 71
     2
 72
     2
 73
     1
 90
        2
 40
-0.6
 41
30.0
 62
     5
 63
     7
421
 16777215
 74
     0
 91
        4
 64
     7
 65
   257
 75
     1
175
     1
 42
1.0
 92
        8
 66
   257
 43
1.0
 76
     1
 77
     6
 78
     2
 67
     8
425
  7895160
 79
     3
170
     0
171
     0
290
     0
174
     0
 93
        5
 44
0.0
173
     0
291
     0
 45
0.0
1001
ACAD
1000
AcDbSavedByObjectVersion
1070
     0
  0
VISUALSTYLE
  5
3CDD
102
{ACAD_XDICTIONARY
360
4191
102
}
102
{ACAD_REACTORS
330
2F4F
102
}
330
2F4F
100
AcDbVisualStyle
  2
Shaded with edges
 70
    26
 71
     2
 72
     2
 73
     1
 90
        2
 40
-0.6
 41
30.0
 62
     5
 63
     7
421
 16777215
 74
     1
 91
       10
 64
     7
 65
   257
 75
     2
175
     1
 42
1.0
 92
        8
 66
   257
 43
1.0
 76
     1
 77
     6
 78
     2
 67
     7
 79
     3
170
     0
171
     0
290
     0
174
     0
 93
        5
 44
0.0
173
     0
291
     0
 45
0.0
1001
ACAD
1000
AcDbSavedByObjectVersion
1070
     0
  0
VISUALSTYLE
  5
3CDA
102
{ACAD_XDICTIONARY
360
418B
102
}
102
{ACAD_REACTORS
330
2F4F
102
}
330
2F4F
100
AcDbVisualStyle
  2
Shades of Gray
 70
    23
 71
     2
 72
     2
 73
     3
 90
        0
 40
-0.6
 41
-30.0
 62
     5
 63
     7
421
 16777215
 74
     2
 91
        2
 64
     7
 65
     7
 75
     1
175
     1
 42
40.0
 92
        8
 66
     7
 43
1.0
 76
     1
 77
     6
 78
     2
 67
     7
 79
     3
170
     0
171
     0
290
     0
174
     0
 93
        1
 44
0.0
173
     0
291
     0
 45
0.0
1001
ACAD
1000
AcDbSavedByObjectVersion
1070
     0
  0
VISUALSTYLE
  5
3CDB
102
{ACAD_XDICTIONARY
360
418D
102
}
102
{ACAD_REACTORS
330
2F4F
102
}
330
2F4F
100
AcDbVisualStyle
  2
Sketchy
 70
    24
 71
     1
 72
     2
 73
     2
 90
        0
 40
-0.6
 41
-30.0
 62
     5
 63
     7
421
 16777215
 74
     2
 91
        2
 64
     7
 65
     7
 75
     1
175
     1
 42
40.0
 92
       11
 66
     7
 43
1.0
 76
     1
 77
     6
 78
     2
 67
     7
 79
     6
170
     0
171
     0
290
     0
174
     0
 93
        1
 44
0.0
173
     0
291
     0
 45
0.0
1001
ACAD
1000
AcDbSavedByObjectVersion
1070
     0
  0
VISUALSTYLE
  5
2F5C
102
{ACAD_XDICTIONARY
360
417D
102
}
102
{ACAD_REACTORS
330
2F4F
102
}
330
2F4F
100
AcDbVisualStyle
  2
Thicken
 70
    13
 71
     2
 72
     2
 73
     0
 90
        0
 40
-0.6
 41
-30.0
 62
     5
 63
     7
421
 16777215
 74
     1
 91
        4
 64
     7
 65
   257
 75
     1
175
     1
 42
1.0
 92
       12
 66
     7
 43
1.0
 76
     1
 77
     6
 78
     2
 67
     7
 79
     5
170
     0
171
     0
290
     0
174
     0
 93
        1
 44
0.0
173
     0
291
     1
 45
0.0
1001
ACAD
1000
AcDbSavedByObjectVersion
1070
     0
  0
VISUALSTYLE
  5
3CD8
102
{ACAD_XDICTIONARY
360
4187
102
}
102
{ACAD_REACTORS
330
2F4F
102
}
330
2F4F
100
AcDbVisualStyle
  2
Wireframe
 70
     5
 71
     0
 72
     2
 73
     0
 90
        0
 40
-0.6
 41
-30.0
 62
     5
 63
     7
421
 16777215
 74
     1
 91
        4
 64
     7
 65
   257
 75
     1
175
     1
 42
1.0
 92
        0
 66
   257
 43
1.0
 76
     1
 77
     6
 78
     2
 67
     7
 79
     3
170
     0
171
     0
290
     0
174
     0
 93
        1
 44
0.0
173
     0
291
     0
 45
0.0
1001
ACAD
1000
AcDbSavedByObjectVersion
1070
     0
  0
VISUALSTYLE
  5
3CDC
102
{ACAD_XDICTIONARY
360
418F
102
}
102
{ACAD_REACTORS
330
2F4F
102
}
330
2F4F
100
AcDbVisualStyle
  2
X-Ray
 70
    25
 71
     2
 72
     2
 73
     1
 90
        1
 40
0.5
 41
-30.0
 62
     5
 63
     7
421
 16777215
 74
     1
 91
        0
 64
     7
 65
   257
 75
     1
175
     1
 42
1.0
 92
        8
 66
     7
 43
1.0
 76
     1
 77
     6
 78
     2
 67
     7
 79
     3
170
     0
171
     0
290
     0
174
     0
 93
       13
 44
0.0
173
     0
291
     0
 45
0.0
1001
ACAD
1000
AcDbSavedByObjectVersion
1070
     0
  0
DICTIONARYVAR
  5
2FD3
102
{ACAD_REACTORS
330
599
102
}
330
599
100
DictionaryVariables
280
     0
  1
1:1
  0
DICTIONARYVAR
  5
2FD2
102
{ACAD_REACTORS
330
599
102
}
330
599
100
DictionaryVariables
280
     0
  1
STANDARD
  0
DICTIONARYVAR
  5
2FD1
102
{ACAD_REACTORS
330
599
102
}
330
599
100
DictionaryVariables
280
     0
  1
STANDARD
  0
DICTIONARYVAR
  5
3DC9
102
{ACAD_REACTORS
330
599
102
}
330
599
100
DictionaryVariables
280
     0
  1
Imperial24
  0
DICTIONARYVAR
  5
3DCA
102
{ACAD_REACTORS
330
599
102
}
330
599
100
DictionaryVariables
280
     0
  1
Imperial24
  0
DICTIONARYVAR
  5
59A
102
{ACAD_REACTORS
330
599
102
}
330
599
100
DictionaryVariables
280
     0
  1
2
  0
DICTIONARY
  5
4161
102
{ACAD_REACTORS
330
415F
102
}
330
415F
100
AcDbDictionary
281
     1
  0
DICTIONARY
  5
4160
102
{ACAD_REACTORS
330
415F
102
}
330
415F
100
AcDbDictionary
281
     1
  3
140700117351456
350
415A
  3
140700117351472
350
415B
  3
140700117351488
350
415C
  3
140700117351504
350
415D
  3
140700117351520
350
415E
  0
XRECORD
  5
598
102
{ACAD_REACTORS
330
596
102
}
330
596
100
AcDbXrecord
280
     1
330
0
330
0
330
0
  0
XRECORD
  5
2C67
102
{ACAD_REACTORS
330
2C66
102
}
330
2C66
100
AcDbXrecord
280
     1
  1
DIMENSION
  1
*DIM*
  1
*
  1
*
 70
     0
  1
*
  1
*
  0
XRECORD
  5
2C68
102
{ACAD_REACTORS
330
2C66
102
}
330
2C66
100
AcDbXrecord
280
     1
  1
HB_X
  1
HB_X*
  1
*
  1
*
 70
     0
  1
*
  1
*
  0
XRECORD
  5
35F7
102
{ACAD_XDICTIONARY
360
35F8
102
}
102
{ACAD_REACTORS
330
2FE7
102
}
330
2FE7
100
AcDbXrecord
280
     1
 91
     1023
301

290
     0
302
3
330
0
 90
        8
 62
     2
370
    -3
331
5
  1
Color_2
330
30A7
 90
        8
 62
     7
370
    -3
331
5
  1
Color_7
330
2FF8
 90
        8
 62
     7
370
    80
331
5
  1
Color_7
330
2FF6
 90
        8
 62
     2
370
    -3
331
5
  1
Color_2
330
2FEE
 90
        8
 62
     7
370
    -3
331
5
  1
Color_7
330
0
 90
        8
 62
     3
370
    -3
331
5
  1
Color_3
330
0
 90
        8
 62
     8
370
    -3
331
5
  1
Color_8
330
0
 90
        8
 62
     7
370
    -3
331
5
  1
Color_7
330
4
 90
        8
 62
     7
370
    -3
331
5
  1
Color_7
330
12
 90
        8
 62
     1
370
    -3
331
5
  1
Color_1
330
2F
 90
        0
 62
   210
370
    -3
331
5
  1
Color_210
330
24
 90
        8
 62
     7
370
    -3
331
5
  1
Color_7
  0
DICTIONARY
  5
2FEB
330
58F
100
AcDbDictionary
280
     1
281
     1
  3
ADSK_XREC_LAYOUTTHUMBNAIL
360
2FEC
  0
DICTIONARY
  5
2F40
330
2F3F
100
AcDbDictionary
280
     1
281
     1
  3
ACAD_XREC_ROUNDTRIP
360
4163
  3
BUMPTILE
360
2F42
  3
DIFFUSETILE
360
2F41
  3
OPACITYTILE
360
2F45
  3
REFLECTIONTILE
360
2F44
  3
REFRACTIONTILE
360
2F46
  3
SPECULARTILE
360
2F43
  0
DICTIONARY
  5
2F38
330
2F37
100
AcDbDictionary
280
     1
281
     1
  3
ACAD_XREC_ROUNDTRIP
360
4162
  3
BUMPTILE
360
2F3A
  3
DIFFUSETILE
360
2F39
  3
OPACITYTILE
360
2F3D
  3
REFLECTIONTILE
360
2F3C
  3
REFRACTIONTILE
360
2F3E
  3
SPECULARTILE
360
2F3B
  0
DICTIONARY
  5
2F48
330
2F47
100
AcDbDictionary
280
     1
281
     1
  3
ACAD_XREC_ROUNDTRIP
360
4164
  3
BUMPTILE
360
2F4A
  3
DIFFUSETILE
360
2F49
  3
OPACITYTILE
360
2F4D
  3
REFLECTIONTILE
360
2F4C
  3
REFRACTIONTILE
360
2F4E
  3
SPECULARTILE
360
2F4B
  0
DICTIONARY
  5
2FC0
330
2F62
100
AcDbDictionary
280
     1
281
     1
  3
ACAD_ROUNDTRIP_2008_TABLESTYLE_CELLSTYLEMAP
360
4153
  3
ACAD_XREC_ROUNDTRIP
360
4185
  0
DICTIONARY
  5
416F
330
2F55
100
AcDbDictionary
280
     1
281
     1
  3
ACAD_XREC_ROUNDTRIP
360
4170
  0
DICTIONARY
  5
4173
330
2F57
100
AcDbDictionary
280
     1
281
     1
  3
ACAD_XREC_ROUNDTRIP
360
4174
  0
DICTIONARY
  5
4171
330
2F56
100
AcDbDictionary
280
     1
281
     1
  3
ACAD_XREC_ROUNDTRIP
360
4172
  0
DICTIONARY
  5
416D
330
2F54
100
AcDbDictionary
280
     1
281
     1
  3
ACAD_XREC_ROUNDTRIP
360
416E
  0
DICTIONARY
  5
417B
330
2F5B
100
AcDbDictionary
280
     1
281
     1
  3
ACAD_XREC_ROUNDTRIP
360
417C
  0
DICTIONARY
  5
4183
330
2F5F
100
AcDbDictionary
280
     1
281
     1
  3
ACAD_XREC_ROUNDTRIP
360
4184
  0
DICTIONARY
  5
4175
330
2F58
100
AcDbDictionary
280
     1
281
     1
  3
ACAD_XREC_ROUNDTRIP
360
4176
  0
DICTIONARY
  5
4179
330
2F5A
100
AcDbDictionary
280
     1
281
     1
  3
ACAD_XREC_ROUNDTRIP
360
417A
  0
DICTIONARY
  5
4199
330
3CE1
100
AcDbDictionary
280
     1
281
     1
  3
ACAD_XREC_ROUNDTRIP
360
419A
  0
DICTIONARY
  5
4181
330
2F5E
100
AcDbDictionary
280
     1
281
     1
  3
ACAD_XREC_ROUNDTRIP
360
4182
  0
DICTIONARY
  5
4165
330
2F50
100
AcDbDictionary
280
     1
281
     1
  3
ACAD_XREC_ROUNDTRIP
360
4166
  0
DICTIONARY
  5
4167
330
2F51
100
AcDbDictionary
280
     1
281
     1
  3
ACAD_XREC_ROUNDTRIP
360
4168
  0
DICTIONARY
  5
4169
330
2F52
100
AcDbDictionary
280
     1
281
     1
  3
ACAD_XREC_ROUNDTRIP
360
416A
  0
DICTIONARY
  5
416B
330
2F53
100
AcDbDictionary
280
     1
281
     1
  3
ACAD_XREC_ROUNDTRIP
360
416C
  0
DICTIONARY
  5
4189
330
3CD9
100
AcDbDictionary
280
     1
281
     1
  3
ACAD_XREC_ROUNDTRIP
360
418A
  0
DICTIONARY
  5
4195
330
3CDF
100
AcDbDictionary
280
     1
281
     1
  3
ACAD_XREC_ROUNDTRIP
360
4196
  0
DICTIONARY
  5
417F
330
2F5D
100
AcDbDictionary
280
     1
281
     1
  3
ACAD_XREC_ROUNDTRIP
360
4180
  0
DICTIONARY
  5
4197
330
3CE0
100
AcDbDictionary
280
     1
281
     1
  3
ACAD_XREC_ROUNDTRIP
360
4198
  0
DICTIONARY
  5
4177
330
2F59
100
AcDbDictionary
280
     1
281
     1
  3
ACAD_XREC_ROUNDTRIP
360
4178
  0
DICTIONARY
  5
4193
330
3CDE
100
AcDbDictionary
280
     1
281
     1
  3
ACAD_XREC_ROUNDTRIP
360
4194
  0
DICTIONARY
  5
4191
330
3CDD
100
AcDbDictionary
280
     1
281
     1
  3
ACAD_XREC_ROUNDTRIP
360
4192
  0
DICTIONARY
  5
418B
330
3CDA
100
AcDbDictionary
280
     1
281
     1
  3
ACAD_XREC_ROUNDTRIP
360
418C
  0
DICTIONARY
  5
418D
330
3CDB
100
AcDbDictionary
280
     1
281
     1
  3
ACAD_XREC_ROUNDTRIP
360
418E
  0
DICTIONARY
  5
417D
330
2F5C
100
AcDbDictionary
280
     1
281
     1
  3
ACAD_XREC_ROUNDTRIP
360
417E
  0
DICTIONARY
  5
4187
330
3CD8
100
AcDbDictionary
280
     1
281
     1
  3
ACAD_XREC_ROUNDTRIP
360
4188
  0
DICTIONARY
  5
418F
330
3CDC
100
AcDbDictionary
280
     1
281
     1
  3
ACAD_XREC_ROUNDTRIP
360
4190
  0
XRECORD
  5
415A
102
{ACAD_REACTORS
330
4160
102
}
330
4160
100
AcDbXrecord
280
     1
  1
AcDb_Thumbnail_Schema
102
{ATTRRECORD
341
415B
  2
AcDbDs::TreatedAsObjectData
280
     1
291
     1
102
ATTRRECORD}
102
{ATTRRECORD
341
415C
  2
AcDbDs::Legacy
280
     1
291
     1
102
ATTRRECORD}
  2
AcDbDs::ID
280
    10
 91
        8
102
{ATTRRECORD
341
415D
  2
AcDs:Indexable
280
     1
291
     1
102
ATTRRECORD}
102
{ATTRRECORD
341
415E
  2
AcDbDs::HandleAttribute
280
     7
282
     1
102
ATTRRECORD}
  2
Thumbnail_Data
280
    15
 91
        0
  0
XRECORD
  5
415B
102
{ACAD_REACTORS
330
4160
102
}
330
4160
100
AcDbXrecord
280
     1
  1
AcDbDs::TreatedAsObjectDataSchema
  2
AcDbDs::TreatedAsObjectData
280
     1
 91
        0
  0
XRECORD
  5
415C
102
{ACAD_REACTORS
330
4160
102
}
330
4160
100
AcDbXrecord
280
     1
  1
AcDbDs::LegacySchema
  2
AcDbDs::Legacy
280
     1
 91
        0
  0
XRECORD
  5
415D
102
{ACAD_REACTORS
330
4160
102
}
330
4160
100
AcDbXrecord
280
     1
  1
AcDbDs::IndexedPropertySchema
  2
AcDs:Indexable
280
     1
 91
        0
  0
XRECORD
  5
415E
102
{ACAD_REACTORS
330
4160
102
}
330
4160
100
AcDbXrecord
280
     1
  1
AcDbDs::HandleAttributeSchema
  2
AcDbDs::HandleAttribute
280
     7
 91
        1
284
     1
  0
DICTIONARY
  5
35F8
330
35F7
100
AcDbDictionary
280
     1
281
     1
  3
AcadLayerStateAnnoScale
360
35F9
  0
XRECORD
  5
2FEC
102
{ACAD_REACTORS
330
2FEB
102
}
330
2FEB
100
AcDbXrecord
280
     1
310
28000000680000008C0000000100080000000000E0380000010000000100000000010000000000004C00390000000000C8C8C8FF000000FF000000FF000000FF000000FF000000FF000000FF000000FF000000FF330000FF660000FF990000FFCC0000FFFF0000FF003300FF333300FF663300FF993300FFCC3300FFFF3300
310
FF006600FF336600FF666600FF996600FFCC6600FFFF6600FF009900FF339900FF669900FF999900FFCC9900FFFF9900FF00CC00FF33CC00FF66CC00FF99CC00FFCCCC00FFFFCC00FF00FF00FF33FF00FF66FF00FF99FF00FFCCFF00FFFFFF00FF000033FF330033FF660033FF990033FFCC0033FFFF0033FF003333FF3333
310
33FF663333FF993333FFCC3333FFFF3333FF006633FF336633FF666633FF996633FFCC6633FFFF6633FF009933FF339933FF669933FF999933FFCC9933FFFF9933FF00CC33FF33CC33FF66CC33FF99CC33FFCCCC33FFFFCC33FF00FF33FF33FF33FF66FF33FF99FF33FFCCFF33FFFFFF33FF000066FF330066FF660066FF99
310
0066FFCC0066FFFF0066FF003366FF333366FF663366FF993366FFCC3366FFFF3366FF006666FF336666FF666666FF996666FFCC6666FFFF6666FF009966FF339966FF669966FF999966FFCC9966FFFF9966FF00CC66FF33CC66FF66CC66FF99CC66FFCCCC66FFFFCC66FF00FF66FF33FF66FF66FF66FF99FF66FFCCFF66FF
310
FFFF66FF000099FF330099FF660099FF990099FFCC0099FFFF0099FF003399FF333399FF663399FF993399FFCC3399FFFF3399FF006699FF336699FF666699FF996699FFCC6699FFFF6699FF009999FF339999FF669999FF999999FFCC9999FFFF9999FF00CC99FF33CC99FF66CC99FF99CC99FFCCCC99FFFFCC99FF00FF99
310
FF33FF99FF66FF99FF99FF99FFCCFF99FFFFFF99FF0000CCFF3300CCFF6600CCFF9900CCFFCC00CCFFFF00CCFF0033CCFF3333CCFF6633CCFF9933CCFFCC33CCFFFF33CCFF0066CCFF3366CCFF6666CCFF9966CCFFCC66CCFFFF66CCFF0099CCFF3399CCFF6699CCFF9999CCFFCC99CCFFFF99CCFF00CCCCFF33CCCCFF66CC
310
CCFF99CCCCFFCCCCCCFFFFCCCCFF00FFCCFF33FFCCFF66FFCCFF99FFCCFFCCFFCCFFFFFFCCFF0000FFFF3300FFFF6600FFFF9900FFFFCC00FFFFFF00FFFF0033FFFF3333FFFF6633FFFF9933FFFFCC33FFFFFF33FFFF0066FFFF3366FFFF6666FFFF9966FFFFCC66FFFFFF66FFFF0099FFFF3399FFFF6699FFFF9999FFFFCC
310
99FFFFFF99FFFF00CCFFFF33CCFFFF66CCFFFF99CCFFFFCCCCFFFFFFCCFFFF00FFFFFF33FFFFFF66FFFFFF99FFFFFFCCFFFFFFFFFFFFFF000000FF0D0D0DFF1A1A1AFF282828FF353535FF434343FF505050FF5D5D5DFF6B6B6BFF787878FF868686FF939393FFA1A1A1FFAEAEAEFFBBBBBBFFC9C9C9FFD6D6D6FFE4E4E4FF
310
F1F1F1FFFFFFFFFF000000FF000000FF000000FF000000FF000000FF000000FF000000FF000000FF000000FF000000FF00000000000000000000000000000000000000000000000000000000000000000000000000000000000000000000000000000000000000000000000000000000000000000000000000000000000000
310
00000000000000000000000000000000000000000000000000000000000000000000000000000000000000000000000000000000000000000000000000000000000000000000000000000000000000000000000000000000000000000000000000000000000000000000000000000000000000000000000000000000000000
310
00000000000000000000000000000000000000000000000000000000000000000000000000000000000000000000000000000000000000000000000000000000000000000000000000000000000000000000000000000000000000000000000000000000000000000000000000000000000000000000000000000000000000
310
00000000000000000000000000000000000000000000000000000000000000000000000000000000000000000000000000000000000000000000000000000000000000000000000000000000000000000000000000000000000000000000000000000000000000000000000000000000000000000000000000000000000000
310
00000000000000000000000000000000000000000000000000000000000000000000000000000000000000000000000000000000000000000000000000000000000000000000000000000000000000000000000000000000000000000000000000000000000000000000000000000000000000000000000000000000000000
310
00000000000000000000000000000000000000000000000000000000000000000000000000000000000000F5F5F5F5F5F5F5F5F5F5F5F5F5F5F5F5F5F5F5F5F5F5F5F5F5F5F5F5F5F5F5F5F5F5F5F5F5F5F5F5F5F5F5F5F5F5F5F5F5F5F5F5F5F5F5F5F5F5F5F5F5F5F5F5F5F5F5F5F5F5F5F5F5F5F5F5F5F5F5F5F5F5F5F5
310
F5F5F5F5F5000000000000000000000000000000F50000000000000000000000000000000000000000000000F50000F5F5F5F5F5F5F5F5F5F5F5F5F5F5F5F5F5F5F5F5F5F5F5F5F5F5F5F5F5F5F5F5F5F5F5F5F5F5F5F5F5F5F5F5F5F5F5F5F5F5F5F5F5F5F5000000000000F5000000000000000000000000000000F50000
310
000000000000000000000000000000000000000000F5000000000000000000000000000000000000000000000000000000000000000000000000000000000000000000000000000000000000000000000000000000F5000000000000000000000000000000F50000000000000000000000000000000000000000000000F5F5
310
F5F5F5F5F5F5F5F5F5F5F5F5F5F5F5F5F5F5F5F5F5F5F5F5F5F5F5F5F5F5F5F5F5F5F5F5F5F5F5F5F5F5F5F5F5F5F5F5F5F5F5F5F5F5F5F5F5F5F5F5F5F5F5000000000000000000000000000000F50000000000000000000000000000000000000000000000F5F5F5F5F500F5F5F5F5F5F5F5F5F5F5F50000000000F500F5
310
F5F5F5F500F5F500000000000000000000F5F5F5F5F5F5F5F50000F5F5F5F5F5F5000000000000F5000000000000000000000000000000F50000000000000000000000000000000000000000000000F5F5F5F5F500F5F5F5F5F5F5F5F5F5F5F50000000000F500F5F5F5F5F500F5F500000000000000000000F5F5F5F5F5F5
310
F5F50000F5F5F5F5F5F5000000000000F5000000000000000000000000000000F50000000000000000000000000000000000000000000000F5000000000000000000000000000000000000000000F500000000000000000000000000000000000000F5000000000000000000000000000000000000000000F5000000000000
310
000000000000000000F50000000000000000000000000000000000000000000000F5F5F5F5F5F5F5F5F5F5F5F5F5F5F5F5F5F5F5F5F5F5F5F5F5F5F5F5F5F5F5F5F5F5F5F5F5F5F5F5F5F5F5F5F5F5F5F5F5F5F5F5F5F5F5F5F5F5F5F5F5F5F5F5F5000000000000000000000000000000F5F5F5F5F5F5F5F5F5F5F5F5F5F5
310
F5F5F5F5F5F5F5F5F5F5F5000000000000000000000000000000F5F5F5F5F5F5F5F5F5F5F5F5F5F5F5F5F5F5F5F5F5F5F5F5F5F5F5F5F5F5F5F5F5F5F5F5F5F5F5F50000000000000000F5000000000000000000000000000000F5F4E1BFF4E1BEDAE1C5F4BEE1C5F4E1F4E1F4E1A1E1C5F4F5000000000000000000000000
310
000000000000000000000000000000000000000000000000000000000000000000000000000000000000000000000000000000F5000000000000000000000000000000F5E1F4A1E1E1C59AE1F4E1E1E19BE1C5F4A1E1E1BEE1F4E1F5F5F5F50000000000000000000000F5F5F5F5F5F5F5F5F5F5F5F5F5F5F5F5F5F5F5F5F5
310
F5F5F5F5F5F5F5F5F5F5F5F5F5F5F5F5F5F5F5F5F5F5F5F500000000F5000000000000000000000000000000F5E1E1E1E1F4E1E1E19BC59AE1F4E1E1E1E1E1F4E1E19BC5F5F5F5F50000000000000000000000F5F5F5F5F5F5F5F5F5F5F5F5F5F5F5F5F5F5F5F5F5F5F5F5F5F5F5F5F5F5F5F5F5F5F5F5F5F5F5F5F5F5F5F5
310
F500000000F5000000000000000000000000000000F5E1E1BFA0C5BFA0C5BEC59BC4C5BFA0C5BEC59BC4E1C59AF50000000000000000000000000000F5F5F5F5F5F5F5F5F5F5F5F5F5F5F5F5F5F5F5F5F5F5F5F5F5F5F5F5F5F5F5F5F5F5F5F5F5F5F5F5F5F5F5F5F500000000F5000000000000000000000000000000F5F5
310
F5F5F5F5F5F5F5F5F5F5F5F5F5F5F5F5F5F5F5F5F5F5F5F5F5F5F5F5F5F5F5F5F5F5F5F5F5F5F5F5F5F5F5F5F5F5F5F5F5F5F5F5F5F5F5F5F5F5F5F5F5F5F5F5F5F5F5F5F5F5F5F5F5F5F5F5F5F5F5F5F5F5F5F5F5F5F5000000000000000000000000000000F5000000000000000000000000000000000000000000000000
310
000000000000000000000000000000000000000000000000000000000000000000000000000000000000000000000000000000000000000000000000000000F5000000000000000000000000000000F50000000000000000000000000000000000000000000000000000000000000000000000000000000000000000000000
310
00000000000000000000000000000000000000000000000000000000000000000000000000000000F5000000000000000000000000000000F500000000000000000000000000000000000000000000000000000000000000000000000000000000000000000000000000000000000000000000000000000000000000000000
310
0000000000000000000000000000000000F5000000000000000000000000000000F5000000000000000000000000000000000000000000000000000000000000000000000000000000000000000000000000000000000000000000000000000000000000000000000000000000000000000000000000000000F50000000000
310
00000000000000000000F5000000000000000000000000000000000000000000000000000000000000000000000000000000000000000000000000000000000000000000000000000000000000000000000000000000000000000000000000000000F5000000000000000000000000000000F5000000000000000000000000
310
000000000000000000000000000000000000000000000000000000000000000000000000000000000000000000000000000000000000000000000000000000000000000000000000000000F5000000000000000000000000000000F5C3C3C3C3C3C3C3C3C3C3C3C3C3C3C3C3C3C3C3C3C3C3C3C3C3C3C3C3C3C3C3C3C3C3C3
310
C3C3C3C3C3C3C3C3C3C3C3C3C3C3C3C3C3C3C3C3C3C3C3C3C3C3C3C3C3C3C3C3C3C3C3C3C3C3C3C3C3C3C3C3C3C3C3C3C3C3C3C3F5000000000000000000000000000000F5C3000000000000000000000000000000000000000000000000000000000000000000000000000000000000000000000000000000000000000000
310
00000000000000000000000000000000000000000000000000000000C3F5000000000000000000000000000000F5C30000000000000000000000000000000000000000000000000000000000000000000000000000000000000000000000000000000000000000000000000000000000000000000000000000000000000000
310
0000000000C3F5000000000000000000000000000000F5C300000000000000000000000000000000000000000000000000000000000000000000000000000000000000000000000000000000000000000000000000000000000000000000000000000000000000000000000000C3F5000000000000000000000000000000F5
310
C300000000000000000000000000000000000000000000000000000000000000000000000000000000000000000000000000000000000000000000000000000000000000000000000000000000000000000000000000C3F5000000000000000000000000000000F5C300000000000000000000000000000000000000000000
310
000000000000000000000000000000000000000000000000000000000000000000000000000000000000000000000000000000000000000000000000000000C3F5000000000000000000000000000000F5C3000000000000000000000000000000000000000000000000000000000000000000000000000000000000000000
310
00000000000000000000000000000000000000000000000000000000000000000000000000000000C3F5000000000000000000000000000000F5C30000000000000000000000000000000000000000000000000000000000000000000000000000000000000000000000000000000000000000000000000000000000000000
310
0000000000000000000000000000000000C3F5000000000000000000000000000000F5C300000000000000000000000000000000000000000000000000000000000000000000000000000000000000000000000000000000000000000000000000000000000000000000000000000000000000000000000000C3F500000000
310
0000000000000000000000F5C300000000000000000000000000000000000000000000000000000000000000000000000000000000000000000000000000000000000000000000000000000000000000000000000000000000000000000000000000C3F5000000000000000000000000000000F5C300000000000000000000
310
000000000000000000000000000000000000000000000000000000000000000000000000000000000000000000000000000000000000000000000000000000000000000000000000000000C3F5000000000000000000000000000000F5C3000000000000000000000000000000000000000000000000000000000000000000
310
00000000000000000000000000000000000000000000000000000000000000000000000000000000000000000000000000000000C3F5000000000000000000000000000000F5C30000000000000000000000000000000000000000000000000000000000000000000000000000000000000000000000000000000000000000
310
0000000000000000000000000000000000000000000000000000000000C3F5000000000000000000000000000000F5C300000000000000000000000000000000000000000000000000000000000000000000000000000000000000000000000000000000000000000000000000000000000000000000000000000000000000
310
000000000000C3F5000000000000000000000000000000F5C300000000000000000000000000000000000000000000000000000000000000000000000000000000000000000000000000000000000000000000000000000000000000000000000000000000000000000000000000C3F5000000000000000000000000000000
310
F5C300000000000000000000000000000000000000000000000000000000000000000000000000000000000000000000000000000000000000000000000000000000000000000000000000000000000000000000000000C3F5000000000000000000000000000000F5C3000000000000000000000000000000000000000000
310
00000000000000000000000000000000000000000000000000000000000000000000000000000000000000000000000000000000000000000000000000000000C3F5000000000000000000000000000000F5C30000000000000000000000000000000000000000000000000000000000000000000000000000000000000000
310
0000000000000000000000000000000000000000000000000000000000000000000000000000000000C3F5000000000000000000000000000000F5C300000000000000000000000000000000000000000000000000000000000000000000000000000000000000000000000000000000000000000000000000000000000000
310
000000000000000000000000000000000000C3F5000000000000000000000000000000F5C300000000000000000000000000000000000000000000000000000000000000000000000000000000000000000000000000000000000000000000000000000000000000000000000000000000000000000000000000C3F5000000
310
000000000000000000000000F5C300000000000000000000000000000000000000000000000000000000000000000000000000000000000000000000000000000000000000000000000000000000000000000000000000000000000000000000000000C3F5000000000000000000000000000000F5C3000000000000000000
310
00000000000000000000000000000000000000000000000000000000000000000000000000000000000000000000000000000000000000000000000000000000000000000000000000000000C3F5000000000000000000000000000000F5C30000000000000000000000000000000000000000000000000000000000000000
310
0000000000000000000000000000000000000000000000000000000000000000000000000000000000000000000000000000000000C3F5000000000000000000000000000000F5C300000000000000000000000000000000000000000000000000000000000000000000000000000000000000F50000000000000000000000
310
000000000000000000000000000000000000000000000000000000000000C3F5000000000000000000000000000000F5C300000000000000000000000000000000000000000000000000000000000000F5F5F5BEF5F5F5F5F5F500DCF5F5F5F5F5F5F5F5F5F5F5F50000000000000000000000000000000000000000000000
310
00000000000000C3F5000000000000000000000000000000F5C300000000000000000000000000000000000000000000000000000000000000000000BEDCDCDCDCDCDCF5F500DC00DCDC0000DCBE000000000000000000000000000000000000000000000000000000000000000000C3F50000000000000000000000000000
310
00F5C300000000000000000000000000000000000000000000000000000000000000000000BE00DCDC00DCDC0000DCDCDCDCDCDCDCDCBE000000000000000000000000000000000000000000000000000000000000000000C3F5000000000000000000000000000000F5C30000000000000000000000000000000000000000
310
0000000000000000000000000000BEDCDCDCDC00DCDCDC00DCDC00DCDCDCDCBE000000000000000000000000000000000000000000000000000000000000000000C3F5000000000000000000000000000000F5C300000000000000000000000000000000000000000000000000000000000000000000BEDCDCDCDCDCDCDCDC
310
00DCDC00DCDC0000BE000000000000000000000000000000000000000000000000000000000000000000C3F5000000000000000000000000000000F5C300000000000000000000000000000000000000000000000000000000000000000000BEDC0000DCDC00DCDCDCDCDCDCDCDC00DCBE0000000000000000000000000000
310
00000000000000000000000000000000000000C3F5000000000000000000000000000000F5C300000000000000000000000000000000000000000000000000000000000000000000BE00DCDC00DCDCDCDC00DCDCDCDCDC00DCBE000000000000000000000000000000000000000000000000000000000000000000C3F50000
310
00000000000000000000000000F5C300000000000000000000000000000000000000000000000000000000000000000000BEDCDCDCDCDCDCDC000000DC00000000DCBE000000000000000000000000000000000000000000000000000000000000000000C3F5000000000000000000000000000000F5C30000000000000000
310
0000000000000000000000000000000000000000000000000000BE000000DCDC00DCDCDCDCDCDCDCDCDCDCBE000000000000000000000000000000000000000000000000000000000000000000C3F5000000000000000000000000000000F5C300000000000000000000000000000000000000000000000000000000000000
310
000000BE00DC00DCDCDC00DCDC00DCDCDCDC00DCBE000000000000000000000000000000000000000000000000000000000000000000C3F5000000000000000000000000000000F5C300000000000000000000000000000000000000000000000000000000000000000000BEDCDCDCDCDCDCDCDC00DC00DCDCDC00DCBE0000
310
00000000000000000000000000000000000000000000000000000000000000C3F5000000000000000000000000000000F5C300000000000000000000000000000000000000000000000000000000000000000000BEDCDC0000DCDC00DCDCDCDCDCDCDCDCDCBE00000000000000000000000000000000000000000000000000
310
0000000000000000C3F5000000000000000000000000000000F5C300000000000000000000000000000000000000000000000000000000000000000000BEDC0000DCDC00DCDC00DCDCDCDCDCDCDCBE000000000000000000000000000000000000000000000000000000000000000000C3F500000000000000000000000000
310
0000F5C300000000000000000000000000000000000000000000000000000000000000000000BEDCDCDCDCDCDCDCDCDC00DC00DCDC00DCBE000000000000000000000000000000000000000000000000000000000000000000C3F5000000000000000000000000000000F5C300000000000000000000000000000000000000
310
000000000000000000000000000000BE00DC00DC0000DC00DCDCDCDCDCDCDCDCBE000000000000000000000000000000000000000000000000000000000000000000C3F5000000000000000000000000000000F5C3000000000000000000000000F5F5F5F5000000000000000000000000000000000000BEDCDCDC00DCDCDC
310
DC0000DC0000DCDCDCBE000000000000000000000000000000000000000000000000000000000000000000C3F5000000000000000000000000000000F5C3000000000000000000000000F5F5F5F50000000000000000F5F5F500000000000000BEDCDCDC00DCDCDCDCDC0000DC00DCDC00BE00000000000000000000000000
310
0000000000000000000000000000000000000000C3F5000000000000000000000000000000F5C3000000000000000000000000F5F5F5F5F5F5F5F5F5F5F5F5F5F5F500000000000000BE00DCDC00DCDC00DCDCDCDCDCDCDCDCDCBE000000000000000000000000000000000000000000000000000000000000000000C3F500
310
0000000000000000000000000000F5C3000000000000000000000000F5F5F5F5F5F5F5F5F5F5F5F5F5F5F5F5F5F5F5F5F5F5BE00DCDCDC00DC00DC00DCDCDCDCDC00DCBE000000000000000000000000000000000000000000000000000000000000000000C3F5000000000000000000000000000000F5C300000000000000
310
0000000000000000000000000000000000000000000000000000F5F5F5F5DCDCDCDCDCDCDC00DCDCDC00DCDCBE000000000000000000000000000000000000000000000000000000000000000000C3F5000000000000000000000000000000F5C3000000000000000000000000000000000000000000000000000000000000
310
00000000BEDCF5F5F5DCDC00DCDCDCDCDCDCDCDCDCBE000000000000000000000000000000000000000000000000000000000000000000C3F5000000000000000000000000000000F5C300000000000000000000000000000000000000000000000000000000000000000000BEDC00DCF5F5DC0000DCDC00DC00DC00DCBE00
310
0000000000000000000000000000000000000000000000000000000000000000C3F5000000000000000000000000000000F5C300000000000000000000000000000000000000000000000000000000000000000000BEDCDCDCDCDCF5F5DC00DCDC00DCDC0000BE000000000000000000000000000000000000000000000000
310
000000000000000000C3F5000000000000000000000000000000F5C300000000000000000000000000000000000000000000000000000000000000000000BEDCDCDCDCDCDCF5F5DCDCDCDCDCDCDCDCBE000000000000000000000000000000000000000000000000000000000000000000C3F5000000000000000000000000
310
000000F5C300000000000000000000000000000000000000000000000000000000000000000000BEDCDC0000DCDC00F5F5DCDC0000DCDC00BE000000000000000000000000000000000000000000000000000000000000000000C3F5000000000000000000000000000000F5C3000000000000000000000000000000000000
310
00000000000000000000000000000000BE00DCDC00DCDC00DCDC0000DCDCDCDCDCBE000000000000000000000000000000000000000000000000000000000000000000C3F5000000000000000000000000000000F5C300000000000000000000000000000000000000000000000000000000000000000000BE00DCDCDCDC00
310
DCDCDCDCDCDCDCDCDCDCBE000000000000000000000000000000000000000000000000000000000000000000C3F5000000000000000000000000000000F5C300000000000000000000000000000000000000000000000000000000000000000000BEDCDC00000000DC000000DCDC00DC00DCBE000000000000000000000000
310
000000000000000000000000000000000000000000C3F5000000000000000000000000000000F5C300000000000000000000000000000000000000000000000000000000000000000000BEDCDCDCDCDCDCDCDCDCDC00DC0000DC00BE000000000000000000000000000000000000000000000000000000000000000000C3F5
310
000000000000000000000000000000F5C300000000000000000000000000000000000000000000000000000000000000000000BE00DCDCDCDCDC00DCDCDCDCDCDCDCDC00BE000000000000000000000000000000000000000000000000000000000000000000C3F5000000000000000000000000000000F5C3000000000000
310
00000000000000000000000000000000000000000000000000000000BE0000DCDC00DC00DCDC0000DCDC00DCDCBE000000000000000000000000000000000000000000000000000000000000000000C3F5000000000000000000000000000000F5C30000000000000000000000000000000000000000000000000000000000
310
0000000000BEDCDCDCDC00DCDCDC0000DCDC00DC00DCBE000000000000000000000000000000000000000000000000000000000000000000C3F5000000000000000000000000000000F5C300000000000000000000000000000000000000000000000000000000000000000000BEDCDCDC00DCDC0000DCDCDCDCDCDCDCDCBE
310
000000000000000000000000000000000000000000000000000000000000000000C3F5000000000000000000000000000000F5C300000000000000000000000000000000000000000000000000000000000000000000BEDC0000DCDC00DC00DC00DC0000DC0000BE0000000000000000000000000000000000000000000000
310
00000000000000000000C3F5000000000000000000000000000000F5C300000000000000000000000000000000000000000000000000000000000000000000BE00DCDCDCDCDC00DCDCDC00DCDC00DC00BE000000000000000000000000000000000000000000000000000000000000000000C3F50000000000000000000000
310
00000000F5C300000000000000000000000000000000000000000000000000F5F5F5F5F5F5F5F5F52DDC00DCDC0000DCDCDCDCDCDCDCDCDCDCF5F5F5F5F5F5F5F5F500000000000000000000000000000000000000000000000000C3F5000000000000000000000000000000F5C30000000000000000000000000000000000
310
0000000000000000F5000000000000002D2DDCDCDC0000DCDC00DC00DC000000DCDC2D000000000000F5F500000000000000000000000000000000000000000000000000C3F5000000000000000000000000000000F5C300000000000000000000000000000000000000000000000000F5000000000000002D2DDCDC00DCDC
310
DCDCDCDCDC00DCDC00DCDC2D00000000F5F5F50000000000000000000000000000000000000000000000000000C3F5000000000000000000000000000000F5C300000000000000000000000000000000000000000000000000F5000000000000002D2DDC00DCDC0000DC00DCDCDCDCDCDCDCDC2D00000000F5F5F500000000
310
00000000000000000000000000000000000000000000C3F5000000000000000000000000000000F5C30000000000000000000000000000000000000000000000F5F5F5000000000000002D2DDC00DCDC00DC00DCDC0000DCDC00DC002D00000000F5F5F50000000000000000000000000000000000000000000000000000C3
310
F5000000000000000000000000000000F5C30000000000000000000000000000000000000000000000F5F5F5000000000000002D2DDCDCDCDC00DCDC0000DCDC00DC0000DC2D00000000F5F5F50000000000000000000000000000000000000000000000000000C3F5000000000000000000000000000000F5C30000000000
310
000000000000000000000000000000000000F5F5F5000000000000002D2DDCDCDC00DCDC0000DCDC00DCDCDCDCDC2D000000000000F50000000000000000000000000000000000000000000000000000C3F5000000000000000000000000000000F5C30000000000000000000000000000000000000000000000F5F5F50000
310
00000000002D2DDC00DCDC0000DC00DCDCDC00DCDC00DC2D000000000000F5F500000000000000000000000000000000000000000000000000C3F5000000000000000000000000000000F5C300000000000000000000000000000000000000000000000000F5000000000000002D2DBEBEBEBE0F0F0F0F0F0F0F0FBEBEBEBE
310
F5F5F5F5F5F5F5F5F500000000000000000000000000000000000000000000000000C3F5000000000000000000000000000000F5C300000000000000000000000000000000000000000000000000F5000000000000002D2D0000000F0F0F0F0F0F0F0F0F0F0000002D0000000000F5F5F5F5F5F5F5F5F50000000000000000
310
0000000000000000000000C3F5000000000000000000000000000000F5C300000000000000000000000000000000000000000000000000F5000000000000002D2D0000000FF5F5F50F0F0F0F0F0F0000002D0000000000F5F5F5F5F5F5F5F5F500000000000000000000000000000000000000C3F500000000000000000000
310
0000000000F5C300000000000000000000000000000000000000000000000000F5000000000000002D2D000000F5F5F50F0FF50F0F0F0F0000002D000000000000000000000000000000000000000000000000000000000000000000C3F5000000000000000000000000000000F5C30000000000000000000000000000C3C3
310
ECECECECECECECECECF5F5F5F5F5F5F5F5F5F52DF5F52D2D2D2D2DF52D2D2D2D2D2D2DF5F5F5F5F5F5F5F5F5ECECECECECECECECECC3C3C300000000000000000000000000C3F5000000000000000000000000000000F5C300000000000000000000000000000000C3C30000000000000000EC00EC00000000ECECF5F50000
310
0000002DF5000000000000EC00000000ECEC00F5F5EC00000000EC00C3C3C3000000000000000000000000000000C3F5000000000000000000000000000000F5C30000000000000000000000000000000000C3C3C300000000EC00000000EC0000ECECF5F500000000EC002DF5F500000000000000000000000000F5000000
310
EC000000C3C30000000000000000000000000000000000C3F5000000000000000000000000000000F5C30000000000000000000000000000000000000000C3C3C3C3C3000000000000EC00F5F5000000EC0000EC2D2DF50000ECF5F5F5F5F5F5F5F5F5F5F50000000000ECC300000000000000000000000000000000000000
310
C3F5000000000000000000000000000000F5C3000000000000000000000000000000000000000000000000C3C3C3C3000000F5F50000000000EC0000002D2DF5EC0000F5F5F5F5F5F5F5F5F5F5F500000000ECC3C300000000000000000000000000000000000000C3F5000000000000000000000000000000F5C300000000
310
0000000000000000000000000000000000000000000000C3C300F5F500EC0000000000EC00002D2DF500ECEC00000000000000000000000000EC00C3C30000000000000000000000000000000000000000C3F5000000000000000000000000000000F5C30000000000F5F5F5F5F5F5F5F5F5F5F5F5F5F5F5F5000000000000
310
00F5F50000EC0000000000EC0000002D00F5F500EC0000000000000000000000000000C3C3000000000000000000000000000000000000000000C3F5000000000000000000000000000000F5C30000000000F5F5F5F5F5F5F5F5F5F5F5F5F5F5F5F5F5F5F5F5F5F5F500C3C30000000000EC00EC000000000000F5C3C3C3C3
310
C3EC000000000000000000C3C300000000000000000000000000000000000000000000C3F5000000000000000000000000000000F5C300000000000000000000000000000000000000000000000000000000000000C3C3000000EC000000000000C3C3F500000000C3C3C3C3C3C3ECC3C3C3C3C30000000000000000000000
310
000000000000000000000000C3F5000000000000000000000000000000F5C30000000000000000000000000000000000000000000000000000000000000000C3C3C3ECECEC000000C3C3C300F5F50000000000000000C3C3C3000000000000000000000000000000000000000000000000000000C3F5000000000000000000
310
000000000000F5C300000000000000000000000000000000000000000000000000000000000000000000C3C3C3C3C3C3C3C300000000F50000000000000000000000000000000000000000000000000000000000000000000000000000C3F5000000000000000000000000000000F5C3000000000000000000000000000000
310
00000000000000000000000000000000000000000000000000000000000000F5F500000000000000000000000000000000000000000000000000000000000000000000000000C3F5000000000000000000000000000000F5C30000000000000000000000000000000000000000000000000000000000000000000000000000
310
000000000000000000F5F5000000000000000000000000000000000000000000000000000000000000000000000000C3F5000000000000000000000000000000F5C3000000000000000000000000000000000000000000000000000000000000000000000000000000000000000000000000F5F50000000000000000000000
310
000000000000000000000000000000000000000000000000C3F5000000000000000000000000000000F5C300000000000000000000000000000000000000000000000000000000000000000000000000000000000000000000000000F5F5F500000000F5F5F5F5F5F5F5F5F5F5F5F5F5F5F5F5F5F5F5F5F500000000000000
310
00C3F5000000000000000000000000000000F5C3000000000000000000000000000000000000000000000000000000000000000000000000000000000000000000000000000000F5F5F5F500F5F5F5F5F5F5F5F5F5F5F5F5F5F5F5F5F5F5F5F5F50000000000000000C3F5000000000000000000000000000000F5C3000000
310
00000000000000000000000000000000000000000000000000000000000000000000000000000000000000000000000000000000000000000000000000000000000000000000000000000000000000000000C3F5000000000000000000000000000000F5C30000000000000000000000000000000000000000000000000000
310
0000000000000000000000000000000000000000000000000000000000000000000000000000000000000000000000000000000000000000000000C3F5000000000000000000000000000000F5C300000000000000000000000000000000000000000000000000000000000000000000000000000000000000000000000000
310
000000000000000000000000000000000000000000000000000000000000000000000000C3F5000000000000000000000000000000F5C3000000000000000000000000000000000000000000000000000000000000000000000000000000000000000000000000000000000000000000000000000000000000000000000000
310
00000000000000000000000000C3F5000000000000000000000000000000F5C300000000000000000000000000000000000000000000000000000000000000000000000000000000000000000000000000000000000000000000000000000000000000000000000000000000000000000000000000C3F50000000000000000
310
00000000000000F5C300000000000000000000000000000000000000000000000000000000000000000000000000000000000000000000000000000000000000000000000000000000000000000000000000000000000000000000000000C3F5000000000000000000000000000000F5C30000000000000000000000000000
310
0000000000000000000000000000000000000000000000000000000000000000000000000000000000000000000000000000000000000000000000000000000000000000000000C3F5000000000000000000000000000000F5C3C3C3C3C3C3C3C3C3C3C3C3C3C3C3C3C3C3C3C3C3C3C3C3C3C3C3C3C3C3C3C3C3C3C3C3C3C3
310
C3C3C3C3C3C3C3C3C3C3C3C3C3C3C3C3C3C3C3C3C3C3C3C3C3C3C3C3C3C3C3C3C3C3C3C3C3C3C3C3C3C3C3C3C3C3C3C3C3F5000000000000000000000000000000F500000000000000000000000000000000000000000000000000000000000000000000000000000000000000000000000000000000000000000000000000
310
0000000000000000000000000000000000000000000000000000F5000000000000000000000000000000F5000000000000000000000000000000000000000000000000000000000000000000000000000000000000000000000000000000000000000000000000000000000000000000000000000000000000000000000000
310
000000F5000000000000000000000000000000F5000000000000000000000000000000000000000000000000000000000000000000000000000000000000000000000000000000000000000000000000000000000000000000000000000000000000000000000000000000F5000000000000000000000000000000F5000000
310
000000000000000000000000000000000000000000000000000000000000000000000000000000000000000000000000000000000000000000000000000000000000000000000000000000000000000000000000F5000000000000000000000000000000F50000000000000000000000000000000000000000000000000000
310
00000000000000000000000000000000000000000000000000000000000000000000000000000000000000000000000000000000000000000000000000F5000000000000000000000000000000F500000000000000000000000000000000000000000000000000000000000000000000000000000000000000000000000000
310
0000000000000000000000000000000000000000000000000000000000000000000000000000F5000000000000000000000000000000F5000000000000000000000000000000000000000000000000000000000000000000000000000000000000000000000000000000000000000000000000000000000000000000000000
310
000000000000000000000000000000F5000000000000000000000000000000F5000000000000000000000000000000000000000000000000000000000000000000000000000000000000000000000000000000000000000000000000000000000000000000000000000000000000000000000000000000F500000000000000
310
0000000000000000F5000000000000000000000000000000000000000000000000000000000000000000000000000000000000000000000000000000000000000000000000000000000000000000000000000000000000000000000000000000F5000000000000000000000000000000F50000000000000000000000000000
310
00000000000000000000000000000000000000000000000000000000000000000000000000000000000000000000000000000000000000000000000000000000000000000000000000F5000000000000000000000000000000F500000000000000000000000000000000000000000000000000000000000000000000000000
310
0000000000000000000000000000000000000000000000000000000000000000000000000000000000000000000000000000F5000000000000000000000000000000F5000000000000000000000000000000000000000000000000000000000000000000000000000000000000000000000000000000000000000000000000
310
000000000000000000000000000000000000000000000000000000F5000000000000000000000000000000F50000000000000000000000000000000000000000000000000000000000000000000000000000000000000000000000000000000000000000000000000000000000000000000000000000000000000000000000
310
00000000F5000000000000000000000000000000F5F5F5F5F5F5F5F5F5F5F5F5F5F5F5F5F5F5F5F5F5F5F5F5F5F5F5F5F5F5F5F5F5F5F5F5F5F5F5F5F5F5F5F5F5F5F5F5F5F5F5F5F5F5F5F5F5F5F5F5F5F5F5F5F5F5F5F5F5F5F5F5F5F5F5F5F5F5F5F5F5F5F5F5F5F5F5F5F5000000000000000000000000000000000000
310
00000000000000000000000000000000000000000000000000000000000000000000000000000000000000000000000000000000000000000000000000000000000000000000000000000000000000000000000000000000000000000000000000000000000000000000000000000000000000000000000000000000000000
310
00000000000000000000000000000000000000000000000000000000000000000000000000000000000000000000000000000000000000000000000000000000000000000000000000000000000000000000000000000000000000000000000000000000000000000000000000000000000000000000000000000000000000
310
00000000000000000000000000000000000000000000000000000000000000000000000000000000000000000000000000000000000000000000000000000000000000000000000000000000000000000000000000000000000000000000000000000000000000000000000000000000000000000000000000000000000000
310
00000000000000000000000000000000000000000000000000000000000000000000000000000000000000000000000000000000000000000000000000000000000000000000000000000000000000000000000000000000000000000000000000000000000000000000000000000000000000000000000000000000000000
310
000000
  0
XRECORD
  5
4163
102
{ACAD_REACTORS
330
2F40
102
}
330
2F40
100
AcDbXrecord
280
     1
102
MATERIAL
148
0.0
149
0.0
149
0.0
 93
        0
 94
      127
282
     0
 72
     0
 77
     0
171
     0
175
     0
179
     0
273
     0
  0
XRECORD
  5
2F42
102
{ACAD_REACTORS
330
2F40
102
}
330
2F40
100
AcDbXrecord
280
     1
270
     1
271
     1
  0
XRECORD
  5
2F41
102
{ACAD_REACTORS
330
2F40
102
}
330
2F40
100
AcDbXrecord
280
     1
270
     1
271
     1
  0
XRECORD
  5
2F45
102
{ACAD_REACTORS
330
2F40
102
}
330
2F40
100
AcDbXrecord
280
     1
270
     1
271
     1
  0
XRECORD
  5
2F44
102
{ACAD_REACTORS
330
2F40
102
}
330
2F40
100
AcDbXrecord
280
     1
270
     1
271
     1
  0
XRECORD
  5
2F46
102
{ACAD_REACTORS
330
2F40
102
}
330
2F40
100
AcDbXrecord
280
     1
270
     1
271
     1
  0
XRECORD
  5
2F43
102
{ACAD_REACTORS
330
2F40
102
}
330
2F40
100
AcDbXrecord
280
     1
270
     1
271
     1
  0
XRECORD
  5
4162
102
{ACAD_REACTORS
330
2F38
102
}
330
2F38
100
AcDbXrecord
280
     1
102
MATERIAL
148
0.0
149
0.0
149
0.0
 93
        0
 94
      127
282
     0
 72
     0
 77
     0
171
     0
175
     0
179
     0
273
     0
  0
XRECORD
  5
2F3A
102
{ACAD_REACTORS
330
2F38
102
}
330
2F38
100
AcDbXrecord
280
     1
270
     1
271
     1
  0
XRECORD
  5
2F39
102
{ACAD_REACTORS
330
2F38
102
}
330
2F38
100
AcDbXrecord
280
     1
270
     1
271
     1
  0
XRECORD
  5
2F3D
102
{ACAD_REACTORS
330
2F38
102
}
330
2F38
100
AcDbXrecord
280
     1
270
     1
271
     1
  0
XRECORD
  5
2F3C
102
{ACAD_REACTORS
330
2F38
102
}
330
2F38
100
AcDbXrecord
280
     1
270
     1
271
     1
  0
XRECORD
  5
2F3E
102
{ACAD_REACTORS
330
2F38
102
}
330
2F38
100
AcDbXrecord
280
     1
270
     1
271
     1
  0
XRECORD
  5
2F3B
102
{ACAD_REACTORS
330
2F38
102
}
330
2F38
100
AcDbXrecord
280
     1
270
     1
271
     1
  0
XRECORD
  5
4164
102
{ACAD_REACTORS
330
2F48
102
}
330
2F48
100
AcDbXrecord
280
     1
102
MATERIAL
148
0.0
149
0.0
149
0.0
 93
        0
 94
      127
282
     0
 72
     0
 77
     0
171
     0
175
     0
179
     0
273
     0
  0
XRECORD
  5
2F4A
102
{ACAD_REACTORS
330
2F48
102
}
330
2F48
100
AcDbXrecord
280
     1
270
     1
271
     1
  0
XRECORD
  5
2F49
102
{ACAD_REACTORS
330
2F48
102
}
330
2F48
100
AcDbXrecord
280
     1
270
     1
271
     1
  0
XRECORD
  5
2F4D
102
{ACAD_REACTORS
330
2F48
102
}
330
2F48
100
AcDbXrecord
280
     1
270
     1
271
     1
  0
XRECORD
  5
2F4C
102
{ACAD_REACTORS
330
2F48
102
}
330
2F48
100
AcDbXrecord
280
     1
270
     1
271
     1
  0
XRECORD
  5
2F4E
102
{ACAD_REACTORS
330
2F48
102
}
330
2F48
100
AcDbXrecord
280
     1
270
     1
271
     1
  0
XRECORD
  5
2F4B
102
{ACAD_REACTORS
330
2F48
102
}
330
2F48
100
AcDbXrecord
280
     1
270
     1
271
     1
  0
CELLSTYLEMAP
  5
4153
102
{ACAD_REACTORS
330
2FC0
102
}
330
2FC0
100
AcDbCellStyleMap
 90
        3
300
CELLSTYLE
  1
TABLEFORMAT_BEGIN
 90
        5
170
     1
 91
        0
 92
    32768
 62
   257
 93
        1
300
CONTENTFORMAT
  1
CONTENTFORMAT_BEGIN
 90
        0
 91
        0
 92
      512
 93
        0
300

 40
0.0
140
1.0
 94
        5
 62
     0
340
555
144
0.25
309
CONTENTFORMAT_END
171
     0
 94
        0
309
TABLEFORMAT_END
  1
CELLSTYLE_BEGIN
 90
        1
 91
        1
300
_TITLE
309
CELLSTYLE_END
300
CELLSTYLE
  1
TABLEFORMAT_BEGIN
 90
        5
170
     1
 91
        0
 92
        0
 62
   257
 93
        1
300
CONTENTFORMAT
  1
CONTENTFORMAT_BEGIN
 90
        0
 91
        0
 92
      512
 93
        0
300

 40
0.0
140
1.0
 94
        5
 62
     0
340
555
144
0.18
309
CONTENTFORMAT_END
171
     0
 94
        0
309
TABLEFORMAT_END
  1
CELLSTYLE_BEGIN
 90
        2
 91
        1
300
_HEADER
309
CELLSTYLE_END
300
CELLSTYLE
  1
TABLEFORMAT_BEGIN
 90
        5
170
     1
 91
        0
 92
        0
 62
   257
 93
        1
300
CONTENTFORMAT
  1
CONTENTFORMAT_BEGIN
 90
        0
 91
        0
 92
      512
 93
        0
300

 40
0.0
140
1.0
 94
        2
 62
     0
340
555
144
0.18
309
CONTENTFORMAT_END
171
     0
 94
        0
309
TABLEFORMAT_END
  1
CELLSTYLE_BEGIN
 90
        3
 91
        2
300
_DATA
309
CELLSTYLE_END
  0
XRECORD
  5
4185
102
{ACAD_REACTORS
330
2FC0
102
}
330
2FC0
100
AcDbXrecord
280
     1
102
ACAD_ROUNDTRIP_PRE2007_TABLESTYLE
 90
      512
 91
        0
  1

 92
      512
 93
        0
  2

 94
      512
 95
        0
  3

  0
XRECORD
  5
4170
102
{ACAD_REACTORS
330
416F
102
}
330
416F
100
AcDbXrecord
280
     1
102
RTVSPost2010Prop28
280
     1
102
RTVSPost2010PropOp28
 70
     1
102
RTVSPost2010Prop29
280
     1
102
RTVSPost2010PropOp29
 70
     1
102
RTVSPost2010Prop30
280
     0
102
RTVSPost2010PropOp30
 70
     1
102
RTVSPost2010Prop31
280
     0
102
RTVSPost2010PropOp31
 70
     1
102
RTVSPost2010Prop32
280
     0
102
RTVSPost2010PropOp32
 70
     1
102
RTVSPost2010Prop33
280
     0
102
RTVSPost2010PropOp33
 70
     1
102
RTVSPost2010Prop34
280
     0
102
RTVSPost2010PropOp34
 70
     1
102
RTVSPost2010Prop35
280
     0
102
RTVSPost2010PropOp35
 70
     1
102
RTVSPost2010Prop36
280
     0
102
RTVSPost2010PropOp36
 70
     1
102
RTVSPost2010Prop37
 90
       50
102
RTVSPost2010PropOp37
 70
     1
102
RTVSPost2010Prop38
140
0.0
102
RTVSPost2010PropOp38
 70
     1
102
RTVSPost2010Prop39
140
1.0
102
RTVSPost2010PropOp39
 70
     1
102
RTVSPost2010Prop40
 90
        0
102
RTVSPost2010PropOp40
 70
     1
102
RTVSPost2010Prop41ColorIndex
 90
       18
102
RTVSPost2010Prop41ColorRGB
 90
        0
102
RTVSPost2010PropOp41
 70
     1
102
RTVSPost2010Prop42
 90
       50
102
RTVSPost2010PropOp42
 70
     1
102
RTVSPost2010Prop43
 90
        3
102
RTVSPost2010PropOp43
 70
     1
102
RTVSPost2010Prop44ColorIndex
 90
        5
102
RTVSPost2010Prop44ColorRGB
 90
      255
102
RTVSPost2010PropOp44
 70
     1
102
RTVSPost2010Prop45
280
     0
102
RTVSPost2010PropOp45
 70
     1
102
RTVSPost2010Prop46
 90
       50
102
RTVSPost2010PropOp46
 70
     1
102
RTVSPost2010Prop47
 90
       50
102
RTVSPost2010PropOp47
 70
     1
102
RTVSPost2010Prop48
 90
       50
102
RTVSPost2010PropOp48
 70
     1
102
RTVSPost2010Prop49
280
     0
102
RTVSPost2010PropOp49
 70
     1
102
RTVSPost2010Prop50
 90
       50
102
RTVSPost2010PropOp50
 70
     1
102
RTVSPost2010Prop51ColorIndex
 90
      256
102
RTVSPost2010Prop51ColorRGB
 90
-16777216
102
RTVSPost2010PropOp51
 70
     0
102
RTVSPost2010Prop52
140
1.0
102
RTVSPost2010PropOp52
 70
     0
102
RTVSPost2010Prop53
 90
        2
102
RTVSPost2010PropOp53
 70
     1
102
RTVSPost2010Prop54
  1
strokes_ogs.tif
102
RTVSPost2010PropOp54
 70
     1
102
RTVSPost2010Prop55
280
     0
102
RTVSPost2010PropOp55
 70
     1
102
RTVSPost2010Prop56
140
1.0
102
RTVSPost2010PropOp56
 70
     1
102
RTVSPost2010Prop57
140
1.0
102
RTVSPost2010PropOp57
 70
     1
102
RTVSPropertyOp0
 70
     1
102
RTVSPropertyOp1
 70
     1
102
RTVSPropertyOp2
 70
     1
102
RTVSPropertyOp3
 70
     1
102
RTVSPropertyOp4
 70
     1
102
RTVSPropertyOp5
 70
     1
102
RTVSPropertyOp6
 70
     1
102
RTVSPropertyOp7
 70
     1
102
RTVSPropertyOp8
 70
     1
102
RTVSPropertyOp9
 70
     1
102
RTVSPropertyOp10
 70
     1
102
RTVSPropertyOp11
 70
     1
102
RTVSPropertyOp12
 70
     1
102
RTVSPropertyOp13
 70
     1
102
RTVSPropertyOp14
 70
     1
102
RTVSPropertyOp15
 70
     1
102
RTVSPropertyOp16
 70
     1
102
RTVSPropertyOp17
 70
     1
102
RTVSPropertyOp18
 70
     1
102
RTVSPropertyOp19
 70
     1
102
RTVSPropertyOp20
 70
     1
102
RTVSPropertyOp21
 70
     1
102
RTVSPropertyOp22
 70
     1
102
RTVSPropertyOp23
 70
     1
102
RTVSPropertyOp24
 70
     1
102
RTVSPropertyOp25
 70
     1
102
RTVSPropertyOp26
 70
     1
102
RTVSPropertyOp27
 70
     1
102
RTVSPropertyOp28
 70
     1
102
RTVSPropertyOp29
 70
     1
102
RTVSPropertyOp30
 70
     1
102
RTVSPropertyOp31
 70
     1
102
RTVSPropertyOp32
 70
     1
102
RTVSPropertyOp33
 70
     1
102
RTVSPropertyOp34
 70
     1
102
RTVSPropertyOp35
 70
     1
102
RTVSPropertyOp36
 70
     1
102
RTVSPropertyOp37
 70
     1
102
RTVSPropertyOp38
 70
     1
102
RTVSPropertyOp39
 70
     1
102
RTVSPropertyOp40
 70
     1
102
RTVSPropertyOp41
 70
     1
102
RTVSPropertyOp42
 70
     1
102
RTVSPropertyOp43
 70
     1
102
RTVSPropertyOp44
 70
     1
102
RTVSPropertyOp45
 70
     1
102
RTVSPropertyOp46
 70
     1
102
RTVSPropertyOp47
 70
     1
102
RTVSPropertyOp48
 70
     1
102
RTVSPropertyOp49
 70
     1
102
RTVSPropertyOp50
 70
     1
102
RTVSPropertyOp51
 70
     0
102
RTVSPropertyOp52
 70
     0
102
RTVSPropertyOp53
 70
     1
102
RTVSPropertyOp54
 70
     1
102
RTVSPropertyOp55
 70
     1
102
RTVSPropertyOp56
 70
     1
102
RTVSPropertyOp57
 70
     1
102
RTVSPropertyOp58
 70
     1
102
RTVSPropertyOp59
 70
     1
102
RTVSPropertyOp60
 70
     1
102
RTVSPropertyOp61
 70
     1
102
RTVSPropertyOp62
 70
     1
  0
XRECORD
  5
4174
102
{ACAD_REACTORS
330
4173
102
}
330
4173
100
AcDbXrecord
280
     1
102
RTVSPost2010Prop28
280
     0
102
RTVSPost2010PropOp28
 70
     1
102
RTVSPost2010Prop29
280
     1
102
RTVSPost2010PropOp29
 70
     1
102
RTVSPost2010Prop30
280
     1
102
RTVSPost2010PropOp30
 70
     1
102
RTVSPost2010Prop31
280
     0
102
RTVSPost2010PropOp31
 70
     1
102
RTVSPost2010Prop32
280
     0
102
RTVSPost2010PropOp32
 70
     1
102
RTVSPost2010Prop33
280
     0
102
RTVSPost2010PropOp33
 70
     1
102
RTVSPost2010Prop34
280
     0
102
RTVSPost2010PropOp34
 70
     1
102
RTVSPost2010Prop35
280
     0
102
RTVSPost2010PropOp35
 70
     1
102
RTVSPost2010Prop36
280
     0
102
RTVSPost2010PropOp36
 70
     1
102
RTVSPost2010Prop37
 90
       50
102
RTVSPost2010PropOp37
 70
     1
102
RTVSPost2010Prop38
140
0.0
102
RTVSPost2010PropOp38
 70
     1
102
RTVSPost2010Prop39
140
1.0
102
RTVSPost2010PropOp39
 70
     1
102
RTVSPost2010Prop40
 90
        0
102
RTVSPost2010PropOp40
 70
     1
102
RTVSPost2010Prop41ColorIndex
 90
       18
102
RTVSPost2010Prop41ColorRGB
 90
        0
102
RTVSPost2010PropOp41
 70
     1
102
RTVSPost2010Prop42
 90
       50
102
RTVSPost2010PropOp42
 70
     1
102
RTVSPost2010Prop43
 90
        3
102
RTVSPost2010PropOp43
 70
     1
102
RTVSPost2010Prop44ColorIndex
 90
        5
102
RTVSPost2010Prop44ColorRGB
 90
      255
102
RTVSPost2010PropOp44
 70
     1
102
RTVSPost2010Prop45
280
     0
102
RTVSPost2010PropOp45
 70
     1
102
RTVSPost2010Prop46
 90
       50
102
RTVSPost2010PropOp46
 70
     1
102
RTVSPost2010Prop47
 90
       50
102
RTVSPost2010PropOp47
 70
     1
102
RTVSPost2010Prop48
 90
       50
102
RTVSPost2010PropOp48
 70
     1
102
RTVSPost2010Prop49
280
     0
102
RTVSPost2010PropOp49
 70
     1
102
RTVSPost2010Prop50
 90
       50
102
RTVSPost2010PropOp50
 70
     1
102
RTVSPost2010Prop51ColorIndex
 90
      256
102
RTVSPost2010Prop51ColorRGB
 90
-16777216
102
RTVSPost2010PropOp51
 70
     0
102
RTVSPost2010Prop52
140
1.0
102
RTVSPost2010PropOp52
 70
     0
102
RTVSPost2010Prop53
 90
        2
102
RTVSPost2010PropOp53
 70
     1
102
RTVSPost2010Prop54
  1
strokes_ogs.tif
102
RTVSPost2010PropOp54
 70
     1
102
RTVSPost2010Prop55
280
     0
102
RTVSPost2010PropOp55
 70
     1
102
RTVSPost2010Prop56
140
1.0
102
RTVSPost2010PropOp56
 70
     1
102
RTVSPost2010Prop57
140
1.0
102
RTVSPost2010PropOp57
 70
     1
102
RTVSPropertyOp0
 70
     1
102
RTVSPropertyOp1
 70
     1
102
RTVSPropertyOp2
 70
     1
102
RTVSPropertyOp3
 70
     1
102
RTVSPropertyOp4
 70
     1
102
RTVSPropertyOp5
 70
     1
102
RTVSPropertyOp6
 70
     1
102
RTVSPropertyOp7
 70
     1
102
RTVSPropertyOp8
 70
     1
102
RTVSPropertyOp9
 70
     1
102
RTVSPropertyOp10
 70
     1
102
RTVSPropertyOp11
 70
     1
102
RTVSPropertyOp12
 70
     1
102
RTVSPropertyOp13
 70
     1
102
RTVSPropertyOp14
 70
     1
102
RTVSPropertyOp15
 70
     1
102
RTVSPropertyOp16
 70
     1
102
RTVSPropertyOp17
 70
     1
102
RTVSPropertyOp18
 70
     1
102
RTVSPropertyOp19
 70
     1
102
RTVSPropertyOp20
 70
     1
102
RTVSPropertyOp21
 70
     1
102
RTVSPropertyOp22
 70
     1
102
RTVSPropertyOp23
 70
     1
102
RTVSPropertyOp24
 70
     1
102
RTVSPropertyOp25
 70
     1
102
RTVSPropertyOp26
 70
     1
102
RTVSPropertyOp27
 70
     1
102
RTVSPropertyOp28
 70
     1
102
RTVSPropertyOp29
 70
     1
102
RTVSPropertyOp30
 70
     1
102
RTVSPropertyOp31
 70
     1
102
RTVSPropertyOp32
 70
     1
102
RTVSPropertyOp33
 70
     1
102
RTVSPropertyOp34
 70
     1
102
RTVSPropertyOp35
 70
     1
102
RTVSPropertyOp36
 70
     1
102
RTVSPropertyOp37
 70
     1
102
RTVSPropertyOp38
 70
     1
102
RTVSPropertyOp39
 70
     1
102
RTVSPropertyOp40
 70
     1
102
RTVSPropertyOp41
 70
     1
102
RTVSPropertyOp42
 70
     1
102
RTVSPropertyOp43
 70
     1
102
RTVSPropertyOp44
 70
     1
102
RTVSPropertyOp45
 70
     1
102
RTVSPropertyOp46
 70
     1
102
RTVSPropertyOp47
 70
     1
102
RTVSPropertyOp48
 70
     1
102
RTVSPropertyOp49
 70
     1
102
RTVSPropertyOp50
 70
     1
102
RTVSPropertyOp51
 70
     0
102
RTVSPropertyOp52
 70
     0
102
RTVSPropertyOp53
 70
     1
102
RTVSPropertyOp54
 70
     1
102
RTVSPropertyOp55
 70
     1
102
RTVSPropertyOp56
 70
     1
102
RTVSPropertyOp57
 70
     1
102
RTVSPropertyOp58
 70
     1
102
RTVSPropertyOp59
 70
     1
102
RTVSPropertyOp60
 70
     1
102
RTVSPropertyOp61
 70
     1
102
RTVSPropertyOp62
 70
     1
  0
XRECORD
  5
4172
102
{ACAD_REACTORS
330
4171
102
}
330
4171
100
AcDbXrecord
280
     1
102
RTVSPost2010Prop28
280
     0
102
RTVSPost2010PropOp28
 70
     1
102
RTVSPost2010Prop29
280
     1
102
RTVSPost2010PropOp29
 70
     1
102
RTVSPost2010Prop30
280
     1
102
RTVSPost2010PropOp30
 70
     1
102
RTVSPost2010Prop31
280
     0
102
RTVSPost2010PropOp31
 70
     1
102
RTVSPost2010Prop32
280
     0
102
RTVSPost2010PropOp32
 70
     1
102
RTVSPost2010Prop33
280
     0
102
RTVSPost2010PropOp33
 70
     1
102
RTVSPost2010Prop34
280
     0
102
RTVSPost2010PropOp34
 70
     1
102
RTVSPost2010Prop35
280
     0
102
RTVSPost2010PropOp35
 70
     1
102
RTVSPost2010Prop36
280
     0
102
RTVSPost2010PropOp36
 70
     1
102
RTVSPost2010Prop37
 90
       50
102
RTVSPost2010PropOp37
 70
     1
102
RTVSPost2010Prop38
140
0.0
102
RTVSPost2010PropOp38
 70
     1
102
RTVSPost2010Prop39
140
1.0
102
RTVSPost2010PropOp39
 70
     1
102
RTVSPost2010Prop40
 90
        0
102
RTVSPost2010PropOp40
 70
     1
102
RTVSPost2010Prop41ColorIndex
 90
       18
102
RTVSPost2010Prop41ColorRGB
 90
        0
102
RTVSPost2010PropOp41
 70
     1
102
RTVSPost2010Prop42
 90
       50
102
RTVSPost2010PropOp42
 70
     1
102
RTVSPost2010Prop43
 90
        3
102
RTVSPost2010PropOp43
 70
     1
102
RTVSPost2010Prop44ColorIndex
 90
        5
102
RTVSPost2010Prop44ColorRGB
 90
      255
102
RTVSPost2010PropOp44
 70
     1
102
RTVSPost2010Prop45
280
     0
102
RTVSPost2010PropOp45
 70
     1
102
RTVSPost2010Prop46
 90
       50
102
RTVSPost2010PropOp46
 70
     1
102
RTVSPost2010Prop47
 90
       50
102
RTVSPost2010PropOp47
 70
     1
102
RTVSPost2010Prop48
 90
       50
102
RTVSPost2010PropOp48
 70
     1
102
RTVSPost2010Prop49
280
     0
102
RTVSPost2010PropOp49
 70
     1
102
RTVSPost2010Prop50
 90
       50
102
RTVSPost2010PropOp50
 70
     1
102
RTVSPost2010Prop51ColorIndex
 90
      256
102
RTVSPost2010Prop51ColorRGB
 90
-16777216
102
RTVSPost2010PropOp51
 70
     0
102
RTVSPost2010Prop52
140
1.0
102
RTVSPost2010PropOp52
 70
     0
102
RTVSPost2010Prop53
 90
        2
102
RTVSPost2010PropOp53
 70
     1
102
RTVSPost2010Prop54
  1
strokes_ogs.tif
102
RTVSPost2010PropOp54
 70
     1
102
RTVSPost2010Prop55
280
     0
102
RTVSPost2010PropOp55
 70
     1
102
RTVSPost2010Prop56
140
1.0
102
RTVSPost2010PropOp56
 70
     1
102
RTVSPost2010Prop57
140
1.0
102
RTVSPost2010PropOp57
 70
     1
102
RTVSPropertyOp0
 70
     1
102
RTVSPropertyOp1
 70
     1
102
RTVSPropertyOp2
 70
     1
102
RTVSPropertyOp3
 70
     1
102
RTVSPropertyOp4
 70
     1
102
RTVSPropertyOp5
 70
     1
102
RTVSPropertyOp6
 70
     1
102
RTVSPropertyOp7
 70
     1
102
RTVSPropertyOp8
 70
     1
102
RTVSPropertyOp9
 70
     1
102
RTVSPropertyOp10
 70
     1
102
RTVSPropertyOp11
 70
     1
102
RTVSPropertyOp12
 70
     1
102
RTVSPropertyOp13
 70
     1
102
RTVSPropertyOp14
 70
     1
102
RTVSPropertyOp15
 70
     1
102
RTVSPropertyOp16
 70
     1
102
RTVSPropertyOp17
 70
     1
102
RTVSPropertyOp18
 70
     1
102
RTVSPropertyOp19
 70
     1
102
RTVSPropertyOp20
 70
     1
102
RTVSPropertyOp21
 70
     1
102
RTVSPropertyOp22
 70
     1
102
RTVSPropertyOp23
 70
     1
102
RTVSPropertyOp24
 70
     1
102
RTVSPropertyOp25
 70
     1
102
RTVSPropertyOp26
 70
     1
102
RTVSPropertyOp27
 70
     1
102
RTVSPropertyOp28
 70
     1
102
RTVSPropertyOp29
 70
     1
102
RTVSPropertyOp30
 70
     1
102
RTVSPropertyOp31
 70
     1
102
RTVSPropertyOp32
 70
     1
102
RTVSPropertyOp33
 70
     1
102
RTVSPropertyOp34
 70
     1
102
RTVSPropertyOp35
 70
     1
102
RTVSPropertyOp36
 70
     1
102
RTVSPropertyOp37
 70
     1
102
RTVSPropertyOp38
 70
     1
102
RTVSPropertyOp39
 70
     1
102
RTVSPropertyOp40
 70
     1
102
RTVSPropertyOp41
 70
     1
102
RTVSPropertyOp42
 70
     1
102
RTVSPropertyOp43
 70
     1
102
RTVSPropertyOp44
 70
     1
102
RTVSPropertyOp45
 70
     1
102
RTVSPropertyOp46
 70
     1
102
RTVSPropertyOp47
 70
     1
102
RTVSPropertyOp48
 70
     1
102
RTVSPropertyOp49
 70
     1
102
RTVSPropertyOp50
 70
     1
102
RTVSPropertyOp51
 70
     0
102
RTVSPropertyOp52
 70
     0
102
RTVSPropertyOp53
 70
     1
102
RTVSPropertyOp54
 70
     1
102
RTVSPropertyOp55
 70
     1
102
RTVSPropertyOp56
 70
     1
102
RTVSPropertyOp57
 70
     1
102
RTVSPropertyOp58
 70
     1
102
RTVSPropertyOp59
 70
     1
102
RTVSPropertyOp60
 70
     1
102
RTVSPropertyOp61
 70
     1
102
RTVSPropertyOp62
 70
     1
  0
XRECORD
  5
416E
102
{ACAD_REACTORS
330
416D
102
}
330
416D
100
AcDbXrecord
280
     1
102
RTVSPost2010Prop28
280
     0
102
RTVSPost2010PropOp28
 70
     1
102
RTVSPost2010Prop29
280
     1
102
RTVSPost2010PropOp29
 70
     1
102
RTVSPost2010Prop30
280
     1
102
RTVSPost2010PropOp30
 70
     1
102
RTVSPost2010Prop31
280
     0
102
RTVSPost2010PropOp31
 70
     1
102
RTVSPost2010Prop32
280
     0
102
RTVSPost2010PropOp32
 70
     1
102
RTVSPost2010Prop33
280
     0
102
RTVSPost2010PropOp33
 70
     1
102
RTVSPost2010Prop34
280
     0
102
RTVSPost2010PropOp34
 70
     1
102
RTVSPost2010Prop35
280
     0
102
RTVSPost2010PropOp35
 70
     1
102
RTVSPost2010Prop36
280
     0
102
RTVSPost2010PropOp36
 70
     1
102
RTVSPost2010Prop37
 90
       50
102
RTVSPost2010PropOp37
 70
     1
102
RTVSPost2010Prop38
140
0.0
102
RTVSPost2010PropOp38
 70
     1
102
RTVSPost2010Prop39
140
1.0
102
RTVSPost2010PropOp39
 70
     1
102
RTVSPost2010Prop40
 90
        0
102
RTVSPost2010PropOp40
 70
     1
102
RTVSPost2010Prop41ColorIndex
 90
       18
102
RTVSPost2010Prop41ColorRGB
 90
        0
102
RTVSPost2010PropOp41
 70
     1
102
RTVSPost2010Prop42
 90
       50
102
RTVSPost2010PropOp42
 70
     1
102
RTVSPost2010Prop43
 90
        3
102
RTVSPost2010PropOp43
 70
     1
102
RTVSPost2010Prop44ColorIndex
 90
        5
102
RTVSPost2010Prop44ColorRGB
 90
      255
102
RTVSPost2010PropOp44
 70
     1
102
RTVSPost2010Prop45
280
     0
102
RTVSPost2010PropOp45
 70
     1
102
RTVSPost2010Prop46
 90
       50
102
RTVSPost2010PropOp46
 70
     1
102
RTVSPost2010Prop47
 90
       50
102
RTVSPost2010PropOp47
 70
     1
102
RTVSPost2010Prop48
 90
       50
102
RTVSPost2010PropOp48
 70
     1
102
RTVSPost2010Prop49
280
     0
102
RTVSPost2010PropOp49
 70
     1
102
RTVSPost2010Prop50
 90
       50
102
RTVSPost2010PropOp50
 70
     1
102
RTVSPost2010Prop51ColorIndex
 90
      256
102
RTVSPost2010Prop51ColorRGB
 90
-16777216
102
RTVSPost2010PropOp51
 70
     0
102
RTVSPost2010Prop52
140
1.0
102
RTVSPost2010PropOp52
 70
     0
102
RTVSPost2010Prop53
 90
        2
102
RTVSPost2010PropOp53
 70
     1
102
RTVSPost2010Prop54
  1
strokes_ogs.tif
102
RTVSPost2010PropOp54
 70
     1
102
RTVSPost2010Prop55
280
     0
102
RTVSPost2010PropOp55
 70
     1
102
RTVSPost2010Prop56
140
1.0
102
RTVSPost2010PropOp56
 70
     1
102
RTVSPost2010Prop57
140
1.0
102
RTVSPost2010PropOp57
 70
     1
102
RTVSPropertyOp0
 70
     1
102
RTVSPropertyOp1
 70
     1
102
RTVSPropertyOp2
 70
     1
102
RTVSPropertyOp3
 70
     1
102
RTVSPropertyOp4
 70
     1
102
RTVSPropertyOp5
 70
     1
102
RTVSPropertyOp6
 70
     1
102
RTVSPropertyOp7
 70
     1
102
RTVSPropertyOp8
 70
     1
102
RTVSPropertyOp9
 70
     1
102
RTVSPropertyOp10
 70
     1
102
RTVSPropertyOp11
 70
     1
102
RTVSPropertyOp12
 70
     1
102
RTVSPropertyOp13
 70
     1
102
RTVSPropertyOp14
 70
     1
102
RTVSPropertyOp15
 70
     1
102
RTVSPropertyOp16
 70
     1
102
RTVSPropertyOp17
 70
     1
102
RTVSPropertyOp18
 70
     1
102
RTVSPropertyOp19
 70
     1
102
RTVSPropertyOp20
 70
     1
102
RTVSPropertyOp21
 70
     1
102
RTVSPropertyOp22
 70
     1
102
RTVSPropertyOp23
 70
     1
102
RTVSPropertyOp24
 70
     1
102
RTVSPropertyOp25
 70
     1
102
RTVSPropertyOp26
 70
     1
102
RTVSPropertyOp27
 70
     1
102
RTVSPropertyOp28
 70
     1
102
RTVSPropertyOp29
 70
     1
102
RTVSPropertyOp30
 70
     1
102
RTVSPropertyOp31
 70
     1
102
RTVSPropertyOp32
 70
     1
102
RTVSPropertyOp33
 70
     1
102
RTVSPropertyOp34
 70
     1
102
RTVSPropertyOp35
 70
     1
102
RTVSPropertyOp36
 70
     1
102
RTVSPropertyOp37
 70
     1
102
RTVSPropertyOp38
 70
     1
102
RTVSPropertyOp39
 70
     1
102
RTVSPropertyOp40
 70
     1
102
RTVSPropertyOp41
 70
     1
102
RTVSPropertyOp42
 70
     1
102
RTVSPropertyOp43
 70
     1
102
RTVSPropertyOp44
 70
     1
102
RTVSPropertyOp45
 70
     1
102
RTVSPropertyOp46
 70
     1
102
RTVSPropertyOp47
 70
     1
102
RTVSPropertyOp48
 70
     1
102
RTVSPropertyOp49
 70
     1
102
RTVSPropertyOp50
 70
     1
102
RTVSPropertyOp51
 70
     0
102
RTVSPropertyOp52
 70
     0
102
RTVSPropertyOp53
 70
     1
102
RTVSPropertyOp54
 70
     1
102
RTVSPropertyOp55
 70
     1
102
RTVSPropertyOp56
 70
     1
102
RTVSPropertyOp57
 70
     1
102
RTVSPropertyOp58
 70
     1
102
RTVSPropertyOp59
 70
     1
102
RTVSPropertyOp60
 70
     1
102
RTVSPropertyOp61
 70
     1
102
RTVSPropertyOp62
 70
     1
  0
XRECORD
  5
417C
102
{ACAD_REACTORS
330
417B
102
}
330
417B
100
AcDbXrecord
280
     1
102
RTVSPost2010Prop28
280
     0
102
RTVSPost2010PropOp28
 70
     1
102
RTVSPost2010Prop29
280
     1
102
RTVSPost2010PropOp29
 70
     1
102
RTVSPost2010Prop30
280
     1
102
RTVSPost2010PropOp30
 70
     1
102
RTVSPost2010Prop31
280
     0
102
RTVSPost2010PropOp31
 70
     1
102
RTVSPost2010Prop32
280
     0
102
RTVSPost2010PropOp32
 70
     1
102
RTVSPost2010Prop33
280
     0
102
RTVSPost2010PropOp33
 70
     1
102
RTVSPost2010Prop34
280
     0
102
RTVSPost2010PropOp34
 70
     1
102
RTVSPost2010Prop35
280
     0
102
RTVSPost2010PropOp35
 70
     1
102
RTVSPost2010Prop36
280
     0
102
RTVSPost2010PropOp36
 70
     1
102
RTVSPost2010Prop37
 90
       50
102
RTVSPost2010PropOp37
 70
     1
102
RTVSPost2010Prop38
140
0.0
102
RTVSPost2010PropOp38
 70
     1
102
RTVSPost2010Prop39
140
1.0
102
RTVSPost2010PropOp39
 70
     1
102
RTVSPost2010Prop40
 90
        0
102
RTVSPost2010PropOp40
 70
     1
102
RTVSPost2010Prop41ColorIndex
 90
       18
102
RTVSPost2010Prop41ColorRGB
 90
        0
102
RTVSPost2010PropOp41
 70
     1
102
RTVSPost2010Prop42
 90
       50
102
RTVSPost2010PropOp42
 70
     1
102
RTVSPost2010Prop43
 90
        3
102
RTVSPost2010PropOp43
 70
     1
102
RTVSPost2010Prop44ColorIndex
 90
        5
102
RTVSPost2010Prop44ColorRGB
 90
      255
102
RTVSPost2010PropOp44
 70
     1
102
RTVSPost2010Prop45
280
     0
102
RTVSPost2010PropOp45
 70
     1
102
RTVSPost2010Prop46
 90
       50
102
RTVSPost2010PropOp46
 70
     1
102
RTVSPost2010Prop47
 90
       50
102
RTVSPost2010PropOp47
 70
     1
102
RTVSPost2010Prop48
 90
       50
102
RTVSPost2010PropOp48
 70
     1
102
RTVSPost2010Prop49
280
     0
102
RTVSPost2010PropOp49
 70
     1
102
RTVSPost2010Prop50
 90
       50
102
RTVSPost2010PropOp50
 70
     1
102
RTVSPost2010Prop51ColorIndex
 90
      256
102
RTVSPost2010Prop51ColorRGB
 90
-16777216
102
RTVSPost2010PropOp51
 70
     0
102
RTVSPost2010Prop52
140
1.0
102
RTVSPost2010PropOp52
 70
     0
102
RTVSPost2010Prop53
 90
        2
102
RTVSPost2010PropOp53
 70
     1
102
RTVSPost2010Prop54
  1
strokes_ogs.tif
102
RTVSPost2010PropOp54
 70
     1
102
RTVSPost2010Prop55
280
     0
102
RTVSPost2010PropOp55
 70
     1
102
RTVSPost2010Prop56
140
1.0
102
RTVSPost2010PropOp56
 70
     1
102
RTVSPost2010Prop57
140
1.0
102
RTVSPost2010PropOp57
 70
     1
102
RTVSPropertyOp0
 70
     1
102
RTVSPropertyOp1
 70
     1
102
RTVSPropertyOp2
 70
     1
102
RTVSPropertyOp3
 70
     1
102
RTVSPropertyOp4
 70
     1
102
RTVSPropertyOp5
 70
     1
102
RTVSPropertyOp6
 70
     1
102
RTVSPropertyOp7
 70
     1
102
RTVSPropertyOp8
 70
     1
102
RTVSPropertyOp9
 70
     1
102
RTVSPropertyOp10
 70
     1
102
RTVSPropertyOp11
 70
     1
102
RTVSPropertyOp12
 70
     1
102
RTVSPropertyOp13
 70
     1
102
RTVSPropertyOp14
 70
     1
102
RTVSPropertyOp15
 70
     1
102
RTVSPropertyOp16
 70
     1
102
RTVSPropertyOp17
 70
     1
102
RTVSPropertyOp18
 70
     1
102
RTVSPropertyOp19
 70
     1
102
RTVSPropertyOp20
 70
     1
102
RTVSPropertyOp21
 70
     1
102
RTVSPropertyOp22
 70
     1
102
RTVSPropertyOp23
 70
     1
102
RTVSPropertyOp24
 70
     1
102
RTVSPropertyOp25
 70
     1
102
RTVSPropertyOp26
 70
     1
102
RTVSPropertyOp27
 70
     1
102
RTVSPropertyOp28
 70
     1
102
RTVSPropertyOp29
 70
     1
102
RTVSPropertyOp30
 70
     1
102
RTVSPropertyOp31
 70
     1
102
RTVSPropertyOp32
 70
     1
102
RTVSPropertyOp33
 70
     1
102
RTVSPropertyOp34
 70
     1
102
RTVSPropertyOp35
 70
     1
102
RTVSPropertyOp36
 70
     1
102
RTVSPropertyOp37
 70
     1
102
RTVSPropertyOp38
 70
     1
102
RTVSPropertyOp39
 70
     1
102
RTVSPropertyOp40
 70
     1
102
RTVSPropertyOp41
 70
     1
102
RTVSPropertyOp42
 70
     1
102
RTVSPropertyOp43
 70
     1
102
RTVSPropertyOp44
 70
     1
102
RTVSPropertyOp45
 70
     1
102
RTVSPropertyOp46
 70
     1
102
RTVSPropertyOp47
 70
     1
102
RTVSPropertyOp48
 70
     1
102
RTVSPropertyOp49
 70
     1
102
RTVSPropertyOp50
 70
     1
102
RTVSPropertyOp51
 70
     0
102
RTVSPropertyOp52
 70
     0
102
RTVSPropertyOp53
 70
     1
102
RTVSPropertyOp54
 70
     1
102
RTVSPropertyOp55
 70
     1
102
RTVSPropertyOp56
 70
     1
102
RTVSPropertyOp57
 70
     1
102
RTVSPropertyOp58
 70
     1
102
RTVSPropertyOp59
 70
     1
102
RTVSPropertyOp60
 70
     1
102
RTVSPropertyOp61
 70
     1
102
RTVSPropertyOp62
 70
     1
  0
XRECORD
  5
4184
102
{ACAD_REACTORS
330
4183
102
}
330
4183
100
AcDbXrecord
280
     1
102
RTVSPost2010Prop28
280
     0
102
RTVSPost2010PropOp28
 70
     1
102
RTVSPost2010Prop29
280
     1
102
RTVSPost2010PropOp29
 70
     1
102
RTVSPost2010Prop30
280
     1
102
RTVSPost2010PropOp30
 70
     1
102
RTVSPost2010Prop31
280
     0
102
RTVSPost2010PropOp31
 70
     1
102
RTVSPost2010Prop32
280
     0
102
RTVSPost2010PropOp32
 70
     1
102
RTVSPost2010Prop33
280
     0
102
RTVSPost2010PropOp33
 70
     1
102
RTVSPost2010Prop34
280
     0
102
RTVSPost2010PropOp34
 70
     1
102
RTVSPost2010Prop35
280
     0
102
RTVSPost2010PropOp35
 70
     1
102
RTVSPost2010Prop36
280
     0
102
RTVSPost2010PropOp36
 70
     1
102
RTVSPost2010Prop37
 90
       50
102
RTVSPost2010PropOp37
 70
     1
102
RTVSPost2010Prop38
140
0.0
102
RTVSPost2010PropOp38
 70
     1
102
RTVSPost2010Prop39
140
1.0
102
RTVSPost2010PropOp39
 70
     1
102
RTVSPost2010Prop40
 90
        0
102
RTVSPost2010PropOp40
 70
     1
102
RTVSPost2010Prop41ColorIndex
 90
       18
102
RTVSPost2010Prop41ColorRGB
 90
        0
102
RTVSPost2010PropOp41
 70
     1
102
RTVSPost2010Prop42
 90
       50
102
RTVSPost2010PropOp42
 70
     1
102
RTVSPost2010Prop43
 90
        3
102
RTVSPost2010PropOp43
 70
     1
102
RTVSPost2010Prop44ColorIndex
 90
        5
102
RTVSPost2010Prop44ColorRGB
 90
      255
102
RTVSPost2010PropOp44
 70
     1
102
RTVSPost2010Prop45
280
     0
102
RTVSPost2010PropOp45
 70
     1
102
RTVSPost2010Prop46
 90
       50
102
RTVSPost2010PropOp46
 70
     1
102
RTVSPost2010Prop47
 90
       50
102
RTVSPost2010PropOp47
 70
     1
102
RTVSPost2010Prop48
 90
       50
102
RTVSPost2010PropOp48
 70
     1
102
RTVSPost2010Prop49
280
     0
102
RTVSPost2010PropOp49
 70
     1
102
RTVSPost2010Prop50
 90
       50
102
RTVSPost2010PropOp50
 70
     1
102
RTVSPost2010Prop51ColorIndex
 90
      256
102
RTVSPost2010Prop51ColorRGB
 90
-16777216
102
RTVSPost2010PropOp51
 70
     0
102
RTVSPost2010Prop52
140
1.0
102
RTVSPost2010PropOp52
 70
     0
102
RTVSPost2010Prop53
 90
        2
102
RTVSPost2010PropOp53
 70
     1
102
RTVSPost2010Prop54
  1
strokes_ogs.tif
102
RTVSPost2010PropOp54
 70
     1
102
RTVSPost2010Prop55
280
     0
102
RTVSPost2010PropOp55
 70
     1
102
RTVSPost2010Prop56
140
1.0
102
RTVSPost2010PropOp56
 70
     1
102
RTVSPost2010Prop57
140
1.0
102
RTVSPost2010PropOp57
 70
     1
102
RTVSPropertyOp0
 70
     1
102
RTVSPropertyOp1
 70
     1
102
RTVSPropertyOp2
 70
     1
102
RTVSPropertyOp3
 70
     1
102
RTVSPropertyOp4
 70
     1
102
RTVSPropertyOp5
 70
     1
102
RTVSPropertyOp6
 70
     1
102
RTVSPropertyOp7
 70
     1
102
RTVSPropertyOp8
 70
     1
102
RTVSPropertyOp9
 70
     1
102
RTVSPropertyOp10
 70
     1
102
RTVSPropertyOp11
 70
     1
102
RTVSPropertyOp12
 70
     1
102
RTVSPropertyOp13
 70
     1
102
RTVSPropertyOp14
 70
     1
102
RTVSPropertyOp15
 70
     1
102
RTVSPropertyOp16
 70
     1
102
RTVSPropertyOp17
 70
     1
102
RTVSPropertyOp18
 70
     1
102
RTVSPropertyOp19
 70
     1
102
RTVSPropertyOp20
 70
     1
102
RTVSPropertyOp21
 70
     1
102
RTVSPropertyOp22
 70
     1
102
RTVSPropertyOp23
 70
     1
102
RTVSPropertyOp24
 70
     1
102
RTVSPropertyOp25
 70
     1
102
RTVSPropertyOp26
 70
     1
102
RTVSPropertyOp27
 70
     1
102
RTVSPropertyOp28
 70
     1
102
RTVSPropertyOp29
 70
     1
102
RTVSPropertyOp30
 70
     1
102
RTVSPropertyOp31
 70
     1
102
RTVSPropertyOp32
 70
     1
102
RTVSPropertyOp33
 70
     1
102
RTVSPropertyOp34
 70
     1
102
RTVSPropertyOp35
 70
     1
102
RTVSPropertyOp36
 70
     1
102
RTVSPropertyOp37
 70
     1
102
RTVSPropertyOp38
 70
     1
102
RTVSPropertyOp39
 70
     1
102
RTVSPropertyOp40
 70
     1
102
RTVSPropertyOp41
 70
     1
102
RTVSPropertyOp42
 70
     1
102
RTVSPropertyOp43
 70
     1
102
RTVSPropertyOp44
 70
     1
102
RTVSPropertyOp45
 70
     1
102
RTVSPropertyOp46
 70
     1
102
RTVSPropertyOp47
 70
     1
102
RTVSPropertyOp48
 70
     1
102
RTVSPropertyOp49
 70
     1
102
RTVSPropertyOp50
 70
     1
102
RTVSPropertyOp51
 70
     0
102
RTVSPropertyOp52
 70
     0
102
RTVSPropertyOp53
 70
     1
102
RTVSPropertyOp54
 70
     1
102
RTVSPropertyOp55
 70
     1
102
RTVSPropertyOp56
 70
     1
102
RTVSPropertyOp57
 70
     1
102
RTVSPropertyOp58
 70
     1
102
RTVSPropertyOp59
 70
     1
102
RTVSPropertyOp60
 70
     1
102
RTVSPropertyOp61
 70
     1
102
RTVSPropertyOp62
 70
     1
  0
XRECORD
  5
4176
102
{ACAD_REACTORS
330
4175
102
}
330
4175
100
AcDbXrecord
280
     1
102
RTVSPost2010Prop28
280
     0
102
RTVSPost2010PropOp28
 70
     1
102
RTVSPost2010Prop29
280
     1
102
RTVSPost2010PropOp29
 70
     1
102
RTVSPost2010Prop30
280
     1
102
RTVSPost2010PropOp30
 70
     1
102
RTVSPost2010Prop31
280
     0
102
RTVSPost2010PropOp31
 70
     1
102
RTVSPost2010Prop32
280
     0
102
RTVSPost2010PropOp32
 70
     1
102
RTVSPost2010Prop33
280
     0
102
RTVSPost2010PropOp33
 70
     1
102
RTVSPost2010Prop34
280
     0
102
RTVSPost2010PropOp34
 70
     1
102
RTVSPost2010Prop35
280
     0
102
RTVSPost2010PropOp35
 70
     1
102
RTVSPost2010Prop36
280
     0
102
RTVSPost2010PropOp36
 70
     1
102
RTVSPost2010Prop37
 90
       50
102
RTVSPost2010PropOp37
 70
     1
102
RTVSPost2010Prop38
140
0.0
102
RTVSPost2010PropOp38
 70
     1
102
RTVSPost2010Prop39
140
1.0
102
RTVSPost2010PropOp39
 70
     1
102
RTVSPost2010Prop40
 90
        0
102
RTVSPost2010PropOp40
 70
     1
102
RTVSPost2010Prop41ColorIndex
 90
       18
102
RTVSPost2010Prop41ColorRGB
 90
        0
102
RTVSPost2010PropOp41
 70
     1
102
RTVSPost2010Prop42
 90
       50
102
RTVSPost2010PropOp42
 70
     1
102
RTVSPost2010Prop43
 90
        3
102
RTVSPost2010PropOp43
 70
     1
102
RTVSPost2010Prop44ColorIndex
 90
        5
102
RTVSPost2010Prop44ColorRGB
 90
      255
102
RTVSPost2010PropOp44
 70
     1
102
RTVSPost2010Prop45
280
     0
102
RTVSPost2010PropOp45
 70
     1
102
RTVSPost2010Prop46
 90
       50
102
RTVSPost2010PropOp46
 70
     1
102
RTVSPost2010Prop47
 90
       50
102
RTVSPost2010PropOp47
 70
     1
102
RTVSPost2010Prop48
 90
       50
102
RTVSPost2010PropOp48
 70
     1
102
RTVSPost2010Prop49
280
     0
102
RTVSPost2010PropOp49
 70
     1
102
RTVSPost2010Prop50
 90
       50
102
RTVSPost2010PropOp50
 70
     1
102
RTVSPost2010Prop51ColorIndex
 90
      256
102
RTVSPost2010Prop51ColorRGB
 90
-16777216
102
RTVSPost2010PropOp51
 70
     0
102
RTVSPost2010Prop52
140
1.0
102
RTVSPost2010PropOp52
 70
     0
102
RTVSPost2010Prop53
 90
        2
102
RTVSPost2010PropOp53
 70
     1
102
RTVSPost2010Prop54
  1
strokes_ogs.tif
102
RTVSPost2010PropOp54
 70
     1
102
RTVSPost2010Prop55
280
     0
102
RTVSPost2010PropOp55
 70
     1
102
RTVSPost2010Prop56
140
1.0
102
RTVSPost2010PropOp56
 70
     1
102
RTVSPost2010Prop57
140
1.0
102
RTVSPost2010PropOp57
 70
     1
102
RTVSPropertyOp0
 70
     1
102
RTVSPropertyOp1
 70
     1
102
RTVSPropertyOp2
 70
     1
102
RTVSPropertyOp3
 70
     1
102
RTVSPropertyOp4
 70
     1
102
RTVSPropertyOp5
 70
     1
102
RTVSPropertyOp6
 70
     1
102
RTVSPropertyOp7
 70
     1
102
RTVSPropertyOp8
 70
     1
102
RTVSPropertyOp9
 70
     1
102
RTVSPropertyOp10
 70
     1
102
RTVSPropertyOp11
 70
     1
102
RTVSPropertyOp12
 70
     1
102
RTVSPropertyOp13
 70
     1
102
RTVSPropertyOp14
 70
     1
102
RTVSPropertyOp15
 70
     1
102
RTVSPropertyOp16
 70
     1
102
RTVSPropertyOp17
 70
     1
102
RTVSPropertyOp18
 70
     1
102
RTVSPropertyOp19
 70
     1
102
RTVSPropertyOp20
 70
     1
102
RTVSPropertyOp21
 70
     1
102
RTVSPropertyOp22
 70
     1
102
RTVSPropertyOp23
 70
     1
102
RTVSPropertyOp24
 70
     1
102
RTVSPropertyOp25
 70
     1
102
RTVSPropertyOp26
 70
     1
102
RTVSPropertyOp27
 70
     1
102
RTVSPropertyOp28
 70
     1
102
RTVSPropertyOp29
 70
     1
102
RTVSPropertyOp30
 70
     1
102
RTVSPropertyOp31
 70
     1
102
RTVSPropertyOp32
 70
     1
102
RTVSPropertyOp33
 70
     1
102
RTVSPropertyOp34
 70
     1
102
RTVSPropertyOp35
 70
     1
102
RTVSPropertyOp36
 70
     1
102
RTVSPropertyOp37
 70
     1
102
RTVSPropertyOp38
 70
     1
102
RTVSPropertyOp39
 70
     1
102
RTVSPropertyOp40
 70
     1
102
RTVSPropertyOp41
 70
     1
102
RTVSPropertyOp42
 70
     1
102
RTVSPropertyOp43
 70
     1
102
RTVSPropertyOp44
 70
     1
102
RTVSPropertyOp45
 70
     1
102
RTVSPropertyOp46
 70
     1
102
RTVSPropertyOp47
 70
     1
102
RTVSPropertyOp48
 70
     1
102
RTVSPropertyOp49
 70
     1
102
RTVSPropertyOp50
 70
     1
102
RTVSPropertyOp51
 70
     0
102
RTVSPropertyOp52
 70
     0
102
RTVSPropertyOp53
 70
     1
102
RTVSPropertyOp54
 70
     1
102
RTVSPropertyOp55
 70
     1
102
RTVSPropertyOp56
 70
     1
102
RTVSPropertyOp57
 70
     1
102
RTVSPropertyOp58
 70
     1
102
RTVSPropertyOp59
 70
     1
102
RTVSPropertyOp60
 70
     1
102
RTVSPropertyOp61
 70
     1
102
RTVSPropertyOp62
 70
     1
  0
XRECORD
  5
417A
102
{ACAD_REACTORS
330
4179
102
}
330
4179
100
AcDbXrecord
280
     1
102
RTVSPost2010Prop28
280
     0
102
RTVSPost2010PropOp28
 70
     1
102
RTVSPost2010Prop29
280
     1
102
RTVSPost2010PropOp29
 70
     1
102
RTVSPost2010Prop30
280
     1
102
RTVSPost2010PropOp30
 70
     1
102
RTVSPost2010Prop31
280
     0
102
RTVSPost2010PropOp31
 70
     1
102
RTVSPost2010Prop32
280
     0
102
RTVSPost2010PropOp32
 70
     1
102
RTVSPost2010Prop33
280
     0
102
RTVSPost2010PropOp33
 70
     1
102
RTVSPost2010Prop34
280
     0
102
RTVSPost2010PropOp34
 70
     1
102
RTVSPost2010Prop35
280
     0
102
RTVSPost2010PropOp35
 70
     1
102
RTVSPost2010Prop36
280
     0
102
RTVSPost2010PropOp36
 70
     1
102
RTVSPost2010Prop37
 90
       50
102
RTVSPost2010PropOp37
 70
     1
102
RTVSPost2010Prop38
140
0.0
102
RTVSPost2010PropOp38
 70
     1
102
RTVSPost2010Prop39
140
1.0
102
RTVSPost2010PropOp39
 70
     1
102
RTVSPost2010Prop40
 90
        0
102
RTVSPost2010PropOp40
 70
     1
102
RTVSPost2010Prop41ColorIndex
 90
       18
102
RTVSPost2010Prop41ColorRGB
 90
        0
102
RTVSPost2010PropOp41
 70
     1
102
RTVSPost2010Prop42
 90
       50
102
RTVSPost2010PropOp42
 70
     1
102
RTVSPost2010Prop43
 90
        3
102
RTVSPost2010PropOp43
 70
     1
102
RTVSPost2010Prop44ColorIndex
 90
        5
102
RTVSPost2010Prop44ColorRGB
 90
      255
102
RTVSPost2010PropOp44
 70
     1
102
RTVSPost2010Prop45
280
     0
102
RTVSPost2010PropOp45
 70
     1
102
RTVSPost2010Prop46
 90
       50
102
RTVSPost2010PropOp46
 70
     1
102
RTVSPost2010Prop47
 90
       50
102
RTVSPost2010PropOp47
 70
     1
102
RTVSPost2010Prop48
 90
       50
102
RTVSPost2010PropOp48
 70
     1
102
RTVSPost2010Prop49
280
     0
102
RTVSPost2010PropOp49
 70
     1
102
RTVSPost2010Prop50
 90
       50
102
RTVSPost2010PropOp50
 70
     1
102
RTVSPost2010Prop51ColorIndex
 90
      256
102
RTVSPost2010Prop51ColorRGB
 90
-16777216
102
RTVSPost2010PropOp51
 70
     0
102
RTVSPost2010Prop52
140
1.0
102
RTVSPost2010PropOp52
 70
     0
102
RTVSPost2010Prop53
 90
        2
102
RTVSPost2010PropOp53
 70
     1
102
RTVSPost2010Prop54
  1
strokes_ogs.tif
102
RTVSPost2010PropOp54
 70
     1
102
RTVSPost2010Prop55
280
     0
102
RTVSPost2010PropOp55
 70
     1
102
RTVSPost2010Prop56
140
1.0
102
RTVSPost2010PropOp56
 70
     1
102
RTVSPost2010Prop57
140
1.0
102
RTVSPost2010PropOp57
 70
     1
102
RTVSPropertyOp0
 70
     1
102
RTVSPropertyOp1
 70
     1
102
RTVSPropertyOp2
 70
     1
102
RTVSPropertyOp3
 70
     1
102
RTVSPropertyOp4
 70
     1
102
RTVSPropertyOp5
 70
     1
102
RTVSPropertyOp6
 70
     1
102
RTVSPropertyOp7
 70
     1
102
RTVSPropertyOp8
 70
     1
102
RTVSPropertyOp9
 70
     1
102
RTVSPropertyOp10
 70
     1
102
RTVSPropertyOp11
 70
     1
102
RTVSPropertyOp12
 70
     1
102
RTVSPropertyOp13
 70
     1
102
RTVSPropertyOp14
 70
     1
102
RTVSPropertyOp15
 70
     1
102
RTVSPropertyOp16
 70
     1
102
RTVSPropertyOp17
 70
     1
102
RTVSPropertyOp18
 70
     1
102
RTVSPropertyOp19
 70
     1
102
RTVSPropertyOp20
 70
     1
102
RTVSPropertyOp21
 70
     1
102
RTVSPropertyOp22
 70
     1
102
RTVSPropertyOp23
 70
     1
102
RTVSPropertyOp24
 70
     1
102
RTVSPropertyOp25
 70
     1
102
RTVSPropertyOp26
 70
     1
102
RTVSPropertyOp27
 70
     1
102
RTVSPropertyOp28
 70
     1
102
RTVSPropertyOp29
 70
     1
102
RTVSPropertyOp30
 70
     1
102
RTVSPropertyOp31
 70
     1
102
RTVSPropertyOp32
 70
     1
102
RTVSPropertyOp33
 70
     1
102
RTVSPropertyOp34
 70
     1
102
RTVSPropertyOp35
 70
     1
102
RTVSPropertyOp36
 70
     1
102
RTVSPropertyOp37
 70
     1
102
RTVSPropertyOp38
 70
     1
102
RTVSPropertyOp39
 70
     1
102
RTVSPropertyOp40
 70
     1
102
RTVSPropertyOp41
 70
     1
102
RTVSPropertyOp42
 70
     1
102
RTVSPropertyOp43
 70
     1
102
RTVSPropertyOp44
 70
     1
102
RTVSPropertyOp45
 70
     1
102
RTVSPropertyOp46
 70
     1
102
RTVSPropertyOp47
 70
     1
102
RTVSPropertyOp48
 70
     1
102
RTVSPropertyOp49
 70
     1
102
RTVSPropertyOp50
 70
     1
102
RTVSPropertyOp51
 70
     0
102
RTVSPropertyOp52
 70
     0
102
RTVSPropertyOp53
 70
     1
102
RTVSPropertyOp54
 70
     1
102
RTVSPropertyOp55
 70
     1
102
RTVSPropertyOp56
 70
     1
102
RTVSPropertyOp57
 70
     1
102
RTVSPropertyOp58
 70
     1
102
RTVSPropertyOp59
 70
     1
102
RTVSPropertyOp60
 70
     1
102
RTVSPropertyOp61
 70
     1
102
RTVSPropertyOp62
 70
     1
  0
XRECORD
  5
419A
102
{ACAD_REACTORS
330
4199
102
}
330
4199
100
AcDbXrecord
280
     1
102
RTVSPost2010Prop28
280
     0
102
RTVSPost2010PropOp28
 70
     0
102
RTVSPost2010Prop29
280
     1
102
RTVSPost2010PropOp29
 70
     0
102
RTVSPost2010Prop30
280
     1
102
RTVSPost2010PropOp30
 70
     0
102
RTVSPost2010Prop31
280
     0
102
RTVSPost2010PropOp31
 70
     0
102
RTVSPost2010Prop32
280
     0
102
RTVSPost2010PropOp32
 70
     0
102
RTVSPost2010Prop33
280
     0
102
RTVSPost2010PropOp33
 70
     0
102
RTVSPost2010Prop34
280
     0
102
RTVSPost2010PropOp34
 70
     0
102
RTVSPost2010Prop35
280
     0
102
RTVSPost2010PropOp35
 70
     0
102
RTVSPost2010Prop36
280
     0
102
RTVSPost2010PropOp36
 70
     0
102
RTVSPost2010Prop37
 90
       50
102
RTVSPost2010PropOp37
 70
     0
102
RTVSPost2010Prop38
140
0.0
102
RTVSPost2010PropOp38
 70
     0
102
RTVSPost2010Prop39
140
1.0
102
RTVSPost2010PropOp39
 70
     0
102
RTVSPost2010Prop40
 90
        0
102
RTVSPost2010PropOp40
 70
     0
102
RTVSPost2010Prop41ColorIndex
 90
       18
102
RTVSPost2010Prop41ColorRGB
 90
        0
102
RTVSPost2010PropOp41
 70
     0
102
RTVSPost2010Prop42
 90
       50
102
RTVSPost2010PropOp42
 70
     0
102
RTVSPost2010Prop43
 90
        3
102
RTVSPost2010PropOp43
 70
     0
102
RTVSPost2010Prop44ColorIndex
 90
        5
102
RTVSPost2010Prop44ColorRGB
 90
      255
102
RTVSPost2010PropOp44
 70
     0
102
RTVSPost2010Prop45
280
     0
102
RTVSPost2010PropOp45
 70
     0
102
RTVSPost2010Prop46
 90
       50
102
RTVSPost2010PropOp46
 70
     0
102
RTVSPost2010Prop47
 90
       50
102
RTVSPost2010PropOp47
 70
     0
102
RTVSPost2010Prop48
 90
       50
102
RTVSPost2010PropOp48
 70
     0
102
RTVSPost2010Prop49
280
     0
102
RTVSPost2010PropOp49
 70
     0
102
RTVSPost2010Prop50
 90
       50
102
RTVSPost2010PropOp50
 70
     0
102
RTVSPost2010Prop51ColorIndex
 90
      256
102
RTVSPost2010Prop51ColorRGB
 90
-16777216
102
RTVSPost2010PropOp51
 70
     0
102
RTVSPost2010Prop52
140
1.0
102
RTVSPost2010PropOp52
 70
     0
102
RTVSPost2010Prop53
 90
        2
102
RTVSPost2010PropOp53
 70
     0
102
RTVSPost2010Prop54
  1
strokes_ogs.tif
102
RTVSPost2010PropOp54
 70
     0
102
RTVSPost2010Prop55
280
     0
102
RTVSPost2010PropOp55
 70
     0
102
RTVSPost2010Prop56
140
1.0
102
RTVSPost2010PropOp56
 70
     0
102
RTVSPost2010Prop57
140
1.0
102
RTVSPost2010PropOp57
 70
     0
102
RTVSPropertyOp0
 70
     0
102
RTVSPropertyOp1
 70
     0
102
RTVSPropertyOp2
 70
     0
102
RTVSPropertyOp3
 70
     0
102
RTVSPropertyOp4
 70
     0
102
RTVSPropertyOp5
 70
     0
102
RTVSPropertyOp6
 70
     0
102
RTVSPropertyOp7
 70
     0
102
RTVSPropertyOp8
 70
     0
102
RTVSPropertyOp9
 70
     0
102
RTVSPropertyOp10
 70
     0
102
RTVSPropertyOp11
 70
     0
102
RTVSPropertyOp12
 70
     0
102
RTVSPropertyOp13
 70
     0
102
RTVSPropertyOp14
 70
     2
102
RTVSPropertyOp15
 70
     0
102
RTVSPropertyOp16
 70
     0
102
RTVSPropertyOp17
 70
     0
102
RTVSPropertyOp18
 70
     0
102
RTVSPropertyOp19
 70
     0
102
RTVSPropertyOp20
 70
     0
102
RTVSPropertyOp21
 70
     0
102
RTVSPropertyOp22
 70
     0
102
RTVSPropertyOp23
 70
     0
102
RTVSPropertyOp24
 70
     0
102
RTVSPropertyOp25
 70
     0
102
RTVSPropertyOp26
 70
     0
102
RTVSPropertyOp27
 70
     0
102
RTVSPropertyOp28
 70
     0
102
RTVSPropertyOp29
 70
     0
102
RTVSPropertyOp30
 70
     0
102
RTVSPropertyOp31
 70
     0
102
RTVSPropertyOp32
 70
     0
102
RTVSPropertyOp33
 70
     0
102
RTVSPropertyOp34
 70
     0
102
RTVSPropertyOp35
 70
     0
102
RTVSPropertyOp36
 70
     0
102
RTVSPropertyOp37
 70
     0
102
RTVSPropertyOp38
 70
     0
102
RTVSPropertyOp39
 70
     0
102
RTVSPropertyOp40
 70
     0
102
RTVSPropertyOp41
 70
     0
102
RTVSPropertyOp42
 70
     0
102
RTVSPropertyOp43
 70
     0
102
RTVSPropertyOp44
 70
     0
102
RTVSPropertyOp45
 70
     0
102
RTVSPropertyOp46
 70
     0
102
RTVSPropertyOp47
 70
     0
102
RTVSPropertyOp48
 70
     0
102
RTVSPropertyOp49
 70
     0
102
RTVSPropertyOp50
 70
     0
102
RTVSPropertyOp51
 70
     0
102
RTVSPropertyOp52
 70
     0
102
RTVSPropertyOp53
 70
     0
102
RTVSPropertyOp54
 70
     0
102
RTVSPropertyOp55
 70
     0
102
RTVSPropertyOp56
 70
     0
102
RTVSPropertyOp57
 70
     0
102
RTVSPropertyOp58
 70
     0
102
RTVSPropertyOp59
 70
     0
102
RTVSPropertyOp60
 70
     0
102
RTVSPropertyOp61
 70
     0
102
RTVSPropertyOp62
 70
     0
  0
XRECORD
  5
4182
102
{ACAD_REACTORS
330
4181
102
}
330
4181
100
AcDbXrecord
280
     1
102
RTVSPost2010Prop28
280
     0
102
RTVSPost2010PropOp28
 70
     1
102
RTVSPost2010Prop29
280
     1
102
RTVSPost2010PropOp29
 70
     1
102
RTVSPost2010Prop30
280
     1
102
RTVSPost2010PropOp30
 70
     1
102
RTVSPost2010Prop31
280
     0
102
RTVSPost2010PropOp31
 70
     1
102
RTVSPost2010Prop32
280
     0
102
RTVSPost2010PropOp32
 70
     1
102
RTVSPost2010Prop33
280
     0
102
RTVSPost2010PropOp33
 70
     1
102
RTVSPost2010Prop34
280
     0
102
RTVSPost2010PropOp34
 70
     1
102
RTVSPost2010Prop35
280
     0
102
RTVSPost2010PropOp35
 70
     1
102
RTVSPost2010Prop36
280
     0
102
RTVSPost2010PropOp36
 70
     1
102
RTVSPost2010Prop37
 90
       50
102
RTVSPost2010PropOp37
 70
     1
102
RTVSPost2010Prop38
140
0.0
102
RTVSPost2010PropOp38
 70
     1
102
RTVSPost2010Prop39
140
1.0
102
RTVSPost2010PropOp39
 70
     1
102
RTVSPost2010Prop40
 90
        0
102
RTVSPost2010PropOp40
 70
     1
102
RTVSPost2010Prop41ColorIndex
 90
       18
102
RTVSPost2010Prop41ColorRGB
 90
        0
102
RTVSPost2010PropOp41
 70
     1
102
RTVSPost2010Prop42
 90
       50
102
RTVSPost2010PropOp42
 70
     1
102
RTVSPost2010Prop43
 90
        3
102
RTVSPost2010PropOp43
 70
     1
102
RTVSPost2010Prop44ColorIndex
 90
        5
102
RTVSPost2010Prop44ColorRGB
 90
      255
102
RTVSPost2010PropOp44
 70
     1
102
RTVSPost2010Prop45
280
     0
102
RTVSPost2010PropOp45
 70
     1
102
RTVSPost2010Prop46
 90
       50
102
RTVSPost2010PropOp46
 70
     1
102
RTVSPost2010Prop47
 90
       50
102
RTVSPost2010PropOp47
 70
     1
102
RTVSPost2010Prop48
 90
       50
102
RTVSPost2010PropOp48
 70
     1
102
RTVSPost2010Prop49
280
     0
102
RTVSPost2010PropOp49
 70
     1
102
RTVSPost2010Prop50
 90
       50
102
RTVSPost2010PropOp50
 70
     1
102
RTVSPost2010Prop51ColorIndex
 90
      256
102
RTVSPost2010Prop51ColorRGB
 90
-16777216
102
RTVSPost2010PropOp51
 70
     0
102
RTVSPost2010Prop52
140
1.0
102
RTVSPost2010PropOp52
 70
     0
102
RTVSPost2010Prop53
 90
        2
102
RTVSPost2010PropOp53
 70
     1
102
RTVSPost2010Prop54
  1
strokes_ogs.tif
102
RTVSPost2010PropOp54
 70
     1
102
RTVSPost2010Prop55
280
     0
102
RTVSPost2010PropOp55
 70
     1
102
RTVSPost2010Prop56
140
1.0
102
RTVSPost2010PropOp56
 70
     1
102
RTVSPost2010Prop57
140
1.0
102
RTVSPost2010PropOp57
 70
     1
102
RTVSPropertyOp0
 70
     1
102
RTVSPropertyOp1
 70
     1
102
RTVSPropertyOp2
 70
     1
102
RTVSPropertyOp3
 70
     1
102
RTVSPropertyOp4
 70
     1
102
RTVSPropertyOp5
 70
     1
102
RTVSPropertyOp6
 70
     1
102
RTVSPropertyOp7
 70
     1
102
RTVSPropertyOp8
 70
     1
102
RTVSPropertyOp9
 70
     1
102
RTVSPropertyOp10
 70
     1
102
RTVSPropertyOp11
 70
     1
102
RTVSPropertyOp12
 70
     1
102
RTVSPropertyOp13
 70
     1
102
RTVSPropertyOp14
 70
     1
102
RTVSPropertyOp15
 70
     1
102
RTVSPropertyOp16
 70
     1
102
RTVSPropertyOp17
 70
     1
102
RTVSPropertyOp18
 70
     1
102
RTVSPropertyOp19
 70
     1
102
RTVSPropertyOp20
 70
     1
102
RTVSPropertyOp21
 70
     1
102
RTVSPropertyOp22
 70
     1
102
RTVSPropertyOp23
 70
     1
102
RTVSPropertyOp24
 70
     1
102
RTVSPropertyOp25
 70
     1
102
RTVSPropertyOp26
 70
     1
102
RTVSPropertyOp27
 70
     1
102
RTVSPropertyOp28
 70
     1
102
RTVSPropertyOp29
 70
     1
102
RTVSPropertyOp30
 70
     1
102
RTVSPropertyOp31
 70
     1
102
RTVSPropertyOp32
 70
     1
102
RTVSPropertyOp33
 70
     1
102
RTVSPropertyOp34
 70
     1
102
RTVSPropertyOp35
 70
     1
102
RTVSPropertyOp36
 70
     1
102
RTVSPropertyOp37
 70
     1
102
RTVSPropertyOp38
 70
     1
102
RTVSPropertyOp39
 70
     1
102
RTVSPropertyOp40
 70
     1
102
RTVSPropertyOp41
 70
     1
102
RTVSPropertyOp42
 70
     1
102
RTVSPropertyOp43
 70
     1
102
RTVSPropertyOp44
 70
     1
102
RTVSPropertyOp45
 70
     1
102
RTVSPropertyOp46
 70
     1
102
RTVSPropertyOp47
 70
     1
102
RTVSPropertyOp48
 70
     1
102
RTVSPropertyOp49
 70
     1
102
RTVSPropertyOp50
 70
     1
102
RTVSPropertyOp51
 70
     0
102
RTVSPropertyOp52
 70
     0
102
RTVSPropertyOp53
 70
     1
102
RTVSPropertyOp54
 70
     1
102
RTVSPropertyOp55
 70
     1
102
RTVSPropertyOp56
 70
     1
102
RTVSPropertyOp57
 70
     1
102
RTVSPropertyOp58
 70
     1
102
RTVSPropertyOp59
 70
     1
102
RTVSPropertyOp60
 70
     1
102
RTVSPropertyOp61
 70
     1
102
RTVSPropertyOp62
 70
     1
  0
XRECORD
  5
4166
102
{ACAD_REACTORS
330
4165
102
}
330
4165
100
AcDbXrecord
280
     1
102
RTVSPost2010Prop28
280
     0
102
RTVSPost2010PropOp28
 70
     1
102
RTVSPost2010Prop29
280
     1
102
RTVSPost2010PropOp29
 70
     1
102
RTVSPost2010Prop30
280
     1
102
RTVSPost2010PropOp30
 70
     1
102
RTVSPost2010Prop31
280
     0
102
RTVSPost2010PropOp31
 70
     1
102
RTVSPost2010Prop32
280
     0
102
RTVSPost2010PropOp32
 70
     1
102
RTVSPost2010Prop33
280
     0
102
RTVSPost2010PropOp33
 70
     1
102
RTVSPost2010Prop34
280
     0
102
RTVSPost2010PropOp34
 70
     1
102
RTVSPost2010Prop35
280
     0
102
RTVSPost2010PropOp35
 70
     1
102
RTVSPost2010Prop36
280
     0
102
RTVSPost2010PropOp36
 70
     1
102
RTVSPost2010Prop37
 90
       50
102
RTVSPost2010PropOp37
 70
     1
102
RTVSPost2010Prop38
140
0.0
102
RTVSPost2010PropOp38
 70
     1
102
RTVSPost2010Prop39
140
1.0
102
RTVSPost2010PropOp39
 70
     1
102
RTVSPost2010Prop40
 90
        0
102
RTVSPost2010PropOp40
 70
     1
102
RTVSPost2010Prop41ColorIndex
 90
       18
102
RTVSPost2010Prop41ColorRGB
 90
        0
102
RTVSPost2010PropOp41
 70
     1
102
RTVSPost2010Prop42
 90
       50
102
RTVSPost2010PropOp42
 70
     1
102
RTVSPost2010Prop43
 90
        3
102
RTVSPost2010PropOp43
 70
     1
102
RTVSPost2010Prop44ColorIndex
 90
        5
102
RTVSPost2010Prop44ColorRGB
 90
      255
102
RTVSPost2010PropOp44
 70
     1
102
RTVSPost2010Prop45
280
     0
102
RTVSPost2010PropOp45
 70
     1
102
RTVSPost2010Prop46
 90
       50
102
RTVSPost2010PropOp46
 70
     1
102
RTVSPost2010Prop47
 90
       50
102
RTVSPost2010PropOp47
 70
     1
102
RTVSPost2010Prop48
 90
       50
102
RTVSPost2010PropOp48
 70
     1
102
RTVSPost2010Prop49
280
     0
102
RTVSPost2010PropOp49
 70
     1
102
RTVSPost2010Prop50
 90
       50
102
RTVSPost2010PropOp50
 70
     1
102
RTVSPost2010Prop51ColorIndex
 90
      256
102
RTVSPost2010Prop51ColorRGB
 90
-16777216
102
RTVSPost2010PropOp51
 70
     0
102
RTVSPost2010Prop52
140
1.0
102
RTVSPost2010PropOp52
 70
     0
102
RTVSPost2010Prop53
 90
        2
102
RTVSPost2010PropOp53
 70
     1
102
RTVSPost2010Prop54
  1
strokes_ogs.tif
102
RTVSPost2010PropOp54
 70
     1
102
RTVSPost2010Prop55
280
     0
102
RTVSPost2010PropOp55
 70
     1
102
RTVSPost2010Prop56
140
1.0
102
RTVSPost2010PropOp56
 70
     1
102
RTVSPost2010Prop57
140
1.0
102
RTVSPost2010PropOp57
 70
     1
102
RTVSPropertyOp0
 70
     1
102
RTVSPropertyOp1
 70
     1
102
RTVSPropertyOp2
 70
     1
102
RTVSPropertyOp3
 70
     1
102
RTVSPropertyOp4
 70
     1
102
RTVSPropertyOp5
 70
     1
102
RTVSPropertyOp6
 70
     1
102
RTVSPropertyOp7
 70
     1
102
RTVSPropertyOp8
 70
     1
102
RTVSPropertyOp9
 70
     1
102
RTVSPropertyOp10
 70
     1
102
RTVSPropertyOp11
 70
     1
102
RTVSPropertyOp12
 70
     1
102
RTVSPropertyOp13
 70
     1
102
RTVSPropertyOp14
 70
     1
102
RTVSPropertyOp15
 70
     1
102
RTVSPropertyOp16
 70
     1
102
RTVSPropertyOp17
 70
     1
102
RTVSPropertyOp18
 70
     1
102
RTVSPropertyOp19
 70
     1
102
RTVSPropertyOp20
 70
     1
102
RTVSPropertyOp21
 70
     1
102
RTVSPropertyOp22
 70
     1
102
RTVSPropertyOp23
 70
     1
102
RTVSPropertyOp24
 70
     1
102
RTVSPropertyOp25
 70
     1
102
RTVSPropertyOp26
 70
     1
102
RTVSPropertyOp27
 70
     1
102
RTVSPropertyOp28
 70
     1
102
RTVSPropertyOp29
 70
     1
102
RTVSPropertyOp30
 70
     1
102
RTVSPropertyOp31
 70
     1
102
RTVSPropertyOp32
 70
     1
102
RTVSPropertyOp33
 70
     1
102
RTVSPropertyOp34
 70
     1
102
RTVSPropertyOp35
 70
     1
102
RTVSPropertyOp36
 70
     1
102
RTVSPropertyOp37
 70
     1
102
RTVSPropertyOp38
 70
     1
102
RTVSPropertyOp39
 70
     1
102
RTVSPropertyOp40
 70
     1
102
RTVSPropertyOp41
 70
     1
102
RTVSPropertyOp42
 70
     1
102
RTVSPropertyOp43
 70
     1
102
RTVSPropertyOp44
 70
     1
102
RTVSPropertyOp45
 70
     1
102
RTVSPropertyOp46
 70
     1
102
RTVSPropertyOp47
 70
     1
102
RTVSPropertyOp48
 70
     1
102
RTVSPropertyOp49
 70
     1
102
RTVSPropertyOp50
 70
     1
102
RTVSPropertyOp51
 70
     0
102
RTVSPropertyOp52
 70
     0
102
RTVSPropertyOp53
 70
     1
102
RTVSPropertyOp54
 70
     1
102
RTVSPropertyOp55
 70
     1
102
RTVSPropertyOp56
 70
     1
102
RTVSPropertyOp57
 70
     1
102
RTVSPropertyOp58
 70
     1
102
RTVSPropertyOp59
 70
     1
102
RTVSPropertyOp60
 70
     1
102
RTVSPropertyOp61
 70
     1
102
RTVSPropertyOp62
 70
     1
  0
XRECORD
  5
4168
102
{ACAD_REACTORS
330
4167
102
}
330
4167
100
AcDbXrecord
280
     1
102
RTVSPost2010Prop28
280
     0
102
RTVSPost2010PropOp28
 70
     1
102
RTVSPost2010Prop29
280
     1
102
RTVSPost2010PropOp29
 70
     1
102
RTVSPost2010Prop30
280
     1
102
RTVSPost2010PropOp30
 70
     1
102
RTVSPost2010Prop31
280
     0
102
RTVSPost2010PropOp31
 70
     1
102
RTVSPost2010Prop32
280
     0
102
RTVSPost2010PropOp32
 70
     1
102
RTVSPost2010Prop33
280
     0
102
RTVSPost2010PropOp33
 70
     1
102
RTVSPost2010Prop34
280
     0
102
RTVSPost2010PropOp34
 70
     1
102
RTVSPost2010Prop35
280
     0
102
RTVSPost2010PropOp35
 70
     1
102
RTVSPost2010Prop36
280
     0
102
RTVSPost2010PropOp36
 70
     1
102
RTVSPost2010Prop37
 90
       50
102
RTVSPost2010PropOp37
 70
     1
102
RTVSPost2010Prop38
140
0.0
102
RTVSPost2010PropOp38
 70
     1
102
RTVSPost2010Prop39
140
1.0
102
RTVSPost2010PropOp39
 70
     1
102
RTVSPost2010Prop40
 90
        0
102
RTVSPost2010PropOp40
 70
     1
102
RTVSPost2010Prop41ColorIndex
 90
       18
102
RTVSPost2010Prop41ColorRGB
 90
        0
102
RTVSPost2010PropOp41
 70
     1
102
RTVSPost2010Prop42
 90
       50
102
RTVSPost2010PropOp42
 70
     1
102
RTVSPost2010Prop43
 90
        3
102
RTVSPost2010PropOp43
 70
     1
102
RTVSPost2010Prop44ColorIndex
 90
        5
102
RTVSPost2010Prop44ColorRGB
 90
      255
102
RTVSPost2010PropOp44
 70
     1
102
RTVSPost2010Prop45
280
     0
102
RTVSPost2010PropOp45
 70
     1
102
RTVSPost2010Prop46
 90
       50
102
RTVSPost2010PropOp46
 70
     1
102
RTVSPost2010Prop47
 90
       50
102
RTVSPost2010PropOp47
 70
     1
102
RTVSPost2010Prop48
 90
       50
102
RTVSPost2010PropOp48
 70
     1
102
RTVSPost2010Prop49
280
     0
102
RTVSPost2010PropOp49
 70
     1
102
RTVSPost2010Prop50
 90
       50
102
RTVSPost2010PropOp50
 70
     1
102
RTVSPost2010Prop51ColorIndex
 90
      256
102
RTVSPost2010Prop51ColorRGB
 90
-16777216
102
RTVSPost2010PropOp51
 70
     0
102
RTVSPost2010Prop52
140
1.0
102
RTVSPost2010PropOp52
 70
     0
102
RTVSPost2010Prop53
 90
        2
102
RTVSPost2010PropOp53
 70
     1
102
RTVSPost2010Prop54
  1
strokes_ogs.tif
102
RTVSPost2010PropOp54
 70
     1
102
RTVSPost2010Prop55
280
     0
102
RTVSPost2010PropOp55
 70
     1
102
RTVSPost2010Prop56
140
1.0
102
RTVSPost2010PropOp56
 70
     1
102
RTVSPost2010Prop57
140
1.0
102
RTVSPost2010PropOp57
 70
     1
102
RTVSPropertyOp0
 70
     1
102
RTVSPropertyOp1
 70
     1
102
RTVSPropertyOp2
 70
     1
102
RTVSPropertyOp3
 70
     1
102
RTVSPropertyOp4
 70
     1
102
RTVSPropertyOp5
 70
     1
102
RTVSPropertyOp6
 70
     1
102
RTVSPropertyOp7
 70
     1
102
RTVSPropertyOp8
 70
     1
102
RTVSPropertyOp9
 70
     1
102
RTVSPropertyOp10
 70
     1
102
RTVSPropertyOp11
 70
     1
102
RTVSPropertyOp12
 70
     1
102
RTVSPropertyOp13
 70
     1
102
RTVSPropertyOp14
 70
     1
102
RTVSPropertyOp15
 70
     1
102
RTVSPropertyOp16
 70
     1
102
RTVSPropertyOp17
 70
     1
102
RTVSPropertyOp18
 70
     1
102
RTVSPropertyOp19
 70
     1
102
RTVSPropertyOp20
 70
     1
102
RTVSPropertyOp21
 70
     1
102
RTVSPropertyOp22
 70
     1
102
RTVSPropertyOp23
 70
     1
102
RTVSPropertyOp24
 70
     1
102
RTVSPropertyOp25
 70
     1
102
RTVSPropertyOp26
 70
     1
102
RTVSPropertyOp27
 70
     1
102
RTVSPropertyOp28
 70
     1
102
RTVSPropertyOp29
 70
     1
102
RTVSPropertyOp30
 70
     1
102
RTVSPropertyOp31
 70
     1
102
RTVSPropertyOp32
 70
     1
102
RTVSPropertyOp33
 70
     1
102
RTVSPropertyOp34
 70
     1
102
RTVSPropertyOp35
 70
     1
102
RTVSPropertyOp36
 70
     1
102
RTVSPropertyOp37
 70
     1
102
RTVSPropertyOp38
 70
     1
102
RTVSPropertyOp39
 70
     1
102
RTVSPropertyOp40
 70
     1
102
RTVSPropertyOp41
 70
     1
102
RTVSPropertyOp42
 70
     1
102
RTVSPropertyOp43
 70
     1
102
RTVSPropertyOp44
 70
     1
102
RTVSPropertyOp45
 70
     1
102
RTVSPropertyOp46
 70
     1
102
RTVSPropertyOp47
 70
     1
102
RTVSPropertyOp48
 70
     1
102
RTVSPropertyOp49
 70
     1
102
RTVSPropertyOp50
 70
     1
102
RTVSPropertyOp51
 70
     0
102
RTVSPropertyOp52
 70
     0
102
RTVSPropertyOp53
 70
     1
102
RTVSPropertyOp54
 70
     1
102
RTVSPropertyOp55
 70
     1
102
RTVSPropertyOp56
 70
     1
102
RTVSPropertyOp57
 70
     1
102
RTVSPropertyOp58
 70
     1
102
RTVSPropertyOp59
 70
     1
102
RTVSPropertyOp60
 70
     1
102
RTVSPropertyOp61
 70
     1
102
RTVSPropertyOp62
 70
     1
  0
XRECORD
  5
416A
102
{ACAD_REACTORS
330
4169
102
}
330
4169
100
AcDbXrecord
280
     1
102
RTVSPost2010Prop28
280
     0
102
RTVSPost2010PropOp28
 70
     1
102
RTVSPost2010Prop29
280
     1
102
RTVSPost2010PropOp29
 70
     1
102
RTVSPost2010Prop30
280
     1
102
RTVSPost2010PropOp30
 70
     1
102
RTVSPost2010Prop31
280
     0
102
RTVSPost2010PropOp31
 70
     1
102
RTVSPost2010Prop32
280
     0
102
RTVSPost2010PropOp32
 70
     1
102
RTVSPost2010Prop33
280
     0
102
RTVSPost2010PropOp33
 70
     1
102
RTVSPost2010Prop34
280
     0
102
RTVSPost2010PropOp34
 70
     1
102
RTVSPost2010Prop35
280
     0
102
RTVSPost2010PropOp35
 70
     1
102
RTVSPost2010Prop36
280
     0
102
RTVSPost2010PropOp36
 70
     1
102
RTVSPost2010Prop37
 90
       50
102
RTVSPost2010PropOp37
 70
     1
102
RTVSPost2010Prop38
140
0.0
102
RTVSPost2010PropOp38
 70
     1
102
RTVSPost2010Prop39
140
1.0
102
RTVSPost2010PropOp39
 70
     1
102
RTVSPost2010Prop40
 90
        0
102
RTVSPost2010PropOp40
 70
     1
102
RTVSPost2010Prop41ColorIndex
 90
       18
102
RTVSPost2010Prop41ColorRGB
 90
        0
102
RTVSPost2010PropOp41
 70
     1
102
RTVSPost2010Prop42
 90
       50
102
RTVSPost2010PropOp42
 70
     1
102
RTVSPost2010Prop43
 90
        3
102
RTVSPost2010PropOp43
 70
     1
102
RTVSPost2010Prop44ColorIndex
 90
        5
102
RTVSPost2010Prop44ColorRGB
 90
      255
102
RTVSPost2010PropOp44
 70
     1
102
RTVSPost2010Prop45
280
     0
102
RTVSPost2010PropOp45
 70
     1
102
RTVSPost2010Prop46
 90
       50
102
RTVSPost2010PropOp46
 70
     1
102
RTVSPost2010Prop47
 90
       50
102
RTVSPost2010PropOp47
 70
     1
102
RTVSPost2010Prop48
 90
       50
102
RTVSPost2010PropOp48
 70
     1
102
RTVSPost2010Prop49
280
     0
102
RTVSPost2010PropOp49
 70
     1
102
RTVSPost2010Prop50
 90
       50
102
RTVSPost2010PropOp50
 70
     1
102
RTVSPost2010Prop51ColorIndex
 90
      256
102
RTVSPost2010Prop51ColorRGB
 90
-16777216
102
RTVSPost2010PropOp51
 70
     0
102
RTVSPost2010Prop52
140
1.0
102
RTVSPost2010PropOp52
 70
     0
102
RTVSPost2010Prop53
 90
        2
102
RTVSPost2010PropOp53
 70
     1
102
RTVSPost2010Prop54
  1
strokes_ogs.tif
102
RTVSPost2010PropOp54
 70
     1
102
RTVSPost2010Prop55
280
     0
102
RTVSPost2010PropOp55
 70
     1
102
RTVSPost2010Prop56
140
1.0
102
RTVSPost2010PropOp56
 70
     1
102
RTVSPost2010Prop57
140
1.0
102
RTVSPost2010PropOp57
 70
     1
102
RTVSPropertyOp0
 70
     1
102
RTVSPropertyOp1
 70
     1
102
RTVSPropertyOp2
 70
     1
102
RTVSPropertyOp3
 70
     1
102
RTVSPropertyOp4
 70
     1
102
RTVSPropertyOp5
 70
     1
102
RTVSPropertyOp6
 70
     1
102
RTVSPropertyOp7
 70
     1
102
RTVSPropertyOp8
 70
     1
102
RTVSPropertyOp9
 70
     1
102
RTVSPropertyOp10
 70
     1
102
RTVSPropertyOp11
 70
     1
102
RTVSPropertyOp12
 70
     1
102
RTVSPropertyOp13
 70
     1
102
RTVSPropertyOp14
 70
     1
102
RTVSPropertyOp15
 70
     1
102
RTVSPropertyOp16
 70
     1
102
RTVSPropertyOp17
 70
     1
102
RTVSPropertyOp18
 70
     1
102
RTVSPropertyOp19
 70
     1
102
RTVSPropertyOp20
 70
     1
102
RTVSPropertyOp21
 70
     1
102
RTVSPropertyOp22
 70
     1
102
RTVSPropertyOp23
 70
     1
102
RTVSPropertyOp24
 70
     1
102
RTVSPropertyOp25
 70
     1
102
RTVSPropertyOp26
 70
     1
102
RTVSPropertyOp27
 70
     1
102
RTVSPropertyOp28
 70
     1
102
RTVSPropertyOp29
 70
     1
102
RTVSPropertyOp30
 70
     1
102
RTVSPropertyOp31
 70
     1
102
RTVSPropertyOp32
 70
     1
102
RTVSPropertyOp33
 70
     1
102
RTVSPropertyOp34
 70
     1
102
RTVSPropertyOp35
 70
     1
102
RTVSPropertyOp36
 70
     1
102
RTVSPropertyOp37
 70
     1
102
RTVSPropertyOp38
 70
     1
102
RTVSPropertyOp39
 70
     1
102
RTVSPropertyOp40
 70
     1
102
RTVSPropertyOp41
 70
     1
102
RTVSPropertyOp42
 70
     1
102
RTVSPropertyOp43
 70
     1
102
RTVSPropertyOp44
 70
     1
102
RTVSPropertyOp45
 70
     1
102
RTVSPropertyOp46
 70
     1
102
RTVSPropertyOp47
 70
     1
102
RTVSPropertyOp48
 70
     1
102
RTVSPropertyOp49
 70
     1
102
RTVSPropertyOp50
 70
     1
102
RTVSPropertyOp51
 70
     0
102
RTVSPropertyOp52
 70
     0
102
RTVSPropertyOp53
 70
     1
102
RTVSPropertyOp54
 70
     1
102
RTVSPropertyOp55
 70
     1
102
RTVSPropertyOp56
 70
     1
102
RTVSPropertyOp57
 70
     1
102
RTVSPropertyOp58
 70
     1
102
RTVSPropertyOp59
 70
     1
102
RTVSPropertyOp60
 70
     1
102
RTVSPropertyOp61
 70
     1
102
RTVSPropertyOp62
 70
     1
  0
XRECORD
  5
416C
102
{ACAD_REACTORS
330
416B
102
}
330
416B
100
AcDbXrecord
280
     1
102
RTVSPost2010Prop28
280
     0
102
RTVSPost2010PropOp28
 70
     1
102
RTVSPost2010Prop29
280
     1
102
RTVSPost2010PropOp29
 70
     1
102
RTVSPost2010Prop30
280
     1
102
RTVSPost2010PropOp30
 70
     1
102
RTVSPost2010Prop31
280
     0
102
RTVSPost2010PropOp31
 70
     1
102
RTVSPost2010Prop32
280
     0
102
RTVSPost2010PropOp32
 70
     1
102
RTVSPost2010Prop33
280
     0
102
RTVSPost2010PropOp33
 70
     1
102
RTVSPost2010Prop34
280
     0
102
RTVSPost2010PropOp34
 70
     1
102
RTVSPost2010Prop35
280
     0
102
RTVSPost2010PropOp35
 70
     1
102
RTVSPost2010Prop36
280
     0
102
RTVSPost2010PropOp36
 70
     1
102
RTVSPost2010Prop37
 90
       50
102
RTVSPost2010PropOp37
 70
     1
102
RTVSPost2010Prop38
140
0.0
102
RTVSPost2010PropOp38
 70
     1
102
RTVSPost2010Prop39
140
1.0
102
RTVSPost2010PropOp39
 70
     1
102
RTVSPost2010Prop40
 90
        0
102
RTVSPost2010PropOp40
 70
     1
102
RTVSPost2010Prop41ColorIndex
 90
       18
102
RTVSPost2010Prop41ColorRGB
 90
        0
102
RTVSPost2010PropOp41
 70
     1
102
RTVSPost2010Prop42
 90
       50
102
RTVSPost2010PropOp42
 70
     1
102
RTVSPost2010Prop43
 90
        3
102
RTVSPost2010PropOp43
 70
     1
102
RTVSPost2010Prop44ColorIndex
 90
        5
102
RTVSPost2010Prop44ColorRGB
 90
      255
102
RTVSPost2010PropOp44
 70
     1
102
RTVSPost2010Prop45
280
     0
102
RTVSPost2010PropOp45
 70
     1
102
RTVSPost2010Prop46
 90
       50
102
RTVSPost2010PropOp46
 70
     1
102
RTVSPost2010Prop47
 90
       50
102
RTVSPost2010PropOp47
 70
     1
102
RTVSPost2010Prop48
 90
       50
102
RTVSPost2010PropOp48
 70
     1
102
RTVSPost2010Prop49
280
     0
102
RTVSPost2010PropOp49
 70
     1
102
RTVSPost2010Prop50
 90
       50
102
RTVSPost2010PropOp50
 70
     1
102
RTVSPost2010Prop51ColorIndex
 90
      256
102
RTVSPost2010Prop51ColorRGB
 90
-16777216
102
RTVSPost2010PropOp51
 70
     0
102
RTVSPost2010Prop52
140
1.0
102
RTVSPost2010PropOp52
 70
     0
102
RTVSPost2010Prop53
 90
        2
102
RTVSPost2010PropOp53
 70
     1
102
RTVSPost2010Prop54
  1
strokes_ogs.tif
102
RTVSPost2010PropOp54
 70
     1
102
RTVSPost2010Prop55
280
     0
102
RTVSPost2010PropOp55
 70
     1
102
RTVSPost2010Prop56
140
1.0
102
RTVSPost2010PropOp56
 70
     1
102
RTVSPost2010Prop57
140
1.0
102
RTVSPost2010PropOp57
 70
     1
102
RTVSPropertyOp0
 70
     1
102
RTVSPropertyOp1
 70
     1
102
RTVSPropertyOp2
 70
     1
102
RTVSPropertyOp3
 70
     1
102
RTVSPropertyOp4
 70
     1
102
RTVSPropertyOp5
 70
     1
102
RTVSPropertyOp6
 70
     1
102
RTVSPropertyOp7
 70
     1
102
RTVSPropertyOp8
 70
     1
102
RTVSPropertyOp9
 70
     1
102
RTVSPropertyOp10
 70
     1
102
RTVSPropertyOp11
 70
     1
102
RTVSPropertyOp12
 70
     1
102
RTVSPropertyOp13
 70
     1
102
RTVSPropertyOp14
 70
     1
102
RTVSPropertyOp15
 70
     1
102
RTVSPropertyOp16
 70
     1
102
RTVSPropertyOp17
 70
     1
102
RTVSPropertyOp18
 70
     1
102
RTVSPropertyOp19
 70
     1
102
RTVSPropertyOp20
 70
     1
102
RTVSPropertyOp21
 70
     1
102
RTVSPropertyOp22
 70
     1
102
RTVSPropertyOp23
 70
     1
102
RTVSPropertyOp24
 70
     1
102
RTVSPropertyOp25
 70
     1
102
RTVSPropertyOp26
 70
     1
102
RTVSPropertyOp27
 70
     1
102
RTVSPropertyOp28
 70
     1
102
RTVSPropertyOp29
 70
     1
102
RTVSPropertyOp30
 70
     1
102
RTVSPropertyOp31
 70
     1
102
RTVSPropertyOp32
 70
     1
102
RTVSPropertyOp33
 70
     1
102
RTVSPropertyOp34
 70
     1
102
RTVSPropertyOp35
 70
     1
102
RTVSPropertyOp36
 70
     1
102
RTVSPropertyOp37
 70
     1
102
RTVSPropertyOp38
 70
     1
102
RTVSPropertyOp39
 70
     1
102
RTVSPropertyOp40
 70
     1
102
RTVSPropertyOp41
 70
     1
102
RTVSPropertyOp42
 70
     1
102
RTVSPropertyOp43
 70
     1
102
RTVSPropertyOp44
 70
     1
102
RTVSPropertyOp45
 70
     1
102
RTVSPropertyOp46
 70
     1
102
RTVSPropertyOp47
 70
     1
102
RTVSPropertyOp48
 70
     1
102
RTVSPropertyOp49
 70
     1
102
RTVSPropertyOp50
 70
     1
102
RTVSPropertyOp51
 70
     0
102
RTVSPropertyOp52
 70
     0
102
RTVSPropertyOp53
 70
     1
102
RTVSPropertyOp54
 70
     1
102
RTVSPropertyOp55
 70
     1
102
RTVSPropertyOp56
 70
     1
102
RTVSPropertyOp57
 70
     1
102
RTVSPropertyOp58
 70
     1
102
RTVSPropertyOp59
 70
     1
102
RTVSPropertyOp60
 70
     1
102
RTVSPropertyOp61
 70
     1
102
RTVSPropertyOp62
 70
     1
  0
XRECORD
  5
418A
102
{ACAD_REACTORS
330
4189
102
}
330
4189
100
AcDbXrecord
280
     1
102
RTVSPost2010Prop28
280
     0
102
RTVSPost2010PropOp28
 70
     1
102
RTVSPost2010Prop29
280
     1
102
RTVSPost2010PropOp29
 70
     1
102
RTVSPost2010Prop30
280
     1
102
RTVSPost2010PropOp30
 70
     1
102
RTVSPost2010Prop31
280
     0
102
RTVSPost2010PropOp31
 70
     1
102
RTVSPost2010Prop32
280
     0
102
RTVSPost2010PropOp32
 70
     1
102
RTVSPost2010Prop33
280
     0
102
RTVSPost2010PropOp33
 70
     1
102
RTVSPost2010Prop34
280
     0
102
RTVSPost2010PropOp34
 70
     1
102
RTVSPost2010Prop35
280
     0
102
RTVSPost2010PropOp35
 70
     1
102
RTVSPost2010Prop36
280
     0
102
RTVSPost2010PropOp36
 70
     1
102
RTVSPost2010Prop37
 90
       50
102
RTVSPost2010PropOp37
 70
     1
102
RTVSPost2010Prop38
140
0.0
102
RTVSPost2010PropOp38
 70
     1
102
RTVSPost2010Prop39
140
1.0
102
RTVSPost2010PropOp39
 70
     1
102
RTVSPost2010Prop40
 90
        0
102
RTVSPost2010PropOp40
 70
     1
102
RTVSPost2010Prop41ColorIndex
 90
       18
102
RTVSPost2010Prop41ColorRGB
 90
        0
102
RTVSPost2010PropOp41
 70
     1
102
RTVSPost2010Prop42
 90
       50
102
RTVSPost2010PropOp42
 70
     1
102
RTVSPost2010Prop43
 90
        3
102
RTVSPost2010PropOp43
 70
     1
102
RTVSPost2010Prop44ColorIndex
 90
        5
102
RTVSPost2010Prop44ColorRGB
 90
      255
102
RTVSPost2010PropOp44
 70
     1
102
RTVSPost2010Prop45
280
     0
102
RTVSPost2010PropOp45
 70
     1
102
RTVSPost2010Prop46
 90
       50
102
RTVSPost2010PropOp46
 70
     1
102
RTVSPost2010Prop47
 90
       50
102
RTVSPost2010PropOp47
 70
     1
102
RTVSPost2010Prop48
 90
       50
102
RTVSPost2010PropOp48
 70
     1
102
RTVSPost2010Prop49
280
     0
102
RTVSPost2010PropOp49
 70
     1
102
RTVSPost2010Prop50
 90
       50
102
RTVSPost2010PropOp50
 70
     1
102
RTVSPost2010Prop51ColorIndex
 90
      256
102
RTVSPost2010Prop51ColorRGB
 90
-16777216
102
RTVSPost2010PropOp51
 70
     0
102
RTVSPost2010Prop52
140
1.0
102
RTVSPost2010PropOp52
 70
     0
102
RTVSPost2010Prop53
 90
        2
102
RTVSPost2010PropOp53
 70
     1
102
RTVSPost2010Prop54
  1
strokes_ogs.tif
102
RTVSPost2010PropOp54
 70
     1
102
RTVSPost2010Prop55
280
     0
102
RTVSPost2010PropOp55
 70
     1
102
RTVSPost2010Prop56
140
1.0
102
RTVSPost2010PropOp56
 70
     1
102
RTVSPost2010Prop57
140
1.0
102
RTVSPost2010PropOp57
 70
     1
102
RTVSPropertyOp0
 70
     1
102
RTVSPropertyOp1
 70
     1
102
RTVSPropertyOp2
 70
     1
102
RTVSPropertyOp3
 70
     1
102
RTVSPropertyOp4
 70
     1
102
RTVSPropertyOp5
 70
     1
102
RTVSPropertyOp6
 70
     1
102
RTVSPropertyOp7
 70
     1
102
RTVSPropertyOp8
 70
     1
102
RTVSPropertyOp9
 70
     1
102
RTVSPropertyOp10
 70
     1
102
RTVSPropertyOp11
 70
     1
102
RTVSPropertyOp12
 70
     1
102
RTVSPropertyOp13
 70
     1
102
RTVSPropertyOp14
 70
     1
102
RTVSPropertyOp15
 70
     1
102
RTVSPropertyOp16
 70
     1
102
RTVSPropertyOp17
 70
     1
102
RTVSPropertyOp18
 70
     1
102
RTVSPropertyOp19
 70
     1
102
RTVSPropertyOp20
 70
     1
102
RTVSPropertyOp21
 70
     1
102
RTVSPropertyOp22
 70
     1
102
RTVSPropertyOp23
 70
     1
102
RTVSPropertyOp24
 70
     1
102
RTVSPropertyOp25
 70
     1
102
RTVSPropertyOp26
 70
     1
102
RTVSPropertyOp27
 70
     1
102
RTVSPropertyOp28
 70
     1
102
RTVSPropertyOp29
 70
     1
102
RTVSPropertyOp30
 70
     1
102
RTVSPropertyOp31
 70
     1
102
RTVSPropertyOp32
 70
     1
102
RTVSPropertyOp33
 70
     1
102
RTVSPropertyOp34
 70
     1
102
RTVSPropertyOp35
 70
     1
102
RTVSPropertyOp36
 70
     1
102
RTVSPropertyOp37
 70
     1
102
RTVSPropertyOp38
 70
     1
102
RTVSPropertyOp39
 70
     1
102
RTVSPropertyOp40
 70
     1
102
RTVSPropertyOp41
 70
     1
102
RTVSPropertyOp42
 70
     1
102
RTVSPropertyOp43
 70
     1
102
RTVSPropertyOp44
 70
     1
102
RTVSPropertyOp45
 70
     1
102
RTVSPropertyOp46
 70
     1
102
RTVSPropertyOp47
 70
     1
102
RTVSPropertyOp48
 70
     1
102
RTVSPropertyOp49
 70
     1
102
RTVSPropertyOp50
 70
     1
102
RTVSPropertyOp51
 70
     0
102
RTVSPropertyOp52
 70
     0
102
RTVSPropertyOp53
 70
     1
102
RTVSPropertyOp54
 70
     1
102
RTVSPropertyOp55
 70
     1
102
RTVSPropertyOp56
 70
     1
102
RTVSPropertyOp57
 70
     1
102
RTVSPropertyOp58
 70
     1
102
RTVSPropertyOp59
 70
     1
102
RTVSPropertyOp60
 70
     1
102
RTVSPropertyOp61
 70
     1
102
RTVSPropertyOp62
 70
     1
  0
XRECORD
  5
4196
102
{ACAD_REACTORS
330
4195
102
}
330
4195
100
AcDbXrecord
280
     1
102
RTVSPost2010Prop28
280
     0
102
RTVSPost2010PropOp28
 70
     0
102
RTVSPost2010Prop29
280
     1
102
RTVSPost2010PropOp29
 70
     0
102
RTVSPost2010Prop30
280
     1
102
RTVSPost2010PropOp30
 70
     0
102
RTVSPost2010Prop31
280
     0
102
RTVSPost2010PropOp31
 70
     0
102
RTVSPost2010Prop32
280
     0
102
RTVSPost2010PropOp32
 70
     0
102
RTVSPost2010Prop33
280
     0
102
RTVSPost2010PropOp33
 70
     0
102
RTVSPost2010Prop34
280
     0
102
RTVSPost2010PropOp34
 70
     0
102
RTVSPost2010Prop35
280
     0
102
RTVSPost2010PropOp35
 70
     0
102
RTVSPost2010Prop36
280
     0
102
RTVSPost2010PropOp36
 70
     0
102
RTVSPost2010Prop37
 90
       50
102
RTVSPost2010PropOp37
 70
     0
102
RTVSPost2010Prop38
140
0.0
102
RTVSPost2010PropOp38
 70
     0
102
RTVSPost2010Prop39
140
1.0
102
RTVSPost2010PropOp39
 70
     0
102
RTVSPost2010Prop40
 90
        0
102
RTVSPost2010PropOp40
 70
     0
102
RTVSPost2010Prop41ColorIndex
 90
       18
102
RTVSPost2010Prop41ColorRGB
 90
        0
102
RTVSPost2010PropOp41
 70
     0
102
RTVSPost2010Prop42
 90
       50
102
RTVSPost2010PropOp42
 70
     0
102
RTVSPost2010Prop43
 90
        3
102
RTVSPost2010PropOp43
 70
     0
102
RTVSPost2010Prop44ColorIndex
 90
        5
102
RTVSPost2010Prop44ColorRGB
 90
      255
102
RTVSPost2010PropOp44
 70
     0
102
RTVSPost2010Prop45
280
     0
102
RTVSPost2010PropOp45
 70
     0
102
RTVSPost2010Prop46
 90
       50
102
RTVSPost2010PropOp46
 70
     0
102
RTVSPost2010Prop47
 90
       50
102
RTVSPost2010PropOp47
 70
     0
102
RTVSPost2010Prop48
 90
       50
102
RTVSPost2010PropOp48
 70
     0
102
RTVSPost2010Prop49
280
     0
102
RTVSPost2010PropOp49
 70
     0
102
RTVSPost2010Prop50
 90
       50
102
RTVSPost2010PropOp50
 70
     0
102
RTVSPost2010Prop51ColorIndex
 90
      256
102
RTVSPost2010Prop51ColorRGB
 90
-16777216
102
RTVSPost2010PropOp51
 70
     0
102
RTVSPost2010Prop52
140
1.0
102
RTVSPost2010PropOp52
 70
     0
102
RTVSPost2010Prop53
 90
        2
102
RTVSPost2010PropOp53
 70
     0
102
RTVSPost2010Prop54
  1
strokes_ogs.tif
102
RTVSPost2010PropOp54
 70
     0
102
RTVSPost2010Prop55
280
     0
102
RTVSPost2010PropOp55
 70
     0
102
RTVSPost2010Prop56
140
1.0
102
RTVSPost2010PropOp56
 70
     0
102
RTVSPost2010Prop57
140
1.0
102
RTVSPost2010PropOp57
 70
     0
102
RTVSPropertyOp0
 70
     0
102
RTVSPropertyOp1
 70
     0
102
RTVSPropertyOp2
 70
     0
102
RTVSPropertyOp3
 70
     0
102
RTVSPropertyOp4
 70
     0
102
RTVSPropertyOp5
 70
     0
102
RTVSPropertyOp6
 70
     0
102
RTVSPropertyOp7
 70
     0
102
RTVSPropertyOp8
 70
     0
102
RTVSPropertyOp9
 70
     0
102
RTVSPropertyOp10
 70
     0
102
RTVSPropertyOp11
 70
     0
102
RTVSPropertyOp12
 70
     0
102
RTVSPropertyOp13
 70
     0
102
RTVSPropertyOp14
 70
     2
102
RTVSPropertyOp15
 70
     0
102
RTVSPropertyOp16
 70
     0
102
RTVSPropertyOp17
 70
     0
102
RTVSPropertyOp18
 70
     0
102
RTVSPropertyOp19
 70
     0
102
RTVSPropertyOp20
 70
     0
102
RTVSPropertyOp21
 70
     0
102
RTVSPropertyOp22
 70
     0
102
RTVSPropertyOp23
 70
     0
102
RTVSPropertyOp24
 70
     0
102
RTVSPropertyOp25
 70
     0
102
RTVSPropertyOp26
 70
     0
102
RTVSPropertyOp27
 70
     0
102
RTVSPropertyOp28
 70
     0
102
RTVSPropertyOp29
 70
     0
102
RTVSPropertyOp30
 70
     0
102
RTVSPropertyOp31
 70
     0
102
RTVSPropertyOp32
 70
     0
102
RTVSPropertyOp33
 70
     0
102
RTVSPropertyOp34
 70
     0
102
RTVSPropertyOp35
 70
     0
102
RTVSPropertyOp36
 70
     0
102
RTVSPropertyOp37
 70
     0
102
RTVSPropertyOp38
 70
     0
102
RTVSPropertyOp39
 70
     0
102
RTVSPropertyOp40
 70
     0
102
RTVSPropertyOp41
 70
     0
102
RTVSPropertyOp42
 70
     0
102
RTVSPropertyOp43
 70
     0
102
RTVSPropertyOp44
 70
     0
102
RTVSPropertyOp45
 70
     0
102
RTVSPropertyOp46
 70
     0
102
RTVSPropertyOp47
 70
     0
102
RTVSPropertyOp48
 70
     0
102
RTVSPropertyOp49
 70
     0
102
RTVSPropertyOp50
 70
     0
102
RTVSPropertyOp51
 70
     0
102
RTVSPropertyOp52
 70
     0
102
RTVSPropertyOp53
 70
     0
102
RTVSPropertyOp54
 70
     0
102
RTVSPropertyOp55
 70
     0
102
RTVSPropertyOp56
 70
     0
102
RTVSPropertyOp57
 70
     0
102
RTVSPropertyOp58
 70
     0
102
RTVSPropertyOp59
 70
     0
102
RTVSPropertyOp60
 70
     0
102
RTVSPropertyOp61
 70
     0
102
RTVSPropertyOp62
 70
     0
  0
XRECORD
  5
4180
102
{ACAD_REACTORS
330
417F
102
}
330
417F
100
AcDbXrecord
280
     1
102
RTVSPost2010Prop28
280
     0
102
RTVSPost2010PropOp28
 70
     1
102
RTVSPost2010Prop29
280
     1
102
RTVSPost2010PropOp29
 70
     1
102
RTVSPost2010Prop30
280
     1
102
RTVSPost2010PropOp30
 70
     1
102
RTVSPost2010Prop31
280
     0
102
RTVSPost2010PropOp31
 70
     1
102
RTVSPost2010Prop32
280
     0
102
RTVSPost2010PropOp32
 70
     1
102
RTVSPost2010Prop33
280
     0
102
RTVSPost2010PropOp33
 70
     1
102
RTVSPost2010Prop34
280
     0
102
RTVSPost2010PropOp34
 70
     1
102
RTVSPost2010Prop35
280
     0
102
RTVSPost2010PropOp35
 70
     1
102
RTVSPost2010Prop36
280
     0
102
RTVSPost2010PropOp36
 70
     1
102
RTVSPost2010Prop37
 90
       50
102
RTVSPost2010PropOp37
 70
     1
102
RTVSPost2010Prop38
140
0.0
102
RTVSPost2010PropOp38
 70
     1
102
RTVSPost2010Prop39
140
1.0
102
RTVSPost2010PropOp39
 70
     1
102
RTVSPost2010Prop40
 90
        0
102
RTVSPost2010PropOp40
 70
     1
102
RTVSPost2010Prop41ColorIndex
 90
       18
102
RTVSPost2010Prop41ColorRGB
 90
        0
102
RTVSPost2010PropOp41
 70
     1
102
RTVSPost2010Prop42
 90
       50
102
RTVSPost2010PropOp42
 70
     1
102
RTVSPost2010Prop43
 90
        3
102
RTVSPost2010PropOp43
 70
     1
102
RTVSPost2010Prop44ColorIndex
 90
        5
102
RTVSPost2010Prop44ColorRGB
 90
      255
102
RTVSPost2010PropOp44
 70
     1
102
RTVSPost2010Prop45
280
     0
102
RTVSPost2010PropOp45
 70
     1
102
RTVSPost2010Prop46
 90
       50
102
RTVSPost2010PropOp46
 70
     1
102
RTVSPost2010Prop47
 90
       50
102
RTVSPost2010PropOp47
 70
     1
102
RTVSPost2010Prop48
 90
       50
102
RTVSPost2010PropOp48
 70
     1
102
RTVSPost2010Prop49
280
     0
102
RTVSPost2010PropOp49
 70
     1
102
RTVSPost2010Prop50
 90
       50
102
RTVSPost2010PropOp50
 70
     1
102
RTVSPost2010Prop51ColorIndex
 90
      256
102
RTVSPost2010Prop51ColorRGB
 90
-16777216
102
RTVSPost2010PropOp51
 70
     0
102
RTVSPost2010Prop52
140
1.0
102
RTVSPost2010PropOp52
 70
     0
102
RTVSPost2010Prop53
 90
        2
102
RTVSPost2010PropOp53
 70
     1
102
RTVSPost2010Prop54
  1
strokes_ogs.tif
102
RTVSPost2010PropOp54
 70
     1
102
RTVSPost2010Prop55
280
     0
102
RTVSPost2010PropOp55
 70
     1
102
RTVSPost2010Prop56
140
1.0
102
RTVSPost2010PropOp56
 70
     1
102
RTVSPost2010Prop57
140
1.0
102
RTVSPost2010PropOp57
 70
     1
102
RTVSPropertyOp0
 70
     1
102
RTVSPropertyOp1
 70
     1
102
RTVSPropertyOp2
 70
     1
102
RTVSPropertyOp3
 70
     1
102
RTVSPropertyOp4
 70
     1
102
RTVSPropertyOp5
 70
     1
102
RTVSPropertyOp6
 70
     1
102
RTVSPropertyOp7
 70
     1
102
RTVSPropertyOp8
 70
     1
102
RTVSPropertyOp9
 70
     1
102
RTVSPropertyOp10
 70
     1
102
RTVSPropertyOp11
 70
     1
102
RTVSPropertyOp12
 70
     1
102
RTVSPropertyOp13
 70
     1
102
RTVSPropertyOp14
 70
     1
102
RTVSPropertyOp15
 70
     1
102
RTVSPropertyOp16
 70
     1
102
RTVSPropertyOp17
 70
     1
102
RTVSPropertyOp18
 70
     1
102
RTVSPropertyOp19
 70
     1
102
RTVSPropertyOp20
 70
     1
102
RTVSPropertyOp21
 70
     1
102
RTVSPropertyOp22
 70
     1
102
RTVSPropertyOp23
 70
     1
102
RTVSPropertyOp24
 70
     1
102
RTVSPropertyOp25
 70
     1
102
RTVSPropertyOp26
 70
     1
102
RTVSPropertyOp27
 70
     1
102
RTVSPropertyOp28
 70
     1
102
RTVSPropertyOp29
 70
     1
102
RTVSPropertyOp30
 70
     1
102
RTVSPropertyOp31
 70
     1
102
RTVSPropertyOp32
 70
     1
102
RTVSPropertyOp33
 70
     1
102
RTVSPropertyOp34
 70
     1
102
RTVSPropertyOp35
 70
     1
102
RTVSPropertyOp36
 70
     1
102
RTVSPropertyOp37
 70
     1
102
RTVSPropertyOp38
 70
     1
102
RTVSPropertyOp39
 70
     1
102
RTVSPropertyOp40
 70
     1
102
RTVSPropertyOp41
 70
     1
102
RTVSPropertyOp42
 70
     1
102
RTVSPropertyOp43
 70
     1
102
RTVSPropertyOp44
 70
     1
102
RTVSPropertyOp45
 70
     1
102
RTVSPropertyOp46
 70
     1
102
RTVSPropertyOp47
 70
     1
102
RTVSPropertyOp48
 70
     1
102
RTVSPropertyOp49
 70
     1
102
RTVSPropertyOp50
 70
     1
102
RTVSPropertyOp51
 70
     0
102
RTVSPropertyOp52
 70
     0
102
RTVSPropertyOp53
 70
     1
102
RTVSPropertyOp54
 70
     1
102
RTVSPropertyOp55
 70
     1
102
RTVSPropertyOp56
 70
     1
102
RTVSPropertyOp57
 70
     1
102
RTVSPropertyOp58
 70
     1
102
RTVSPropertyOp59
 70
     1
102
RTVSPropertyOp60
 70
     1
102
RTVSPropertyOp61
 70
     1
102
RTVSPropertyOp62
 70
     1
  0
XRECORD
  5
4198
102
{ACAD_REACTORS
330
4197
102
}
330
4197
100
AcDbXrecord
280
     1
102
RTVSPost2010Prop28
280
     0
102
RTVSPost2010PropOp28
 70
     0
102
RTVSPost2010Prop29
280
     1
102
RTVSPost2010PropOp29
 70
     0
102
RTVSPost2010Prop30
280
     1
102
RTVSPost2010PropOp30
 70
     0
102
RTVSPost2010Prop31
280
     0
102
RTVSPost2010PropOp31
 70
     0
102
RTVSPost2010Prop32
280
     0
102
RTVSPost2010PropOp32
 70
     0
102
RTVSPost2010Prop33
280
     0
102
RTVSPost2010PropOp33
 70
     0
102
RTVSPost2010Prop34
280
     0
102
RTVSPost2010PropOp34
 70
     0
102
RTVSPost2010Prop35
280
     0
102
RTVSPost2010PropOp35
 70
     0
102
RTVSPost2010Prop36
280
     0
102
RTVSPost2010PropOp36
 70
     0
102
RTVSPost2010Prop37
 90
       50
102
RTVSPost2010PropOp37
 70
     0
102
RTVSPost2010Prop38
140
0.0
102
RTVSPost2010PropOp38
 70
     0
102
RTVSPost2010Prop39
140
1.0
102
RTVSPost2010PropOp39
 70
     0
102
RTVSPost2010Prop40
 90
        0
102
RTVSPost2010PropOp40
 70
     0
102
RTVSPost2010Prop41ColorIndex
 90
       18
102
RTVSPost2010Prop41ColorRGB
 90
        0
102
RTVSPost2010PropOp41
 70
     0
102
RTVSPost2010Prop42
 90
       50
102
RTVSPost2010PropOp42
 70
     0
102
RTVSPost2010Prop43
 90
        3
102
RTVSPost2010PropOp43
 70
     0
102
RTVSPost2010Prop44ColorIndex
 90
        5
102
RTVSPost2010Prop44ColorRGB
 90
      255
102
RTVSPost2010PropOp44
 70
     0
102
RTVSPost2010Prop45
280
     0
102
RTVSPost2010PropOp45
 70
     0
102
RTVSPost2010Prop46
 90
       50
102
RTVSPost2010PropOp46
 70
     0
102
RTVSPost2010Prop47
 90
       50
102
RTVSPost2010PropOp47
 70
     0
102
RTVSPost2010Prop48
 90
       50
102
RTVSPost2010PropOp48
 70
     0
102
RTVSPost2010Prop49
280
     0
102
RTVSPost2010PropOp49
 70
     0
102
RTVSPost2010Prop50
 90
       50
102
RTVSPost2010PropOp50
 70
     0
102
RTVSPost2010Prop51ColorIndex
 90
      256
102
RTVSPost2010Prop51ColorRGB
 90
-16777216
102
RTVSPost2010PropOp51
 70
     0
102
RTVSPost2010Prop52
140
1.0
102
RTVSPost2010PropOp52
 70
     0
102
RTVSPost2010Prop53
 90
        2
102
RTVSPost2010PropOp53
 70
     0
102
RTVSPost2010Prop54
  1
strokes_ogs.tif
102
RTVSPost2010PropOp54
 70
     0
102
RTVSPost2010Prop55
280
     0
102
RTVSPost2010PropOp55
 70
     0
102
RTVSPost2010Prop56
140
1.0
102
RTVSPost2010PropOp56
 70
     0
102
RTVSPost2010Prop57
140
1.0
102
RTVSPost2010PropOp57
 70
     0
102
RTVSPropertyOp0
 70
     0
102
RTVSPropertyOp1
 70
     0
102
RTVSPropertyOp2
 70
     0
102
RTVSPropertyOp3
 70
     0
102
RTVSPropertyOp4
 70
     0
102
RTVSPropertyOp5
 70
     0
102
RTVSPropertyOp6
 70
     0
102
RTVSPropertyOp7
 70
     0
102
RTVSPropertyOp8
 70
     0
102
RTVSPropertyOp9
 70
     0
102
RTVSPropertyOp10
 70
     0
102
RTVSPropertyOp11
 70
     0
102
RTVSPropertyOp12
 70
     0
102
RTVSPropertyOp13
 70
     0
102
RTVSPropertyOp14
 70
     2
102
RTVSPropertyOp15
 70
     0
102
RTVSPropertyOp16
 70
     0
102
RTVSPropertyOp17
 70
     0
102
RTVSPropertyOp18
 70
     0
102
RTVSPropertyOp19
 70
     0
102
RTVSPropertyOp20
 70
     0
102
RTVSPropertyOp21
 70
     0
102
RTVSPropertyOp22
 70
     0
102
RTVSPropertyOp23
 70
     0
102
RTVSPropertyOp24
 70
     0
102
RTVSPropertyOp25
 70
     0
102
RTVSPropertyOp26
 70
     0
102
RTVSPropertyOp27
 70
     0
102
RTVSPropertyOp28
 70
     0
102
RTVSPropertyOp29
 70
     0
102
RTVSPropertyOp30
 70
     0
102
RTVSPropertyOp31
 70
     0
102
RTVSPropertyOp32
 70
     0
102
RTVSPropertyOp33
 70
     0
102
RTVSPropertyOp34
 70
     0
102
RTVSPropertyOp35
 70
     0
102
RTVSPropertyOp36
 70
     0
102
RTVSPropertyOp37
 70
     0
102
RTVSPropertyOp38
 70
     0
102
RTVSPropertyOp39
 70
     0
102
RTVSPropertyOp40
 70
     0
102
RTVSPropertyOp41
 70
     0
102
RTVSPropertyOp42
 70
     0
102
RTVSPropertyOp43
 70
     0
102
RTVSPropertyOp44
 70
     0
102
RTVSPropertyOp45
 70
     0
102
RTVSPropertyOp46
 70
     0
102
RTVSPropertyOp47
 70
     0
102
RTVSPropertyOp48
 70
     0
102
RTVSPropertyOp49
 70
     0
102
RTVSPropertyOp50
 70
     0
102
RTVSPropertyOp51
 70
     0
102
RTVSPropertyOp52
 70
     0
102
RTVSPropertyOp53
 70
     0
102
RTVSPropertyOp54
 70
     0
102
RTVSPropertyOp55
 70
     0
102
RTVSPropertyOp56
 70
     0
102
RTVSPropertyOp57
 70
     0
102
RTVSPropertyOp58
 70
     0
102
RTVSPropertyOp59
 70
     0
102
RTVSPropertyOp60
 70
     0
102
RTVSPropertyOp61
 70
     0
102
RTVSPropertyOp62
 70
     0
  0
XRECORD
  5
4178
102
{ACAD_REACTORS
330
4177
102
}
330
4177
100
AcDbXrecord
280
     1
102
RTVSPost2010Prop28
280
     0
102
RTVSPost2010PropOp28
 70
     1
102
RTVSPost2010Prop29
280
     1
102
RTVSPost2010PropOp29
 70
     1
102
RTVSPost2010Prop30
280
     1
102
RTVSPost2010PropOp30
 70
     1
102
RTVSPost2010Prop31
280
     0
102
RTVSPost2010PropOp31
 70
     1
102
RTVSPost2010Prop32
280
     0
102
RTVSPost2010PropOp32
 70
     1
102
RTVSPost2010Prop33
280
     0
102
RTVSPost2010PropOp33
 70
     1
102
RTVSPost2010Prop34
280
     0
102
RTVSPost2010PropOp34
 70
     1
102
RTVSPost2010Prop35
280
     0
102
RTVSPost2010PropOp35
 70
     1
102
RTVSPost2010Prop36
280
     0
102
RTVSPost2010PropOp36
 70
     1
102
RTVSPost2010Prop37
 90
       50
102
RTVSPost2010PropOp37
 70
     1
102
RTVSPost2010Prop38
140
0.0
102
RTVSPost2010PropOp38
 70
     1
102
RTVSPost2010Prop39
140
1.0
102
RTVSPost2010PropOp39
 70
     1
102
RTVSPost2010Prop40
 90
        0
102
RTVSPost2010PropOp40
 70
     1
102
RTVSPost2010Prop41ColorIndex
 90
       18
102
RTVSPost2010Prop41ColorRGB
 90
        0
102
RTVSPost2010PropOp41
 70
     1
102
RTVSPost2010Prop42
 90
       50
102
RTVSPost2010PropOp42
 70
     1
102
RTVSPost2010Prop43
 90
        3
102
RTVSPost2010PropOp43
 70
     1
102
RTVSPost2010Prop44ColorIndex
 90
        5
102
RTVSPost2010Prop44ColorRGB
 90
      255
102
RTVSPost2010PropOp44
 70
     1
102
RTVSPost2010Prop45
280
     0
102
RTVSPost2010PropOp45
 70
     1
102
RTVSPost2010Prop46
 90
       50
102
RTVSPost2010PropOp46
 70
     1
102
RTVSPost2010Prop47
 90
       50
102
RTVSPost2010PropOp47
 70
     1
102
RTVSPost2010Prop48
 90
       50
102
RTVSPost2010PropOp48
 70
     1
102
RTVSPost2010Prop49
280
     0
102
RTVSPost2010PropOp49
 70
     1
102
RTVSPost2010Prop50
 90
       50
102
RTVSPost2010PropOp50
 70
     1
102
RTVSPost2010Prop51ColorIndex
 90
      256
102
RTVSPost2010Prop51ColorRGB
 90
-16777216
102
RTVSPost2010PropOp51
 70
     0
102
RTVSPost2010Prop52
140
1.0
102
RTVSPost2010PropOp52
 70
     0
102
RTVSPost2010Prop53
 90
        2
102
RTVSPost2010PropOp53
 70
     1
102
RTVSPost2010Prop54
  1
strokes_ogs.tif
102
RTVSPost2010PropOp54
 70
     1
102
RTVSPost2010Prop55
280
     0
102
RTVSPost2010PropOp55
 70
     1
102
RTVSPost2010Prop56
140
1.0
102
RTVSPost2010PropOp56
 70
     1
102
RTVSPost2010Prop57
140
1.0
102
RTVSPost2010PropOp57
 70
     1
102
RTVSPropertyOp0
 70
     1
102
RTVSPropertyOp1
 70
     1
102
RTVSPropertyOp2
 70
     1
102
RTVSPropertyOp3
 70
     1
102
RTVSPropertyOp4
 70
     1
102
RTVSPropertyOp5
 70
     1
102
RTVSPropertyOp6
 70
     1
102
RTVSPropertyOp7
 70
     1
102
RTVSPropertyOp8
 70
     1
102
RTVSPropertyOp9
 70
     1
102
RTVSPropertyOp10
 70
     1
102
RTVSPropertyOp11
 70
     1
102
RTVSPropertyOp12
 70
     1
102
RTVSPropertyOp13
 70
     1
102
RTVSPropertyOp14
 70
     1
102
RTVSPropertyOp15
 70
     1
102
RTVSPropertyOp16
 70
     1
102
RTVSPropertyOp17
 70
     1
102
RTVSPropertyOp18
 70
     1
102
RTVSPropertyOp19
 70
     1
102
RTVSPropertyOp20
 70
     1
102
RTVSPropertyOp21
 70
     1
102
RTVSPropertyOp22
 70
     1
102
RTVSPropertyOp23
 70
     1
102
RTVSPropertyOp24
 70
     1
102
RTVSPropertyOp25
 70
     1
102
RTVSPropertyOp26
 70
     1
102
RTVSPropertyOp27
 70
     1
102
RTVSPropertyOp28
 70
     1
102
RTVSPropertyOp29
 70
     1
102
RTVSPropertyOp30
 70
     1
102
RTVSPropertyOp31
 70
     1
102
RTVSPropertyOp32
 70
     1
102
RTVSPropertyOp33
 70
     1
102
RTVSPropertyOp34
 70
     1
102
RTVSPropertyOp35
 70
     1
102
RTVSPropertyOp36
 70
     1
102
RTVSPropertyOp37
 70
     1
102
RTVSPropertyOp38
 70
     1
102
RTVSPropertyOp39
 70
     1
102
RTVSPropertyOp40
 70
     1
102
RTVSPropertyOp41
 70
     1
102
RTVSPropertyOp42
 70
     1
102
RTVSPropertyOp43
 70
     1
102
RTVSPropertyOp44
 70
     1
102
RTVSPropertyOp45
 70
     1
102
RTVSPropertyOp46
 70
     1
102
RTVSPropertyOp47
 70
     1
102
RTVSPropertyOp48
 70
     1
102
RTVSPropertyOp49
 70
     1
102
RTVSPropertyOp50
 70
     1
102
RTVSPropertyOp51
 70
     0
102
RTVSPropertyOp52
 70
     0
102
RTVSPropertyOp53
 70
     1
102
RTVSPropertyOp54
 70
     1
102
RTVSPropertyOp55
 70
     1
102
RTVSPropertyOp56
 70
     1
102
RTVSPropertyOp57
 70
     1
102
RTVSPropertyOp58
 70
     1
102
RTVSPropertyOp59
 70
     1
102
RTVSPropertyOp60
 70
     1
102
RTVSPropertyOp61
 70
     1
102
RTVSPropertyOp62
 70
     1
  0
XRECORD
  5
4194
102
{ACAD_REACTORS
330
4193
102
}
330
4193
100
AcDbXrecord
280
     1
102
RTVSPost2010Prop28
280
     0
102
RTVSPost2010PropOp28
 70
     1
102
RTVSPost2010Prop29
280
     1
102
RTVSPost2010PropOp29
 70
     1
102
RTVSPost2010Prop30
280
     1
102
RTVSPost2010PropOp30
 70
     1
102
RTVSPost2010Prop31
280
     0
102
RTVSPost2010PropOp31
 70
     1
102
RTVSPost2010Prop32
280
     0
102
RTVSPost2010PropOp32
 70
     1
102
RTVSPost2010Prop33
280
     0
102
RTVSPost2010PropOp33
 70
     1
102
RTVSPost2010Prop34
280
     0
102
RTVSPost2010PropOp34
 70
     1
102
RTVSPost2010Prop35
280
     0
102
RTVSPost2010PropOp35
 70
     1
102
RTVSPost2010Prop36
280
     0
102
RTVSPost2010PropOp36
 70
     1
102
RTVSPost2010Prop37
 90
       50
102
RTVSPost2010PropOp37
 70
     1
102
RTVSPost2010Prop38
140
0.0
102
RTVSPost2010PropOp38
 70
     1
102
RTVSPost2010Prop39
140
1.0
102
RTVSPost2010PropOp39
 70
     1
102
RTVSPost2010Prop40
 90
        0
102
RTVSPost2010PropOp40
 70
     1
102
RTVSPost2010Prop41ColorIndex
 90
       18
102
RTVSPost2010Prop41ColorRGB
 90
        0
102
RTVSPost2010PropOp41
 70
     1
102
RTVSPost2010Prop42
 90
       50
102
RTVSPost2010PropOp42
 70
     1
102
RTVSPost2010Prop43
 90
        3
102
RTVSPost2010PropOp43
 70
     1
102
RTVSPost2010Prop44ColorIndex
 90
        5
102
RTVSPost2010Prop44ColorRGB
 90
      255
102
RTVSPost2010PropOp44
 70
     1
102
RTVSPost2010Prop45
280
     0
102
RTVSPost2010PropOp45
 70
     1
102
RTVSPost2010Prop46
 90
       50
102
RTVSPost2010PropOp46
 70
     1
102
RTVSPost2010Prop47
 90
       50
102
RTVSPost2010PropOp47
 70
     1
102
RTVSPost2010Prop48
 90
       50
102
RTVSPost2010PropOp48
 70
     1
102
RTVSPost2010Prop49
280
     0
102
RTVSPost2010PropOp49
 70
     1
102
RTVSPost2010Prop50
 90
       50
102
RTVSPost2010PropOp50
 70
     1
102
RTVSPost2010Prop51ColorIndex
 90
      256
102
RTVSPost2010Prop51ColorRGB
 90
-16777216
102
RTVSPost2010PropOp51
 70
     0
102
RTVSPost2010Prop52
140
1.0
102
RTVSPost2010PropOp52
 70
     0
102
RTVSPost2010Prop53
 90
        2
102
RTVSPost2010PropOp53
 70
     1
102
RTVSPost2010Prop54
  1
strokes_ogs.tif
102
RTVSPost2010PropOp54
 70
     1
102
RTVSPost2010Prop55
280
     0
102
RTVSPost2010PropOp55
 70
     1
102
RTVSPost2010Prop56
140
1.0
102
RTVSPost2010PropOp56
 70
     1
102
RTVSPost2010Prop57
140
1.0
102
RTVSPost2010PropOp57
 70
     1
102
RTVSPropertyOp0
 70
     1
102
RTVSPropertyOp1
 70
     1
102
RTVSPropertyOp2
 70
     1
102
RTVSPropertyOp3
 70
     1
102
RTVSPropertyOp4
 70
     1
102
RTVSPropertyOp5
 70
     1
102
RTVSPropertyOp6
 70
     1
102
RTVSPropertyOp7
 70
     1
102
RTVSPropertyOp8
 70
     1
102
RTVSPropertyOp9
 70
     1
102
RTVSPropertyOp10
 70
     1
102
RTVSPropertyOp11
 70
     1
102
RTVSPropertyOp12
 70
     1
102
RTVSPropertyOp13
 70
     1
102
RTVSPropertyOp14
 70
     1
102
RTVSPropertyOp15
 70
     1
102
RTVSPropertyOp16
 70
     1
102
RTVSPropertyOp17
 70
     1
102
RTVSPropertyOp18
 70
     1
102
RTVSPropertyOp19
 70
     1
102
RTVSPropertyOp20
 70
     1
102
RTVSPropertyOp21
 70
     1
102
RTVSPropertyOp22
 70
     1
102
RTVSPropertyOp23
 70
     1
102
RTVSPropertyOp24
 70
     1
102
RTVSPropertyOp25
 70
     1
102
RTVSPropertyOp26
 70
     1
102
RTVSPropertyOp27
 70
     1
102
RTVSPropertyOp28
 70
     1
102
RTVSPropertyOp29
 70
     1
102
RTVSPropertyOp30
 70
     1
102
RTVSPropertyOp31
 70
     1
102
RTVSPropertyOp32
 70
     1
102
RTVSPropertyOp33
 70
     1
102
RTVSPropertyOp34
 70
     1
102
RTVSPropertyOp35
 70
     1
102
RTVSPropertyOp36
 70
     1
102
RTVSPropertyOp37
 70
     1
102
RTVSPropertyOp38
 70
     1
102
RTVSPropertyOp39
 70
     1
102
RTVSPropertyOp40
 70
     1
102
RTVSPropertyOp41
 70
     1
102
RTVSPropertyOp42
 70
     1
102
RTVSPropertyOp43
 70
     1
102
RTVSPropertyOp44
 70
     1
102
RTVSPropertyOp45
 70
     1
102
RTVSPropertyOp46
 70
     1
102
RTVSPropertyOp47
 70
     1
102
RTVSPropertyOp48
 70
     1
102
RTVSPropertyOp49
 70
     1
102
RTVSPropertyOp50
 70
     1
102
RTVSPropertyOp51
 70
     0
102
RTVSPropertyOp52
 70
     0
102
RTVSPropertyOp53
 70
     1
102
RTVSPropertyOp54
 70
     1
102
RTVSPropertyOp55
 70
     1
102
RTVSPropertyOp56
 70
     1
102
RTVSPropertyOp57
 70
     1
102
RTVSPropertyOp58
 70
     1
102
RTVSPropertyOp59
 70
     1
102
RTVSPropertyOp60
 70
     1
102
RTVSPropertyOp61
 70
     1
102
RTVSPropertyOp62
 70
     1
  0
XRECORD
  5
4192
102
{ACAD_REACTORS
330
4191
102
}
330
4191
100
AcDbXrecord
280
     1
102
RTVSPost2010Prop28
280
     0
102
RTVSPost2010PropOp28
 70
     1
102
RTVSPost2010Prop29
280
     1
102
RTVSPost2010PropOp29
 70
     1
102
RTVSPost2010Prop30
280
     1
102
RTVSPost2010PropOp30
 70
     1
102
RTVSPost2010Prop31
280
     0
102
RTVSPost2010PropOp31
 70
     1
102
RTVSPost2010Prop32
280
     0
102
RTVSPost2010PropOp32
 70
     1
102
RTVSPost2010Prop33
280
     0
102
RTVSPost2010PropOp33
 70
     1
102
RTVSPost2010Prop34
280
     0
102
RTVSPost2010PropOp34
 70
     1
102
RTVSPost2010Prop35
280
     0
102
RTVSPost2010PropOp35
 70
     1
102
RTVSPost2010Prop36
280
     0
102
RTVSPost2010PropOp36
 70
     1
102
RTVSPost2010Prop37
 90
       50
102
RTVSPost2010PropOp37
 70
     1
102
RTVSPost2010Prop38
140
0.0
102
RTVSPost2010PropOp38
 70
     1
102
RTVSPost2010Prop39
140
1.0
102
RTVSPost2010PropOp39
 70
     1
102
RTVSPost2010Prop40
 90
        0
102
RTVSPost2010PropOp40
 70
     1
102
RTVSPost2010Prop41ColorIndex
 90
       18
102
RTVSPost2010Prop41ColorRGB
 90
        0
102
RTVSPost2010PropOp41
 70
     1
102
RTVSPost2010Prop42
 90
       50
102
RTVSPost2010PropOp42
 70
     1
102
RTVSPost2010Prop43
 90
        3
102
RTVSPost2010PropOp43
 70
     1
102
RTVSPost2010Prop44ColorIndex
 90
        5
102
RTVSPost2010Prop44ColorRGB
 90
      255
102
RTVSPost2010PropOp44
 70
     1
102
RTVSPost2010Prop45
280
     0
102
RTVSPost2010PropOp45
 70
     1
102
RTVSPost2010Prop46
 90
       50
102
RTVSPost2010PropOp46
 70
     1
102
RTVSPost2010Prop47
 90
       50
102
RTVSPost2010PropOp47
 70
     1
102
RTVSPost2010Prop48
 90
       50
102
RTVSPost2010PropOp48
 70
     1
102
RTVSPost2010Prop49
280
     0
102
RTVSPost2010PropOp49
 70
     1
102
RTVSPost2010Prop50
 90
       50
102
RTVSPost2010PropOp50
 70
     1
102
RTVSPost2010Prop51ColorIndex
 90
      256
102
RTVSPost2010Prop51ColorRGB
 90
-16777216
102
RTVSPost2010PropOp51
 70
     0
102
RTVSPost2010Prop52
140
1.0
102
RTVSPost2010PropOp52
 70
     0
102
RTVSPost2010Prop53
 90
        2
102
RTVSPost2010PropOp53
 70
     1
102
RTVSPost2010Prop54
  1
strokes_ogs.tif
102
RTVSPost2010PropOp54
 70
     1
102
RTVSPost2010Prop55
280
     0
102
RTVSPost2010PropOp55
 70
     1
102
RTVSPost2010Prop56
140
1.0
102
RTVSPost2010PropOp56
 70
     1
102
RTVSPost2010Prop57
140
1.0
102
RTVSPost2010PropOp57
 70
     1
102
RTVSPropertyOp0
 70
     1
102
RTVSPropertyOp1
 70
     1
102
RTVSPropertyOp2
 70
     1
102
RTVSPropertyOp3
 70
     1
102
RTVSPropertyOp4
 70
     1
102
RTVSPropertyOp5
 70
     1
102
RTVSPropertyOp6
 70
     1
102
RTVSPropertyOp7
 70
     1
102
RTVSPropertyOp8
 70
     1
102
RTVSPropertyOp9
 70
     1
102
RTVSPropertyOp10
 70
     1
102
RTVSPropertyOp11
 70
     1
102
RTVSPropertyOp12
 70
     1
102
RTVSPropertyOp13
 70
     1
102
RTVSPropertyOp14
 70
     1
102
RTVSPropertyOp15
 70
     1
102
RTVSPropertyOp16
 70
     1
102
RTVSPropertyOp17
 70
     1
102
RTVSPropertyOp18
 70
     1
102
RTVSPropertyOp19
 70
     1
102
RTVSPropertyOp20
 70
     1
102
RTVSPropertyOp21
 70
     1
102
RTVSPropertyOp22
 70
     1
102
RTVSPropertyOp23
 70
     1
102
RTVSPropertyOp24
 70
     1
102
RTVSPropertyOp25
 70
     1
102
RTVSPropertyOp26
 70
     1
102
RTVSPropertyOp27
 70
     1
102
RTVSPropertyOp28
 70
     1
102
RTVSPropertyOp29
 70
     1
102
RTVSPropertyOp30
 70
     1
102
RTVSPropertyOp31
 70
     1
102
RTVSPropertyOp32
 70
     1
102
RTVSPropertyOp33
 70
     1
102
RTVSPropertyOp34
 70
     1
102
RTVSPropertyOp35
 70
     1
102
RTVSPropertyOp36
 70
     1
102
RTVSPropertyOp37
 70
     1
102
RTVSPropertyOp38
 70
     1
102
RTVSPropertyOp39
 70
     1
102
RTVSPropertyOp40
 70
     1
102
RTVSPropertyOp41
 70
     1
102
RTVSPropertyOp42
 70
     1
102
RTVSPropertyOp43
 70
     1
102
RTVSPropertyOp44
 70
     1
102
RTVSPropertyOp45
 70
     1
102
RTVSPropertyOp46
 70
     1
102
RTVSPropertyOp47
 70
     1
102
RTVSPropertyOp48
 70
     1
102
RTVSPropertyOp49
 70
     1
102
RTVSPropertyOp50
 70
     1
102
RTVSPropertyOp51
 70
     0
102
RTVSPropertyOp52
 70
     0
102
RTVSPropertyOp53
 70
     1
102
RTVSPropertyOp54
 70
     1
102
RTVSPropertyOp55
 70
     1
102
RTVSPropertyOp56
 70
     1
102
RTVSPropertyOp57
 70
     1
102
RTVSPropertyOp58
 70
     1
102
RTVSPropertyOp59
 70
     1
102
RTVSPropertyOp60
 70
     1
102
RTVSPropertyOp61
 70
     1
102
RTVSPropertyOp62
 70
     1
  0
XRECORD
  5
418C
102
{ACAD_REACTORS
330
418B
102
}
330
418B
100
AcDbXrecord
280
     1
102
RTVSPost2010Prop28
280
     0
102
RTVSPost2010PropOp28
 70
     1
102
RTVSPost2010Prop29
280
     1
102
RTVSPost2010PropOp29
 70
     1
102
RTVSPost2010Prop30
280
     1
102
RTVSPost2010PropOp30
 70
     1
102
RTVSPost2010Prop31
280
     0
102
RTVSPost2010PropOp31
 70
     1
102
RTVSPost2010Prop32
280
     0
102
RTVSPost2010PropOp32
 70
     1
102
RTVSPost2010Prop33
280
     0
102
RTVSPost2010PropOp33
 70
     1
102
RTVSPost2010Prop34
280
     0
102
RTVSPost2010PropOp34
 70
     1
102
RTVSPost2010Prop35
280
     0
102
RTVSPost2010PropOp35
 70
     1
102
RTVSPost2010Prop36
280
     0
102
RTVSPost2010PropOp36
 70
     1
102
RTVSPost2010Prop37
 90
       50
102
RTVSPost2010PropOp37
 70
     1
102
RTVSPost2010Prop38
140
0.0
102
RTVSPost2010PropOp38
 70
     1
102
RTVSPost2010Prop39
140
1.0
102
RTVSPost2010PropOp39
 70
     1
102
RTVSPost2010Prop40
 90
        0
102
RTVSPost2010PropOp40
 70
     1
102
RTVSPost2010Prop41ColorIndex
 90
       18
102
RTVSPost2010Prop41ColorRGB
 90
        0
102
RTVSPost2010PropOp41
 70
     1
102
RTVSPost2010Prop42
 90
       50
102
RTVSPost2010PropOp42
 70
     1
102
RTVSPost2010Prop43
 90
        3
102
RTVSPost2010PropOp43
 70
     1
102
RTVSPost2010Prop44ColorIndex
 90
        5
102
RTVSPost2010Prop44ColorRGB
 90
      255
102
RTVSPost2010PropOp44
 70
     1
102
RTVSPost2010Prop45
280
     0
102
RTVSPost2010PropOp45
 70
     1
102
RTVSPost2010Prop46
 90
       50
102
RTVSPost2010PropOp46
 70
     1
102
RTVSPost2010Prop47
 90
       50
102
RTVSPost2010PropOp47
 70
     1
102
RTVSPost2010Prop48
 90
       50
102
RTVSPost2010PropOp48
 70
     1
102
RTVSPost2010Prop49
280
     0
102
RTVSPost2010PropOp49
 70
     1
102
RTVSPost2010Prop50
 90
       50
102
RTVSPost2010PropOp50
 70
     1
102
RTVSPost2010Prop51ColorIndex
 90
      256
102
RTVSPost2010Prop51ColorRGB
 90
-16777216
102
RTVSPost2010PropOp51
 70
     0
102
RTVSPost2010Prop52
140
1.0
102
RTVSPost2010PropOp52
 70
     0
102
RTVSPost2010Prop53
 90
        2
102
RTVSPost2010PropOp53
 70
     1
102
RTVSPost2010Prop54
  1
strokes_ogs.tif
102
RTVSPost2010PropOp54
 70
     1
102
RTVSPost2010Prop55
280
     0
102
RTVSPost2010PropOp55
 70
     1
102
RTVSPost2010Prop56
140
1.0
102
RTVSPost2010PropOp56
 70
     1
102
RTVSPost2010Prop57
140
1.0
102
RTVSPost2010PropOp57
 70
     1
102
RTVSPropertyOp0
 70
     1
102
RTVSPropertyOp1
 70
     1
102
RTVSPropertyOp2
 70
     1
102
RTVSPropertyOp3
 70
     1
102
RTVSPropertyOp4
 70
     1
102
RTVSPropertyOp5
 70
     1
102
RTVSPropertyOp6
 70
     1
102
RTVSPropertyOp7
 70
     1
102
RTVSPropertyOp8
 70
     1
102
RTVSPropertyOp9
 70
     1
102
RTVSPropertyOp10
 70
     1
102
RTVSPropertyOp11
 70
     1
102
RTVSPropertyOp12
 70
     1
102
RTVSPropertyOp13
 70
     1
102
RTVSPropertyOp14
 70
     1
102
RTVSPropertyOp15
 70
     1
102
RTVSPropertyOp16
 70
     1
102
RTVSPropertyOp17
 70
     1
102
RTVSPropertyOp18
 70
     1
102
RTVSPropertyOp19
 70
     1
102
RTVSPropertyOp20
 70
     1
102
RTVSPropertyOp21
 70
     1
102
RTVSPropertyOp22
 70
     1
102
RTVSPropertyOp23
 70
     1
102
RTVSPropertyOp24
 70
     1
102
RTVSPropertyOp25
 70
     1
102
RTVSPropertyOp26
 70
     1
102
RTVSPropertyOp27
 70
     1
102
RTVSPropertyOp28
 70
     1
102
RTVSPropertyOp29
 70
     1
102
RTVSPropertyOp30
 70
     1
102
RTVSPropertyOp31
 70
     1
102
RTVSPropertyOp32
 70
     1
102
RTVSPropertyOp33
 70
     1
102
RTVSPropertyOp34
 70
     1
102
RTVSPropertyOp35
 70
     1
102
RTVSPropertyOp36
 70
     1
102
RTVSPropertyOp37
 70
     1
102
RTVSPropertyOp38
 70
     1
102
RTVSPropertyOp39
 70
     1
102
RTVSPropertyOp40
 70
     1
102
RTVSPropertyOp41
 70
     1
102
RTVSPropertyOp42
 70
     1
102
RTVSPropertyOp43
 70
     1
102
RTVSPropertyOp44
 70
     1
102
RTVSPropertyOp45
 70
     1
102
RTVSPropertyOp46
 70
     1
102
RTVSPropertyOp47
 70
     1
102
RTVSPropertyOp48
 70
     1
102
RTVSPropertyOp49
 70
     1
102
RTVSPropertyOp50
 70
     1
102
RTVSPropertyOp51
 70
     0
102
RTVSPropertyOp52
 70
     0
102
RTVSPropertyOp53
 70
     1
102
RTVSPropertyOp54
 70
     1
102
RTVSPropertyOp55
 70
     1
102
RTVSPropertyOp56
 70
     1
102
RTVSPropertyOp57
 70
     1
102
RTVSPropertyOp58
 70
     1
102
RTVSPropertyOp59
 70
     1
102
RTVSPropertyOp60
 70
     1
102
RTVSPropertyOp61
 70
     1
102
RTVSPropertyOp62
 70
     1
  0
XRECORD
  5
418E
102
{ACAD_REACTORS
330
418D
102
}
330
418D
100
AcDbXrecord
280
     1
102
RTVSPost2010Prop28
280
     0
102
RTVSPost2010PropOp28
 70
     1
102
RTVSPost2010Prop29
280
     1
102
RTVSPost2010PropOp29
 70
     1
102
RTVSPost2010Prop30
280
     1
102
RTVSPost2010PropOp30
 70
     1
102
RTVSPost2010Prop31
280
     0
102
RTVSPost2010PropOp31
 70
     1
102
RTVSPost2010Prop32
280
     0
102
RTVSPost2010PropOp32
 70
     1
102
RTVSPost2010Prop33
280
     0
102
RTVSPost2010PropOp33
 70
     1
102
RTVSPost2010Prop34
280
     0
102
RTVSPost2010PropOp34
 70
     1
102
RTVSPost2010Prop35
280
     0
102
RTVSPost2010PropOp35
 70
     1
102
RTVSPost2010Prop36
280
     0
102
RTVSPost2010PropOp36
 70
     1
102
RTVSPost2010Prop37
 90
       50
102
RTVSPost2010PropOp37
 70
     1
102
RTVSPost2010Prop38
140
0.0
102
RTVSPost2010PropOp38
 70
     1
102
RTVSPost2010Prop39
140
1.0
102
RTVSPost2010PropOp39
 70
     1
102
RTVSPost2010Prop40
 90
        0
102
RTVSPost2010PropOp40
 70
     1
102
RTVSPost2010Prop41ColorIndex
 90
       18
102
RTVSPost2010Prop41ColorRGB
 90
        0
102
RTVSPost2010PropOp41
 70
     1
102
RTVSPost2010Prop42
 90
       50
102
RTVSPost2010PropOp42
 70
     1
102
RTVSPost2010Prop43
 90
        3
102
RTVSPost2010PropOp43
 70
     1
102
RTVSPost2010Prop44ColorIndex
 90
        5
102
RTVSPost2010Prop44ColorRGB
 90
      255
102
RTVSPost2010PropOp44
 70
     1
102
RTVSPost2010Prop45
280
     0
102
RTVSPost2010PropOp45
 70
     1
102
RTVSPost2010Prop46
 90
       50
102
RTVSPost2010PropOp46
 70
     1
102
RTVSPost2010Prop47
 90
       50
102
RTVSPost2010PropOp47
 70
     1
102
RTVSPost2010Prop48
 90
       50
102
RTVSPost2010PropOp48
 70
     1
102
RTVSPost2010Prop49
280
     0
102
RTVSPost2010PropOp49
 70
     1
102
RTVSPost2010Prop50
 90
       50
102
RTVSPost2010PropOp50
 70
     1
102
RTVSPost2010Prop51ColorIndex
 90
      256
102
RTVSPost2010Prop51ColorRGB
 90
-16777216
102
RTVSPost2010PropOp51
 70
     0
102
RTVSPost2010Prop52
140
1.0
102
RTVSPost2010PropOp52
 70
     0
102
RTVSPost2010Prop53
 90
        2
102
RTVSPost2010PropOp53
 70
     1
102
RTVSPost2010Prop54
  1
strokes_ogs.tif
102
RTVSPost2010PropOp54
 70
     1
102
RTVSPost2010Prop55
280
     0
102
RTVSPost2010PropOp55
 70
     1
102
RTVSPost2010Prop56
140
1.0
102
RTVSPost2010PropOp56
 70
     1
102
RTVSPost2010Prop57
140
1.0
102
RTVSPost2010PropOp57
 70
     1
102
RTVSPropertyOp0
 70
     1
102
RTVSPropertyOp1
 70
     1
102
RTVSPropertyOp2
 70
     1
102
RTVSPropertyOp3
 70
     1
102
RTVSPropertyOp4
 70
     1
102
RTVSPropertyOp5
 70
     1
102
RTVSPropertyOp6
 70
     1
102
RTVSPropertyOp7
 70
     1
102
RTVSPropertyOp8
 70
     1
102
RTVSPropertyOp9
 70
     1
102
RTVSPropertyOp10
 70
     1
102
RTVSPropertyOp11
 70
     1
102
RTVSPropertyOp12
 70
     1
102
RTVSPropertyOp13
 70
     1
102
RTVSPropertyOp14
 70
     1
102
RTVSPropertyOp15
 70
     1
102
RTVSPropertyOp16
 70
     1
102
RTVSPropertyOp17
 70
     1
102
RTVSPropertyOp18
 70
     1
102
RTVSPropertyOp19
 70
     1
102
RTVSPropertyOp20
 70
     1
102
RTVSPropertyOp21
 70
     1
102
RTVSPropertyOp22
 70
     1
102
RTVSPropertyOp23
 70
     1
102
RTVSPropertyOp24
 70
     1
102
RTVSPropertyOp25
 70
     1
102
RTVSPropertyOp26
 70
     1
102
RTVSPropertyOp27
 70
     1
102
RTVSPropertyOp28
 70
     1
102
RTVSPropertyOp29
 70
     1
102
RTVSPropertyOp30
 70
     1
102
RTVSPropertyOp31
 70
     1
102
RTVSPropertyOp32
 70
     1
102
RTVSPropertyOp33
 70
     1
102
RTVSPropertyOp34
 70
     1
102
RTVSPropertyOp35
 70
     1
102
RTVSPropertyOp36
 70
     1
102
RTVSPropertyOp37
 70
     1
102
RTVSPropertyOp38
 70
     1
102
RTVSPropertyOp39
 70
     1
102
RTVSPropertyOp40
 70
     1
102
RTVSPropertyOp41
 70
     1
102
RTVSPropertyOp42
 70
     1
102
RTVSPropertyOp43
 70
     1
102
RTVSPropertyOp44
 70
     1
102
RTVSPropertyOp45
 70
     1
102
RTVSPropertyOp46
 70
     1
102
RTVSPropertyOp47
 70
     1
102
RTVSPropertyOp48
 70
     1
102
RTVSPropertyOp49
 70
     1
102
RTVSPropertyOp50
 70
     1
102
RTVSPropertyOp51
 70
     0
102
RTVSPropertyOp52
 70
     0
102
RTVSPropertyOp53
 70
     1
102
RTVSPropertyOp54
 70
     1
102
RTVSPropertyOp55
 70
     1
102
RTVSPropertyOp56
 70
     1
102
RTVSPropertyOp57
 70
     1
102
RTVSPropertyOp58
 70
     1
102
RTVSPropertyOp59
 70
     1
102
RTVSPropertyOp60
 70
     1
102
RTVSPropertyOp61
 70
     1
102
RTVSPropertyOp62
 70
     1
  0
XRECORD
  5
417E
102
{ACAD_REACTORS
330
417D
102
}
330
417D
100
AcDbXrecord
280
     1
102
RTVSPost2010Prop28
280
     0
102
RTVSPost2010PropOp28
 70
     1
102
RTVSPost2010Prop29
280
     1
102
RTVSPost2010PropOp29
 70
     1
102
RTVSPost2010Prop30
280
     1
102
RTVSPost2010PropOp30
 70
     1
102
RTVSPost2010Prop31
280
     0
102
RTVSPost2010PropOp31
 70
     1
102
RTVSPost2010Prop32
280
     0
102
RTVSPost2010PropOp32
 70
     1
102
RTVSPost2010Prop33
280
     0
102
RTVSPost2010PropOp33
 70
     1
102
RTVSPost2010Prop34
280
     0
102
RTVSPost2010PropOp34
 70
     1
102
RTVSPost2010Prop35
280
     0
102
RTVSPost2010PropOp35
 70
     1
102
RTVSPost2010Prop36
280
     0
102
RTVSPost2010PropOp36
 70
     1
102
RTVSPost2010Prop37
 90
       50
102
RTVSPost2010PropOp37
 70
     1
102
RTVSPost2010Prop38
140
0.0
102
RTVSPost2010PropOp38
 70
     1
102
RTVSPost2010Prop39
140
1.0
102
RTVSPost2010PropOp39
 70
     1
102
RTVSPost2010Prop40
 90
        0
102
RTVSPost2010PropOp40
 70
     1
102
RTVSPost2010Prop41ColorIndex
 90
       18
102
RTVSPost2010Prop41ColorRGB
 90
        0
102
RTVSPost2010PropOp41
 70
     1
102
RTVSPost2010Prop42
 90
       50
102
RTVSPost2010PropOp42
 70
     1
102
RTVSPost2010Prop43
 90
        3
102
RTVSPost2010PropOp43
 70
     1
102
RTVSPost2010Prop44ColorIndex
 90
        5
102
RTVSPost2010Prop44ColorRGB
 90
      255
102
RTVSPost2010PropOp44
 70
     1
102
RTVSPost2010Prop45
280
     0
102
RTVSPost2010PropOp45
 70
     1
102
RTVSPost2010Prop46
 90
       50
102
RTVSPost2010PropOp46
 70
     1
102
RTVSPost2010Prop47
 90
       50
102
RTVSPost2010PropOp47
 70
     1
102
RTVSPost2010Prop48
 90
       50
102
RTVSPost2010PropOp48
 70
     1
102
RTVSPost2010Prop49
280
     0
102
RTVSPost2010PropOp49
 70
     1
102
RTVSPost2010Prop50
 90
       50
102
RTVSPost2010PropOp50
 70
     1
102
RTVSPost2010Prop51ColorIndex
 90
      256
102
RTVSPost2010Prop51ColorRGB
 90
-16777216
102
RTVSPost2010PropOp51
 70
     0
102
RTVSPost2010Prop52
140
1.0
102
RTVSPost2010PropOp52
 70
     0
102
RTVSPost2010Prop53
 90
        2
102
RTVSPost2010PropOp53
 70
     1
102
RTVSPost2010Prop54
  1
strokes_ogs.tif
102
RTVSPost2010PropOp54
 70
     1
102
RTVSPost2010Prop55
280
     0
102
RTVSPost2010PropOp55
 70
     1
102
RTVSPost2010Prop56
140
1.0
102
RTVSPost2010PropOp56
 70
     1
102
RTVSPost2010Prop57
140
1.0
102
RTVSPost2010PropOp57
 70
     1
102
RTVSPropertyOp0
 70
     1
102
RTVSPropertyOp1
 70
     1
102
RTVSPropertyOp2
 70
     1
102
RTVSPropertyOp3
 70
     1
102
RTVSPropertyOp4
 70
     1
102
RTVSPropertyOp5
 70
     1
102
RTVSPropertyOp6
 70
     1
102
RTVSPropertyOp7
 70
     1
102
RTVSPropertyOp8
 70
     1
102
RTVSPropertyOp9
 70
     1
102
RTVSPropertyOp10
 70
     1
102
RTVSPropertyOp11
 70
     1
102
RTVSPropertyOp12
 70
     1
102
RTVSPropertyOp13
 70
     1
102
RTVSPropertyOp14
 70
     1
102
RTVSPropertyOp15
 70
     1
102
RTVSPropertyOp16
 70
     1
102
RTVSPropertyOp17
 70
     1
102
RTVSPropertyOp18
 70
     1
102
RTVSPropertyOp19
 70
     1
102
RTVSPropertyOp20
 70
     1
102
RTVSPropertyOp21
 70
     1
102
RTVSPropertyOp22
 70
     1
102
RTVSPropertyOp23
 70
     1
102
RTVSPropertyOp24
 70
     1
102
RTVSPropertyOp25
 70
     1
102
RTVSPropertyOp26
 70
     1
102
RTVSPropertyOp27
 70
     1
102
RTVSPropertyOp28
 70
     1
102
RTVSPropertyOp29
 70
     1
102
RTVSPropertyOp30
 70
     1
102
RTVSPropertyOp31
 70
     1
102
RTVSPropertyOp32
 70
     1
102
RTVSPropertyOp33
 70
     1
102
RTVSPropertyOp34
 70
     1
102
RTVSPropertyOp35
 70
     1
102
RTVSPropertyOp36
 70
     1
102
RTVSPropertyOp37
 70
     1
102
RTVSPropertyOp38
 70
     1
102
RTVSPropertyOp39
 70
     1
102
RTVSPropertyOp40
 70
     1
102
RTVSPropertyOp41
 70
     1
102
RTVSPropertyOp42
 70
     1
102
RTVSPropertyOp43
 70
     1
102
RTVSPropertyOp44
 70
     1
102
RTVSPropertyOp45
 70
     1
102
RTVSPropertyOp46
 70
     1
102
RTVSPropertyOp47
 70
     1
102
RTVSPropertyOp48
 70
     1
102
RTVSPropertyOp49
 70
     1
102
RTVSPropertyOp50
 70
     1
102
RTVSPropertyOp51
 70
     0
102
RTVSPropertyOp52
 70
     0
102
RTVSPropertyOp53
 70
     1
102
RTVSPropertyOp54
 70
     1
102
RTVSPropertyOp55
 70
     1
102
RTVSPropertyOp56
 70
     1
102
RTVSPropertyOp57
 70
     1
102
RTVSPropertyOp58
 70
     1
102
RTVSPropertyOp59
 70
     1
102
RTVSPropertyOp60
 70
     1
102
RTVSPropertyOp61
 70
     1
102
RTVSPropertyOp62
 70
     1
  0
XRECORD
  5
4188
102
{ACAD_REACTORS
330
4187
102
}
330
4187
100
AcDbXrecord
280
     1
102
RTVSPost2010Prop28
280
     0
102
RTVSPost2010PropOp28
 70
     1
102
RTVSPost2010Prop29
280
     1
102
RTVSPost2010PropOp29
 70
     1
102
RTVSPost2010Prop30
280
     1
102
RTVSPost2010PropOp30
 70
     1
102
RTVSPost2010Prop31
280
     0
102
RTVSPost2010PropOp31
 70
     1
102
RTVSPost2010Prop32
280
     0
102
RTVSPost2010PropOp32
 70
     1
102
RTVSPost2010Prop33
280
     0
102
RTVSPost2010PropOp33
 70
     1
102
RTVSPost2010Prop34
280
     0
102
RTVSPost2010PropOp34
 70
     1
102
RTVSPost2010Prop35
280
     0
102
RTVSPost2010PropOp35
 70
     1
102
RTVSPost2010Prop36
280
     0
102
RTVSPost2010PropOp36
 70
     1
102
RTVSPost2010Prop37
 90
       50
102
RTVSPost2010PropOp37
 70
     1
102
RTVSPost2010Prop38
140
0.0
102
RTVSPost2010PropOp38
 70
     1
102
RTVSPost2010Prop39
140
1.0
102
RTVSPost2010PropOp39
 70
     1
102
RTVSPost2010Prop40
 90
        0
102
RTVSPost2010PropOp40
 70
     1
102
RTVSPost2010Prop41ColorIndex
 90
       18
102
RTVSPost2010Prop41ColorRGB
 90
        0
102
RTVSPost2010PropOp41
 70
     1
102
RTVSPost2010Prop42
 90
       50
102
RTVSPost2010PropOp42
 70
     1
102
RTVSPost2010Prop43
 90
        3
102
RTVSPost2010PropOp43
 70
     1
102
RTVSPost2010Prop44ColorIndex
 90
        5
102
RTVSPost2010Prop44ColorRGB
 90
      255
102
RTVSPost2010PropOp44
 70
     1
102
RTVSPost2010Prop45
280
     0
102
RTVSPost2010PropOp45
 70
     1
102
RTVSPost2010Prop46
 90
       50
102
RTVSPost2010PropOp46
 70
     1
102
RTVSPost2010Prop47
 90
       50
102
RTVSPost2010PropOp47
 70
     1
102
RTVSPost2010Prop48
 90
       50
102
RTVSPost2010PropOp48
 70
     1
102
RTVSPost2010Prop49
280
     0
102
RTVSPost2010PropOp49
 70
     1
102
RTVSPost2010Prop50
 90
       50
102
RTVSPost2010PropOp50
 70
     1
102
RTVSPost2010Prop51ColorIndex
 90
      256
102
RTVSPost2010Prop51ColorRGB
 90
-16777216
102
RTVSPost2010PropOp51
 70
     0
102
RTVSPost2010Prop52
140
1.0
102
RTVSPost2010PropOp52
 70
     0
102
RTVSPost2010Prop53
 90
        2
102
RTVSPost2010PropOp53
 70
     1
102
RTVSPost2010Prop54
  1
strokes_ogs.tif
102
RTVSPost2010PropOp54
 70
     1
102
RTVSPost2010Prop55
280
     0
102
RTVSPost2010PropOp55
 70
     1
102
RTVSPost2010Prop56
140
1.0
102
RTVSPost2010PropOp56
 70
     1
102
RTVSPost2010Prop57
140
1.0
102
RTVSPost2010PropOp57
 70
     1
102
RTVSPropertyOp0
 70
     1
102
RTVSPropertyOp1
 70
     1
102
RTVSPropertyOp2
 70
     1
102
RTVSPropertyOp3
 70
     1
102
RTVSPropertyOp4
 70
     1
102
RTVSPropertyOp5
 70
     1
102
RTVSPropertyOp6
 70
     1
102
RTVSPropertyOp7
 70
     1
102
RTVSPropertyOp8
 70
     1
102
RTVSPropertyOp9
 70
     1
102
RTVSPropertyOp10
 70
     1
102
RTVSPropertyOp11
 70
     1
102
RTVSPropertyOp12
 70
     1
102
RTVSPropertyOp13
 70
     1
102
RTVSPropertyOp14
 70
     1
102
RTVSPropertyOp15
 70
     1
102
RTVSPropertyOp16
 70
     1
102
RTVSPropertyOp17
 70
     1
102
RTVSPropertyOp18
 70
     1
102
RTVSPropertyOp19
 70
     1
102
RTVSPropertyOp20
 70
     1
102
RTVSPropertyOp21
 70
     1
102
RTVSPropertyOp22
 70
     1
102
RTVSPropertyOp23
 70
     1
102
RTVSPropertyOp24
 70
     1
102
RTVSPropertyOp25
 70
     1
102
RTVSPropertyOp26
 70
     1
102
RTVSPropertyOp27
 70
     1
102
RTVSPropertyOp28
 70
     1
102
RTVSPropertyOp29
 70
     1
102
RTVSPropertyOp30
 70
     1
102
RTVSPropertyOp31
 70
     1
102
RTVSPropertyOp32
 70
     1
102
RTVSPropertyOp33
 70
     1
102
RTVSPropertyOp34
 70
     1
102
RTVSPropertyOp35
 70
     1
102
RTVSPropertyOp36
 70
     1
102
RTVSPropertyOp37
 70
     1
102
RTVSPropertyOp38
 70
     1
102
RTVSPropertyOp39
 70
     1
102
RTVSPropertyOp40
 70
     1
102
RTVSPropertyOp41
 70
     1
102
RTVSPropertyOp42
 70
     1
102
RTVSPropertyOp43
 70
     1
102
RTVSPropertyOp44
 70
     1
102
RTVSPropertyOp45
 70
     1
102
RTVSPropertyOp46
 70
     1
102
RTVSPropertyOp47
 70
     1
102
RTVSPropertyOp48
 70
     1
102
RTVSPropertyOp49
 70
     1
102
RTVSPropertyOp50
 70
     1
102
RTVSPropertyOp51
 70
     0
102
RTVSPropertyOp52
 70
     0
102
RTVSPropertyOp53
 70
     1
102
RTVSPropertyOp54
 70
     1
102
RTVSPropertyOp55
 70
     1
102
RTVSPropertyOp56
 70
     1
102
RTVSPropertyOp57
 70
     1
102
RTVSPropertyOp58
 70
     1
102
RTVSPropertyOp59
 70
     1
102
RTVSPropertyOp60
 70
     1
102
RTVSPropertyOp61
 70
     1
102
RTVSPropertyOp62
 70
     1
  0
XRECORD
  5
4190
102
{ACAD_REACTORS
330
418F
102
}
330
418F
100
AcDbXrecord
280
     1
102
RTVSPost2010Prop28
280
     0
102
RTVSPost2010PropOp28
 70
     1
102
RTVSPost2010Prop29
280
     1
102
RTVSPost2010PropOp29
 70
     1
102
RTVSPost2010Prop30
280
     1
102
RTVSPost2010PropOp30
 70
     1
102
RTVSPost2010Prop31
280
     0
102
RTVSPost2010PropOp31
 70
     1
102
RTVSPost2010Prop32
280
     0
102
RTVSPost2010PropOp32
 70
     1
102
RTVSPost2010Prop33
280
     0
102
RTVSPost2010PropOp33
 70
     1
102
RTVSPost2010Prop34
280
     0
102
RTVSPost2010PropOp34
 70
     1
102
RTVSPost2010Prop35
280
     0
102
RTVSPost2010PropOp35
 70
     1
102
RTVSPost2010Prop36
280
     0
102
RTVSPost2010PropOp36
 70
     1
102
RTVSPost2010Prop37
 90
       50
102
RTVSPost2010PropOp37
 70
     1
102
RTVSPost2010Prop38
140
0.0
102
RTVSPost2010PropOp38
 70
     1
102
RTVSPost2010Prop39
140
1.0
102
RTVSPost2010PropOp39
 70
     1
102
RTVSPost2010Prop40
 90
        0
102
RTVSPost2010PropOp40
 70
     1
102
RTVSPost2010Prop41ColorIndex
 90
       18
102
RTVSPost2010Prop41ColorRGB
 90
        0
102
RTVSPost2010PropOp41
 70
     1
102
RTVSPost2010Prop42
 90
       50
102
RTVSPost2010PropOp42
 70
     1
102
RTVSPost2010Prop43
 90
        3
102
RTVSPost2010PropOp43
 70
     1
102
RTVSPost2010Prop44ColorIndex
 90
        5
102
RTVSPost2010Prop44ColorRGB
 90
      255
102
RTVSPost2010PropOp44
 70
     1
102
RTVSPost2010Prop45
280
     0
102
RTVSPost2010PropOp45
 70
     1
102
RTVSPost2010Prop46
 90
       50
102
RTVSPost2010PropOp46
 70
     1
102
RTVSPost2010Prop47
 90
       50
102
RTVSPost2010PropOp47
 70
     1
102
RTVSPost2010Prop48
 90
       50
102
RTVSPost2010PropOp48
 70
     1
102
RTVSPost2010Prop49
280
     0
102
RTVSPost2010PropOp49
 70
     1
102
RTVSPost2010Prop50
 90
       50
102
RTVSPost2010PropOp50
 70
     1
102
RTVSPost2010Prop51ColorIndex
 90
      256
102
RTVSPost2010Prop51ColorRGB
 90
-16777216
102
RTVSPost2010PropOp51
 70
     0
102
RTVSPost2010Prop52
140
1.0
102
RTVSPost2010PropOp52
 70
     0
102
RTVSPost2010Prop53
 90
        2
102
RTVSPost2010PropOp53
 70
     1
102
RTVSPost2010Prop54
  1
strokes_ogs.tif
102
RTVSPost2010PropOp54
 70
     1
102
RTVSPost2010Prop55
280
     0
102
RTVSPost2010PropOp55
 70
     1
102
RTVSPost2010Prop56
140
1.0
102
RTVSPost2010PropOp56
 70
     1
102
RTVSPost2010Prop57
140
1.0
102
RTVSPost2010PropOp57
 70
     1
102
RTVSPropertyOp0
 70
     1
102
RTVSPropertyOp1
 70
     1
102
RTVSPropertyOp2
 70
     1
102
RTVSPropertyOp3
 70
     1
102
RTVSPropertyOp4
 70
     1
102
RTVSPropertyOp5
 70
     1
102
RTVSPropertyOp6
 70
     1
102
RTVSPropertyOp7
 70
     1
102
RTVSPropertyOp8
 70
     1
102
RTVSPropertyOp9
 70
     1
102
RTVSPropertyOp10
 70
     1
102
RTVSPropertyOp11
 70
     1
102
RTVSPropertyOp12
 70
     1
102
RTVSPropertyOp13
 70
     1
102
RTVSPropertyOp14
 70
     1
102
RTVSPropertyOp15
 70
     1
102
RTVSPropertyOp16
 70
     1
102
RTVSPropertyOp17
 70
     1
102
RTVSPropertyOp18
 70
     1
102
RTVSPropertyOp19
 70
     1
102
RTVSPropertyOp20
 70
     1
102
RTVSPropertyOp21
 70
     1
102
RTVSPropertyOp22
 70
     1
102
RTVSPropertyOp23
 70
     1
102
RTVSPropertyOp24
 70
     1
102
RTVSPropertyOp25
 70
     1
102
RTVSPropertyOp26
 70
     1
102
RTVSPropertyOp27
 70
     1
102
RTVSPropertyOp28
 70
     1
102
RTVSPropertyOp29
 70
     1
102
RTVSPropertyOp30
 70
     1
102
RTVSPropertyOp31
 70
     1
102
RTVSPropertyOp32
 70
     1
102
RTVSPropertyOp33
 70
     1
102
RTVSPropertyOp34
 70
     1
102
RTVSPropertyOp35
 70
     1
102
RTVSPropertyOp36
 70
     1
102
RTVSPropertyOp37
 70
     1
102
RTVSPropertyOp38
 70
     1
102
RTVSPropertyOp39
 70
     1
102
RTVSPropertyOp40
 70
     1
102
RTVSPropertyOp41
 70
     1
102
RTVSPropertyOp42
 70
     1
102
RTVSPropertyOp43
 70
     1
102
RTVSPropertyOp44
 70
     1
102
RTVSPropertyOp45
 70
     1
102
RTVSPropertyOp46
 70
     1
102
RTVSPropertyOp47
 70
     1
102
RTVSPropertyOp48
 70
     1
102
RTVSPropertyOp49
 70
     1
102
RTVSPropertyOp50
 70
     1
102
RTVSPropertyOp51
 70
     0
102
RTVSPropertyOp52
 70
     0
102
RTVSPropertyOp53
 70
     1
102
RTVSPropertyOp54
 70
     1
102
RTVSPropertyOp55
 70
     1
102
RTVSPropertyOp56
 70
     1
102
RTVSPropertyOp57
 70
     1
102
RTVSPropertyOp58
 70
     1
102
RTVSPropertyOp59
 70
     1
102
RTVSPropertyOp60
 70
     1
102
RTVSPropertyOp61
 70
     1
102
RTVSPropertyOp62
 70
     1
  0
XRECORD
  5
35F9
102
{ACAD_REACTORS
330
35F8
102
}
330
35F8
100
AcDbXrecord
280
     1
330
2F64
  0
ENDSEC
  0
EOF
