  0
SECTION
  2
HEADER
  9
$ACADVER
  1
AC1018
  9
$ACADMAINTVER
 70
   104
  9
$DWGCODEPAGE
  3
ANSI_1252
  9
$LASTSAVEDBY
  1
Dennis
  9
$INSBASE
 10
0.0
 20
0.0
 30
0.0
  9
$EXTMIN
 10
-805.2819192090282
 20
4106.884837037568
 30
0.0
  9
$EXTMAX
 10
324.7180807909863
 20
5337.690883011672
 30
0.0
  9
$LIMMIN
 10
0.0
 20
0.0
  9
$LIMMAX
 10
420.0
 20
297.0
  9
$ORTHOMODE
 70
     0
  9
$REGENMODE
 70
     1
  9
$FILLMODE
 70
     1
  9
$QTEXTMODE
 70
     0
  9
$MIRRTEXT
 70
     1
  9
$LTSCALE
 40
1.0
  9
$ATTMODE
 70
     1
  9
$TEXTSIZE
 40
2.5
  9
$TRACEWID
 40
1.0
  9
$TEXTSTYLE
  7
Standard
  9
$CLAYER
  8
hatch
  9
$CELTYPE
  6
ByLayer
  9
$CECOLOR
 62
   256
  9
$CELTSCALE
 40
10.0
  9
$DISPSILH
 70
     0
  9
$DIMSCALE
 40
0.0
  9
$DIMASZ
 40
3.0
  9
$DIMEXO
 40
1.0
  9
$DIMDLI
 40
1.0
  9
$DIMRND
 40
0.0
  9
$DIMDLE
 40
0.0
  9
$DIMEXE
 40
1.0
  9
$DIMTP
 40
0.0
  9
$DIMTM
 40
0.0
  9
$DIMTXT
 40
2.5
  9
$DIMCEN
 40
0.09
  9
$DIMTSZ
 40
0.0
  9
$DIMTOL
 70
     0
  9
$DIMLIM
 70
     0
  9
$DIMTIH
 70
     0
  9
$DIMTOH
 70
     0
  9
$DIMSE1
 70
     0
  9
$DIMSE2
 70
     0
  9
$DIMTAD
 70
     1
  9
$DIMZIN
 70
     0
  9
$DIMBLK
  1

  9
$DIMASO
 70
     1
  9
$DIMSHO
 70
     1
  9
$DIMPOST
  1

  9
$DIMAPOST
  1

  9
$DIMALT
 70
     0
  9
$DIMALTD
 70
     2
  9
$DIMALTF
 40
25.4
  9
$DIMLFAC
 40
1.0
  9
$DIMTOFL
 70
     0
  9
$DIMTVP
 40
0.0
  9
$DIMTIX
 70
     0
  9
$DIMSOXD
 70
     0
  9
$DIMSAH
 70
     0
  9
$DIMBLK1
  1

  9
$DIMBLK2
  1

  9
$DIMSTYLE
  2
Standard
  9
$DIMCLRD
 70
     7
  9
$DIMCLRE
 70
     7
  9
$DIMCLRT
 70
     7
  9
$DIMTFAC
 40
1.0
  9
$DIMGAP
 40
1.0
  9
$DIMJUST
 70
     0
  9
$DIMSD1
 70
     0
  9
$DIMSD2
 70
     0
  9
$DIMTOLJ
 70
     1
  9
$DIMTZIN
 70
     0
  9
$DIMALTZ
 70
     0
  9
$DIMALTTZ
 70
     0
  9
$DIMUPT
 70
     0
  9
$DIMDEC
 70
     0
  9
$DIMTDEC
 70
     0
  9
$DIMALTU
 70
     2
  9
$DIMALTTD
 70
     2
  9
$DIMTXSTY
  7
1
  9
$DIMAUNIT
 70
     0
  9
$DIMADEC
 70
     0
  9
$DIMALTRND
 40
0.0
  9
$DIMAZIN
 70
     0
  9
$DIMDSEP
 70
    46
  9
$DIMATFIT
 70
     3
  9
$DIMFRAC
 70
     0
  9
$DIMLDRBLK
  1

  9
$DIMLUNIT
 70
     2
  9
$DIMLWD
 70
    -2
  9
$DIMLWE
 70
    -2
  9
$DIMTMOVE
 70
     0
  9
$LUNITS
 70
     2
  9
$LUPREC
 70
     4
  9
$SKETCHINC
 40
1.0
  9
$FILLETRAD
 40
0.0
  9
$AUNITS
 70
     0
  9
$AUPREC
 70
     0
  9
$MENU
  1
.
  9
$ELEVATION
 40
0.0
  9
$PELEVATION
 40
0.0
  9
$THICKNESS
 40
0.0
  9
$LIMCHECK
 70
     0
  9
$CHAMFERA
 40
0.0
  9
$CHAMFERB
 40
0.0
  9
$CHAMFERC
 40
20.0
  9
$CHAMFERD
 40
0.0
  9
$SKPOLY
 70
     0
  9
$TDCREATE
 40
2453979.489260336
  9
$TDUCREATE
 40
2453978.989260336
  9
$TDUPDATE
 40
2456562.562048368
  9
$TDUUPDATE
 40
2456562.062048368
  9
$TDINDWG
 40
2.4698045139
  9
$TDUSRTIMER
 40
2.4698043403
  9
$USRTIMER
 70
     1
  9
$ANGBASE
 50
0.0
  9
$ANGDIR
 70
     0
  9
$PDMODE
 70
     0
  9
$PDSIZE
 40
0.0
  9
$PLINEWID
 40
0.0
  9
$SPLFRAME
 70
     0
  9
$SPLINETYPE
 70
     6
  9
$SPLINESEGS
 70
     8
  9
$HANDSEED
  5
7ED9
  9
$SURFTAB1
 70
     6
  9
$SURFTAB2
 70
     6
  9
$SURFTYPE
 70
     6
  9
$SURFU
 70
     6
  9
$SURFV
 70
     6
  9
$UCSBASE
  2

  9
$UCSNAME
  2

  9
$UCSORG
 10
0.0
 20
0.0
 30
0.0
  9
$UCSXDIR
 10
1.0
 20
0.0
 30
0.0
  9
$UCSYDIR
 10
0.0
 20
1.0
 30
0.0
  9
$UCSORTHOREF
  2

  9
$UCSORTHOVIEW
 70
     0
  9
$UCSORGTOP
 10
0.0
 20
0.0
 30
0.0
  9
$UCSORGBOTTOM
 10
0.0
 20
0.0
 30
0.0
  9
$UCSORGLEFT
 10
0.0
 20
0.0
 30
0.0
  9
$UCSORGRIGHT
 10
0.0
 20
0.0
 30
0.0
  9
$UCSORGFRONT
 10
0.0
 20
0.0
 30
0.0
  9
$UCSORGBACK
 10
0.0
 20
0.0
 30
0.0
  9
$PUCSBASE
  2

  9
$PUCSNAME
  2

  9
$PUCSORG
 10
0.0
 20
0.0
 30
0.0
  9
$PUCSXDIR
 10
1.0
 20
0.0
 30
0.0
  9
$PUCSYDIR
 10
0.0
 20
1.0
 30
0.0
  9
$PUCSORTHOREF
  2

  9
$PUCSORTHOVIEW
 70
     0
  9
$PUCSORGTOP
 10
0.0
 20
0.0
 30
0.0
  9
$PUCSORGBOTTOM
 10
0.0
 20
0.0
 30
0.0
  9
$PUCSORGLEFT
 10
0.0
 20
0.0
 30
0.0
  9
$PUCSORGRIGHT
 10
0.0
 20
0.0
 30
0.0
  9
$PUCSORGFRONT
 10
0.0
 20
0.0
 30
0.0
  9
$PUCSORGBACK
 10
0.0
 20
0.0
 30
0.0
  9
$USERI1
 70
     0
  9
$USERI2
 70
     0
  9
$USERI3
 70
     0
  9
$USERI4
 70
     0
  9
$USERI5
 70
     0
  9
$USERR1
 40
0.0
  9
$USERR2
 40
0.0
  9
$USERR3
 40
0.0
  9
$USERR4
 40
0.0
  9
$USERR5
 40
0.0
  9
$WORLDVIEW
 70
     1
  9
$SHADEDGE
 70
     3
  9
$SHADEDIF
 70
    70
  9
$TILEMODE
 70
     0
  9
$MAXACTVP
 70
    64
  9
$PINSBASE
 10
0.0
 20
0.0
 30
0.0
  9
$PLIMCHECK
 70
     0
  9
$PEXTMIN
 10
7.151295027547689
 20
7.512272705266923
 30
-0.0000000349181948
  9
$PEXTMAX
 10
197.3531168299977
 20
284.1213512759751
 30
0.0000000814935746
  9
$PLIMMIN
 10
-3.174999952316284
 20
-3.174999952316284
  9
$PLIMMAX
 10
206.7983276844024
 20
293.8568298816681
  9
$UNITMODE
 70
     0
  9
$VISRETAIN
 70
     1
  9
$PLINEGEN
 70
     0
  9
$PSLTSCALE
 70
     0
  9
$TREEDEPTH
 70
  3020
  9
$CMLSTYLE
  2
Standard
  9
$CMLJUST
 70
     0
  9
$CMLSCALE
 40
20.0
  9
$PROXYGRAPHICS
 70
     1
  9
$MEASUREMENT
 70
     1
  9
$CELWEIGHT
370
    -1
  9
$ENDCAPS
280
     0
  9
$JOINSTYLE
280
     0
  9
$LWDISPLAY
290
     1
  9
$INSUNITS
 70
     4
  9
$HYPERLINKBASE
  1

  9
$STYLESHEET
  1

  9
$XEDIT
290
     1
  9
$CEPSNTYPE
380
     0
  9
$PSTYLEMODE
290
     1
  9
$FINGERPRINTGUID
  2
{FDEAD578-A652-11D2-9A35-0060089B3A3F}
  9
$VERSIONGUID
  2
{AE9047E5-D783-428B-9B57-4061187D5995}
  9
$EXTNAMES
290
     1
  9
$PSVPSCALE
 40
0.0
  9
$OLESTARTUP
290
     0
  9
$SORTENTS
280
   112
  9
$INDEXCTL
280
     0
  9
$HIDETEXT
280
     0
  9
$XCLIPFRAME
290
     0
  9
$HALOGAP
280
     0
  9
$OBSCOLOR
 70
   257
  9
$OBSLTYPE
280
     0
  9
$INTERSECTIONDISPLAY
280
     0
  9
$INTERSECTIONCOLOR
 70
   257
  9
$DIMASSOC
280
     1
  9
$PROJECTNAME
  1

  0
ENDSEC
  0
SECTION
  2
CLASSES
  0
CLASS
  1
ACDBDICTIONARYWDFLT
  2
AcDbDictionaryWithDefault
  3
ObjectDBX Classes
 90
        0
 91
        1
280
     0
281
     0
  0
CLASS
  1
RASTERVARIABLES
  2
AcDbRasterVariables
  3
ISM
 90
        0
 91
        1
280
     0
281
     0
  0
CLASS
  1
SORTENTSTABLE
  2
AcDbSortentsTable
  3
ObjectDBX Classes
 90
        0
 91
        2
280
     0
281
     0
  0
CLASS
  1
DICTIONARYVAR
  2
AcDbDictionaryVar
  3
ObjectDBX Classes
 90
        0
 91
        6
280
     0
281
     0
  0
CLASS
  1
TABLESTYLE
  2
AcDbTableStyle
  3
ObjectDBX Classes
 90
     4095
 91
        1
280
     0
281
     0
  0
CLASS
  1
ACAD_EVALUATION_GRAPH
  2
AcDbEvalGraph
  3
ObjectDBX Classes
 90
     1153
 91
        0
280
     0
281
     0
  0
CLASS
  1
ACAECUSTOBJ
  2
AcAeEditorObj
  3
AcAeEditorObj
 90
     1024
 91
        0
280
     0
281
     0
  0
CLASS
  1
ACDB_DYNAMICBLOCKPURGEPREVENTER_VERSION
  2
AcDbDynamicBlockPurgePreventer
  3
ObjectDBX Classes
 90
     1153
 91
        0
280
     0
281
     0
  0
CLASS
  1
MATERIAL
  2
AcDbMaterial
  3
ObjectDBX Classes
 90
     1153
 91
        3
280
     0
281
     0
  0
CLASS
  1
VISUALSTYLE
  2
AcDbVisualStyle
  3
ObjectDBX Classes
 90
     4095
 91
       26
280
     0
281
     0
  0
CLASS
  1
SCALE
  2
AcDbScale
  3
ObjectDBX Classes
 90
     1153
 91
       17
280
     0
281
     0
  0
CLASS
  1
MLEADERSTYLE
  2
AcDbMLeaderStyle
  3
ACDB_MLEADERSTYLE_CLASS
 90
     4095
 91
        1
280
     0
281
     0
  0
CLASS
  1
CELLSTYLEMAP
  2
AcDbCellStyleMap
  3
ObjectDBX Classes
 90
     1152
 91
        4
280
     0
281
     0
  0
CLASS
  1
IMAGE
  2
AcDbRasterImage
  3
ISM
 90
     2175
 91
        1
280
     0
281
     1
  0
CLASS
  1
IMAGEDEF_REACTOR
  2
AcDbRasterImageDefReactor
  3
ISM
 90
        1
 91
        1
280
     0
281
     0
  0
CLASS
  1
IMAGEDEF
  2
AcDbRasterImageDef
  3
ISM
 90
        0
 91
        6
280
     0
281
     0
  0
CLASS
  1
AEC_REFEDIT_STATUS_TRACKER
  2
AecDbRefEditStatusTracker
  3
AecArchBase70|Product Desc: Autodesk Architectural Desktop 2007 |Company: Autodesk,Inc. |WEB Address: www.autodesk.com
 90
      129
 91
        0
280
     0
281
     0
  0
CLASS
  1
NPOCOLLECTION
  2
AcDbImpNonPersistentObjectsCollection
  3
ObjectDBX Classes
 90
     1153
 91
        0
280
     0
281
     0
  0
CLASS
  1
SOLID_BACKGROUND
  2
AcDbSolidBackground
  3
SCENEOE
 90
     4095
 91
        0
280
     0
281
     0
  0
CLASS
  1
ACDBSECTIONVIEWSTYLE
  2
AcDbSectionViewStyle
  3
ObjectDBX Classes
 90
     1025
 91
        1
280
     0
281
     0
  0
CLASS
  1
ACDBDETAILVIEWSTYLE
  2
AcDbDetailViewStyle
  3
ObjectDBX Classes
 90
     1025
 91
        1
280
     0
281
     0
  0
CLASS
  1
EXACXREFPANELOBJECT
  2
ExAcXREFPanelObject
  3
EXAC_ESW
 90
     1025
 91
        0
280
     0
281
     0
  0
CLASS
  1
MULTILEADER
  2
AcDbMLeader
  3
ACDB_MLEADER_CLASS
 90
     1025
 91
        2
280
     0
281
     1
  0
ENDSEC
  0
SECTION
  2
TABLES
  0
TABLE
  2
VPORT
  5
8
102
{ACAD_XDICTIONARY
360
6AC0
102
}
330
0
100
AcDbSymbolTable
 70
     1
  0
VPORT
  5
67BD
330
8
100
AcDbSymbolTableRecord
100
AcDbViewportTableRecord
  2
*Active
 70
     0
 10
0.0
 20
0.0
 11
1.0
 21
1.0
 12
76.9615076818834
 22
4531.494889804142
 13
0.0
 23
0.0
 14
10.0
 24
10.0
 15
10.0
 25
10.0
 16
0.0
 26
0.0
 36
1.0
 17
0.0
 27
0.0
 37
0.0
 40
1474.778170901534
 41
1.539402173913043
 42
50.0
 43
0.0
 44
0.0
 50
0.0
 51
0.0
 71
     0
 72
   100
 73
     1
 74
     3
 75
     0
 76
     0
 77
     0
 78
     0
281
     0
 65
     1
110
0.0
120
0.0
130
0.0
111
1.0
121
0.0
131
0.0
112
0.0
122
1.0
132
0.0
 79
     0
146
0.0
  0
ENDTAB
  0
TABLE
  2
LTYPE
  5
5
330
0
100
AcDbSymbolTable
 70
     5
  0
LTYPE
  5
14
330
5
100
AcDbSymbolTableRecord
100
AcDbLinetypeTableRecord
  2
ByBlock
 70
     0
  3

 72
    65
 73
     0
 40
0.0
  0
LTYPE
  5
15
330
5
100
AcDbSymbolTableRecord
100
AcDbLinetypeTableRecord
  2
ByLayer
 70
     0
  3

 72
    65
 73
     0
 40
0.0
  0
LTYPE
  5
16
330
5
100
AcDbSymbolTableRecord
100
AcDbLinetypeTableRecord
  2
Continuous
 70
     0
  3
Solid line
 72
    65
 73
     0
 40
0.0
  0
LTYPE
  5
647
330
5
100
AcDbSymbolTableRecord
100
AcDbLinetypeTableRecord
  2
DASHED
 70
     0
  3
__ __ __ __ __ __ __ __ __ __ __ __ __ __ __ __
 72
    65
 73
     2
 40
0.75
 49
0.5
 74
     0
 49
-0.25
 74
     0
  0
LTYPE
  5
1AE3
330
5
100
AcDbSymbolTableRecord
100
AcDbLinetypeTableRecord
  2
BATTING
 70
     0
  3
Batting SSSSSSSSSSSSSSSSSSSSSSSSSSSSSSSSSSSSSSS
 72
    65
 73
     4
 40
0.4001000000000001
 49
0.0001
 74
     0
 49
-0.1
 74
     4
 75
   134
340
1AEA
 46
0.1
 50
0.0
 44
-0.1
 45
0.0
 49
-0.2
 74
     4
 75
   134
340
1AEA
 46
0.1
 50
180.0
 44
0.1
 45
0.0
 49
-0.1
 74
     0
  0
LTYPE
  5
7B45
330
5
100
AcDbSymbolTableRecord
100
AcDbLinetypeTableRecord
  2
PHANTOM2
 70
     0
  3
Phantom (.5x) ___ _ _ ___ _ _ ___ _ _ ___ _ _
 72
    65
 73
     6
 40
1.25
 49
0.625
 74
     0
 49
-0.125
 74
     0
 49
0.125
 74
     0
 49
-0.125
 74
     0
 49
0.125
 74
     0
 49
-0.125
 74
     0
  0
ENDTAB
  0
TABLE
  2
LAYER
  5
2
102
{ACAD_XDICTIONARY
360
105
102
}
330
0
100
AcDbSymbolTable
 70
    15
  0
LAYER
  5
10
102
{ACAD_XDICTIONARY
360
68A3
102
}
330
2
100
AcDbSymbolTableRecord
100
AcDbLayerTableRecord
  2
0
 70
     0
 62
     7
  6
Continuous
370
    -3
390
F
  0
LAYER
  5
5E
102
{ACAD_XDICTIONARY
360
68A5
102
}
330
2
100
AcDbSymbolTableRecord
100
AcDbLayerTableRecord
  2
Hebel
 70
     0
 62
     7
  6
Continuous
370
    40
390
F
  0
LAYER
  5
5F
102
{ACAD_XDICTIONARY
360
68A7
102
}
330
2
100
AcDbSymbolTableRecord
100
AcDbLayerTableRecord
  2
Steel
 70
     0
 62
     1
  6
Continuous
370
    35
390
F
  0
LAYER
  5
60
102
{ACAD_XDICTIONARY
360
68A9
102
}
330
2
100
AcDbSymbolTableRecord
100
AcDbLayerTableRecord
  2
Concrete
 70
     0
 62
   253
  6
Continuous
370
    50
390
F
  0
LAYER
  5
62
102
{ACAD_XDICTIONARY
360
68AD
102
}
330
2
100
AcDbSymbolTableRecord
100
AcDbLayerTableRecord
  2
Fastenings and sealants
 70
     0
 62
     4
  6
Continuous
370
    -3
390
F
  0
LAYER
  5
65
102
{ACAD_XDICTIONARY
360
68B1
102
}
330
2
100
AcDbSymbolTableRecord
100
AcDbLayerTableRecord
  2
Text
 70
     0
 62
     7
  6
Continuous
370
    -3
390
F
  0
LAYER
  5
76
330
2
100
AcDbSymbolTableRecord
100
AcDbLayerTableRecord
  2
Defpoints
 70
     0
 62
     7
  6
Continuous
290
     0
370
    -3
390
F
  0
LAYER
  5
F0
102
{ACAD_XDICTIONARY
360
68B3
102
}
330
2
100
AcDbSymbolTableRecord
100
AcDbLayerTableRecord
  2
Title block
 70
     0
 62
     7
  6
Continuous
370
    80
390
F
  0
LAYER
  5
636
102
{ACAD_XDICTIONARY
360
68B5
102
}
330
2
100
AcDbSymbolTableRecord
100
AcDbLayerTableRecord
  2
Viewport
 70
     0
 62
     7
  6
Continuous
290
     0
370
    -3
390
F
  0
LAYER
  5
1AE4
102
{ACAD_XDICTIONARY
360
68B7
102
}
330
2
100
AcDbSymbolTableRecord
100
AcDbLayerTableRecord
  2
linings
 70
     0
 62
    90
  6
Continuous
370
    25
390
F
1001
AcAecLayerStandard
1000

1000

1001
RAK
1000
{ACET-LAYISO
1070
     0
1070
   -90
1000
Continuous
1071
       25
1071
        1
1005
F
1000
ACET-LAYISO}
  0
LAYER
  5
1AE5
102
{ACAD_XDICTIONARY
360
68B9
102
}
330
2
100
AcDbSymbolTableRecord
100
AcDbLayerTableRecord
  2
dress timber
 70
     0
 62
    40
  6
Continuous
370
    30
390
F
1001
AcAecLayerStandard
1000

1000

1001
RAK
1000
{ACET-LAYISO
1070
     0
1070
   -40
1000
Continuous
1071
       30
1071
        1
1005
F
1000
ACET-LAYISO}
  0
LAYER
  5
1AE6
102
{ACAD_XDICTIONARY
360
68BB
102
}
330
2
100
AcDbSymbolTableRecord
100
AcDbLayerTableRecord
  2
hatch
 70
     0
 62
    50
  6
Continuous
370
    13
390
F
1001
AcAecLayerStandard
1000

1000

1001
RAK
1000
{ACET-LAYISO
1070
     0
1070
   -50
1000
Continuous
1071
       13
1071
        1
1005
F
1000
ACET-LAYISO}
  0
LAYER
  5
1AE7
102
{ACAD_XDICTIONARY
360
68BD
102
}
330
2
100
AcDbSymbolTableRecord
100
AcDbLayerTableRecord
  2
elevation
 70
     0
 62
    81
  6
Continuous
370
    13
390
F
1001
AcAecLayerStandard
1000

1000

1001
RAK
1000
{ACET-LAYISO
1070
     0
1070
   -81
1000
Continuous
1071
       13
1071
        1
1005
F
1000
ACET-LAYISO}
  0
LAYER
  5
1AE8
102
{ACAD_XDICTIONARY
360
68BF
102
}
330
2
100
AcDbSymbolTableRecord
100
AcDbLayerTableRecord
  2
groundline
 70
     0
 62
   100
  6
Continuous
370
   100
390
F
1001
AcAecLayerStandard
1000

1000

  0
LAYER
  5
6939
102
{ACAD_XDICTIONARY
360
693A
102
}
330
2
100
AcDbSymbolTableRecord
100
AcDbLayerTableRecord
  2
3
 70
     0
 62
     2
  6
Continuous
370
    -3
390
F
1001
RAK
1000
{ACET-LAYISO
1070
     0
1070
     2
1000
CONTINUOUS
1070
     1
1071
       -3
1071
        1
1005
0
1000
ACET-LAYISO}
  0
ENDTAB
  0
TABLE
  2
STYLE
  5
3
330
0
100
AcDbSymbolTable
 70
     9
  0
STYLE
  5
11
330
3
100
AcDbSymbolTableRecord
100
AcDbTextStyleTableRecord
  2
Standard
 70
     0
 40
0.0
 41
1.0
 50
4.0
 71
     0
 42
2.5
  3
times.ttf
  4

1001
ACAD
1000
Times New Roman
1071
       18
  0
STYLE
  5
A0
330
3
100
AcDbSymbolTableRecord
100
AcDbTextStyleTableRecord
  2
Titles
 70
     0
 40
4.0
 41
1.0
 50
0.0
 71
     0
 42
4.0
  3
timesbd.ttf
  4

1001
ACAD
1000
Times New Roman
1071
 33554450
  0
STYLE
  5
E3
330
3
100
AcDbSymbolTableRecord
100
AcDbTextStyleTableRecord
  2
Title block
 70
     0
 40
2.5
 41
1.0
 50
0.0
 71
     0
 42
2.5
  3
times.ttf
  4

1001
ACAD
1000
Times New Roman
1071
       18
  0
STYLE
  5
2AE
330
3
100
AcDbSymbolTableRecord
100
AcDbTextStyleTableRecord
  2
ROMANS
 70
     0
 40
0.0
 41
1.0
 50
0.0
 71
     0
 42
30.0
  3
romans
  4

  0
STYLE
  5
1AE9
330
3
100
AcDbSymbolTableRecord
100
AcDbTextStyleTableRecord
  2
ben 1
 70
     0
 40
2.0
 41
1.0
 50
0.0
 71
     0
 42
2.0
  3
tahoma.ttf
  4

1001
ACAD
1000
Tahoma
1071
       34
  0
STYLE
  5
1AEA
330
3
100
AcDbSymbolTableRecord
100
AcDbTextStyleTableRecord
  2

 70
     1
 40
0.0
 41
1.0
 50
0.0
 71
     0
 42
20.0
  3
ltypeshp.shx
  4

  0
STYLE
  5
693B
330
3
100
AcDbSymbolTableRecord
100
AcDbTextStyleTableRecord
  2
1
 70
     0
 40
0.0
 41
1.0
 50
0.0
 71
     0
 42
0.2
  3
swissi.ttf
  4

1001
ACAD
1000
Swis721 BT
1071
 16777250
  0
STYLE
  5
7BD5
330
3
100
AcDbSymbolTableRecord
100
AcDbTextStyleTableRecord
  2
Brochure50
 70
     0
 40
50.0
 41
1.0
 50
4.0
 71
     0
 42
50.0
  3
ariali.ttf
  4

1001
ACAD
1000
Arial
1071
 16777250
  0
ENDTAB
  0
TABLE
  2
VIEW
  5
6
330
0
100
AcDbSymbolTable
 70
     1
  0
ENDTAB
  0
TABLE
  2
UCS
  5
7
330
0
100
AcDbSymbolTable
 70
     0
  0
ENDTAB
  0
TABLE
  2
APPID
  5
9
330
0
100
AcDbSymbolTable
 70
    27
  0
APPID
  5
12
330
9
100
AcDbSymbolTableRecord
100
AcDbRegAppTableRecord
  2
ACAD
 70
     0
  0
APPID
  5
1AEF
330
9
100
AcDbSymbolTableRecord
100
AcDbRegAppTableRecord
  2
AcAecLayerStandard
 70
     0
  0
APPID
  5
1AF0
330
9
100
AcDbSymbolTableRecord
100
AcDbRegAppTableRecord
  2
ACAD_PSEXT
 70
     0
  0
APPID
  5
1AF1
330
9
100
AcDbSymbolTableRecord
100
AcDbRegAppTableRecord
  2
ACAD_DSTYLE_DIMEXT_LENGTH
 70
     0
  0
APPID
  5
1AF2
330
9
100
AcDbSymbolTableRecord
100
AcDbRegAppTableRecord
  2
ACAD_DSTYLE_DIMEXT_ENABLED
 70
     0
  0
APPID
  5
1AF3
330
9
100
AcDbSymbolTableRecord
100
AcDbRegAppTableRecord
  2
ACAD_DSTYLE_DIMJOGGED_JOGANGLE_SYMBOL
 70
     0
  0
APPID
  5
1AF4
330
9
100
AcDbSymbolTableRecord
100
AcDbRegAppTableRecord
  2
ACAD_DSTYLE_DIMARC_LENGTH_SYMBOL
 70
     0
  0
APPID
  5
1AF5
330
9
100
AcDbSymbolTableRecord
100
AcDbRegAppTableRecord
  2
RAK
 70
     0
  0
APPID
  5
365D
330
9
100
AcDbSymbolTableRecord
100
AcDbRegAppTableRecord
  2
ACAUTHENVIRON
 70
     0
  0
APPID
  5
3661
330
9
100
AcDbSymbolTableRecord
100
AcDbRegAppTableRecord
  2
AcDbDynamicBlockTrueName
 70
     0
  0
APPID
  5
3662
330
9
100
AcDbSymbolTableRecord
100
AcDbRegAppTableRecord
  2
AcDbDynamicBlockGUID
 70
     0
  0
APPID
  5
3664
330
9
100
AcDbSymbolTableRecord
100
AcDbRegAppTableRecord
  2
AcDbBlockRepETag
 70
     0
  0
APPID
  5
5354
330
9
100
AcDbSymbolTableRecord
100
AcDbRegAppTableRecord
  2
ACAD_EXEMPT_FROM_CAD_STANDARDS
 70
     0
  0
APPID
  5
67FC
330
9
100
AcDbSymbolTableRecord
100
AcDbRegAppTableRecord
  2
ACAD_MLEADERVER
 70
     0
  0
APPID
  5
693C
330
9
100
AcDbSymbolTableRecord
100
AcDbRegAppTableRecord
  2
AcadAnnoPO
 70
     0
  0
APPID
  5
693D
330
9
100
AcDbSymbolTableRecord
100
AcDbRegAppTableRecord
  2
AcadAnnotative
 70
     0
  0
APPID
  5
693E
330
9
100
AcDbSymbolTableRecord
100
AcDbRegAppTableRecord
  2
ACAD_DSTYLE_DIMJAG
 70
     0
  0
APPID
  5
693F
330
9
100
AcDbSymbolTableRecord
100
AcDbRegAppTableRecord
  2
ACAD_DSTYLE_DIMTALN
 70
     0
  0
APPID
  5
6940
330
9
100
AcDbSymbolTableRecord
100
AcDbRegAppTableRecord
  2
PROGE_PRINT_SETTINGS
 70
     0
  0
APPID
  5
6941
330
9
100
AcDbSymbolTableRecord
100
AcDbRegAppTableRecord
  2
PCAD_LAYOUT
 70
     0
  0
APPID
  5
6942
330
9
100
AcDbSymbolTableRecord
100
AcDbRegAppTableRecord
  2
ACAD_DSTYLE_DIM_EXT1_LINETYPE
 70
     0
  0
APPID
  5
6943
330
9
100
AcDbSymbolTableRecord
100
AcDbRegAppTableRecord
  2
ACAD_DSTYLE_DIM_EXT2_LINETYPE
 70
     0
  0
APPID
  5
6944
330
9
100
AcDbSymbolTableRecord
100
AcDbRegAppTableRecord
  2
ACAD_DSTYLE_DIM_LINETYPE
 70
     0
  0
APPID
  5
6945
330
9
100
AcDbSymbolTableRecord
100
AcDbRegAppTableRecord
  2
AcDbAttr
 70
     0
  0
APPID
  5
7B47
330
9
100
AcDbSymbolTableRecord
100
AcDbRegAppTableRecord
  2
ACAD_NAV_VCDISPLAY
 70
     0
  0
APPID
  5
7C15
330
9
100
AcDbSymbolTableRecord
100
AcDbRegAppTableRecord
  2
DCO15
 70
     0
  0
APPID
  5
7DC4
330
9
100
AcDbSymbolTableRecord
100
AcDbRegAppTableRecord
  2
AcadAnnoMonitorAlertIconDisabled
 70
     0
  0
ENDTAB
  0
TABLE
  2
DIMSTYLE
  5
A
330
0
100
AcDbSymbolTable
 70
     6
100
AcDbDimStyleTable
 71
     2
340
1AEB
340
1AEE
  0
DIMSTYLE
105
1AEB
102
{ACAD_REACTORS
330
7042
330
7041
330
7034
330
7035
330
767C
102
}
330
A
100
AcDbSymbolTableRecord
100
AcDbDimStyleTableRecord
  2
Standard
 70
     0
 40
0.0
 41
3.0
 42
1.0
 43
1.0
 44
1.0
 73
     0
 74
     0
 77
     1
140
2.5
147
1.0
176
     7
177
     7
178
     7
271
     0
272
     0
340
11
1001
ACAD_DSTYLE_DIMJAG
1070
   388
1040
1.5
1001
ACAD_DSTYLE_DIMTALN
1070
   392
1070
     0
  0
DIMSTYLE
105
1AEE
330
A
100
AcDbSymbolTableRecord
100
AcDbDimStyleTableRecord
  2
Ben 10
 70
     0
 40
0.0
 41
25.0
 42
25.0
 43
30.0
 44
1.25
 73
     0
 74
     0
 77
     1
 78
     8
140
20.0
141
25.0
143
0.03937007874016
147
0.625
171
     3
172
     1
271
     2
272
     2
274
     3
278
    44
283
     0
284
     8
340
1AE9
342
6A
1001
ACAD_DSTYLE_DIMEXT_LENGTH
1070
   378
1040
1.25
1001
ACAD_DSTYLE_DIMJOGGED_JOGANGLE_SYMBOL
1070
   384
1040
1.570796326794896
  0
DIMSTYLE
105
7A74
330
A
100
AcDbSymbolTableRecord
100
AcDbDimStyleTableRecord
  2
ISO-25
 70
     0
 41
2.5
 42
0.625
 43
3.75
 44
1.25
 73
     0
 74
     0
 77
     1
 78
     8
140
2.5
141
2.5
143
0.03937007874016
147
0.625
171
     3
172
     1
271
     2
272
     2
274
     3
278
    44
283
     0
284
     8
340
11
  0
DIMSTYLE
105
7B46
330
A
100
AcDbSymbolTableRecord
100
AcDbDimStyleTableRecord
  2
ARROWS
 70
     0
 41
3.0
 42
1.5
 43
8.0
 44
1.0
 46
1.0
 73
     0
 74
     0
140
2.5
141
5.0
143
0.0394
145
1.0
146
0.625
147
1.5
171
     4
176
     7
177
     7
178
     7
271
     3
272
     3
274
     4
279
     2
340
2AE
1001
ACAD_DSTYLE_DIMJAG
1070
   388
1040
1.5
1001
ACAD_DSTYLE_DIMTALN
1070
   392
1070
     0
  0
DIMSTYLE
105
7BD6
330
A
100
AcDbSymbolTableRecord
100
AcDbDimStyleTableRecord
  2
Hebel 1
 70
     0
 41
20.0
 42
10.0
 43
10.0
 44
10.0
 46
10.0
 73
     0
 74
     0
 77
     1
 78
     8
140
2.5
141
2.5
143
0.03937007874016
147
10.0
171
     3
172
     1
271
     0
272
     0
274
     3
279
     1
283
     0
284
     8
340
7BD5
341
7BD0
342
6A
  0
ENDTAB
  0
TABLE
  2
BLOCK_RECORD
  5
1
330
0
100
AcDbSymbolTable
 70
    10
  0
BLOCK_RECORD
  5
1F
102
{ACAD_XDICTIONARY
360
C0
102
}
330
1
100
AcDbSymbolTableRecord
100
AcDbBlockTableRecord
  2
*Model_Space
340
22
  0
BLOCK_RECORD
  5
6F1B
330
1
100
AcDbSymbolTableRecord
100
AcDbBlockTableRecord
  2
*Paper_Space
340
6F41
  0
BLOCK_RECORD
  5
6A
330
1
100
AcDbSymbolTableRecord
100
AcDbBlockTableRecord
  2
_ArchTick
340
0
  0
BLOCK_RECORD
  5
1AB1
330
1
100
AcDbSymbolTableRecord
100
AcDbBlockTableRecord
  2
14-10x95BH
340
0
102
{BLKREFS
331
26E2
102
}
  0
BLOCK_RECORD
  5
6946
102
{ACAD_XDICTIONARY
360
695D
102
}
330
1
100
AcDbSymbolTableRecord
100
AcDbBlockTableRecord
  2
A4 Title Block
340
0
102
{BLKREFS
331
6F20
102
}
1001
ACAD
1000
DesignCenter Data
1002
{
1070
     1
1070
     4
1002
}
  0
BLOCK_RECORD
  5
7043
330
1
100
AcDbSymbolTableRecord
100
AcDbBlockTableRecord
  2
*D3
340
0
  0
BLOCK_RECORD
  5
705C
330
1
100
AcDbSymbolTableRecord
100
AcDbBlockTableRecord
  2
*D4
340
0
  0
BLOCK_RECORD
  5
7068
330
1
100
AcDbSymbolTableRecord
100
AcDbBlockTableRecord
  2
*D5
340
0
  0
BLOCK_RECORD
  5
7225
330
1
100
AcDbSymbolTableRecord
100
AcDbBlockTableRecord
  2
*D6
340
0
  0
BLOCK_RECORD
  5
767D
330
1
100
AcDbSymbolTableRecord
100
AcDbBlockTableRecord
  2
*D7
340
0
  0
BLOCK_RECORD
  5
7BD0
330
1
100
AcDbSymbolTableRecord
100
AcDbBlockTableRecord
  2
_Dot
340
0
  0
ENDTAB
  0
ENDSEC
  0
SECTION
  2
BLOCKS
  0
BLOCK
  5
20
330
1F
100
AcDbEntity
  8
0
100
AcDbBlockBegin
  2
*Model_Space
 70
     0
 10
0.0
 20
0.0
 30
0.0
  3
*Model_Space
  1

  0
ENDBLK
  5
21
330
1F
100
AcDbEntity
  8
0
100
AcDbBlockEnd
  0
BLOCK
  5
6F1C
330
6F1B
100
AcDbEntity
 67
     1
  8
0
100
AcDbBlockBegin
  2
*Paper_Space
 70
     0
 10
0.0
 20
0.0
 30
0.0
  3
*Paper_Space
  1

  0
ENDBLK
  5
6F40
330
6F1B
100
AcDbEntity
 67
     1
  8
0
100
AcDbBlockEnd
  0
BLOCK
  5
6C
330
6A
100
AcDbEntity
  8
0
100
AcDbBlockBegin
  2
_ArchTick
 70
     0
 10
0.0
 20
0.0
 30
0.0
  3
_ArchTick
  1

  0
LWPOLYLINE
  5
6B
330
6A
100
AcDbEntity
  8
0
  6
ByBlock
 62
     0
100
AcDbPolyline
 90
        2
 70
     0
 43
0.15
 10
-0.5
 20
-0.5
 10
0.5
 20
0.5
  0
ENDBLK
  5
6D
330
6A
100
AcDbEntity
  8
0
100
AcDbBlockEnd
  0
BLOCK
  5
1AB2
330
1AB1
100
AcDbEntity
  8
0
100
AcDbBlockBegin
  2
14-10x95BH
 70
     0
 10
0.0
 20
0.0
 30
0.0
  3
14-10x95BH
  1

  0
LINE
  5
1AB3
330
1AB1
100
AcDbEntity
  8
0
100
AcDbLine
 10
-68.57265990916494
 20
-1.587955347675233
 30
0.0
 11
-70.2833675451584
 21
-1.587955347675233
 31
0.0
  0
LINE
  5
1AB4
330
1AB1
100
AcDbEntity
  8
0
100
AcDbLine
 10
-65.96071574758025
 20
-1.587955347675233
 30
0.0
 11
-67.60772555740913
 21
-1.587955347675233
 31
0.0
  0
LINE
  5
1AB5
330
1AB1
100
AcDbEntity
  8
0
100
AcDbLine
 10
-63.38190705172383
 20
-1.587955347675233
 30
0.0
 11
-64.99578139582081
 21
-1.587955347675233
 31
0.0
  0
LINE
  5
1AB6
330
1AB1
100
AcDbEntity
  8
0
100
AcDbLine
 10
-60.92796058014574
 20
-1.587955347675233
 30
0.0
 11
-62.41477352864603
 21
-1.587955347675233
 31
0.0
  0
LINE
  5
1AB7
330
1AB1
100
AcDbEntity
  8
0
100
AcDbLine
 10
-6.993721998456749
 20
-1.587955347675233
 30
0.0
 11
-45.50819384827628
 21
-1.587955347675233
 31
0.0
  0
LINE
  5
1AB8
330
1AB1
100
AcDbEntity
  8
0
100
AcDbLine
 10
-6.993721998456749
 20
1.587955347676142
 30
0.0
 11
-46.29715807443426
 21
1.587955347675233
 31
0.0
  0
LINE
  5
1AB9
330
1AB1
100
AcDbEntity
  8
0
100
AcDbLine
 10
-61.73565342319125
 20
1.587955347675233
 30
0.0
 11
-63.28062097001748
 21
1.587955347675233
 31
0.0
  0
LINE
  5
1ABA
330
1AB1
100
AcDbEntity
  8
0
100
AcDbLine
 10
-64.10746710350577
 20
1.587955347675233
 30
0.0
 11
-65.78474562198244
 21
1.587955347675233
 31
0.0
  0
LINE
  5
1ABB
330
1AB1
100
AcDbEntity
  8
0
100
AcDbLine
 10
-66.76840859062576
 20
1.587955347675233
 30
0.0
 11
-68.39668978356712
 21
1.587955347675233
 31
0.0
  0
LINE
  5
1ABC
330
1AB1
100
AcDbEntity
  8
0
100
AcDbLine
 10
-82.3331044175975
 20
-1.587955347676142
 30
0.0
 11
-84.10751781519866
 21
-1.587955347676142
 31
0.0
  0
LINE
  5
1ABD
330
1AB1
100
AcDbEntity
  8
0
100
AcDbLine
 10
-79.6574624298446
 20
-1.587955347676142
 30
0.0
 11
-81.36817006583806
 21
-1.587955347676142
 31
0.0
  0
LINE
  5
1ABE
330
1AB1
100
AcDbEntity
  8
0
100
AcDbLine
 10
-80.46515527289011
 20
1.587955347675233
 30
0.0
 11
-82.15713429199604
 21
1.587955347675233
 31
0.0
  0
LINE
  5
1ABF
330
1AB1
100
AcDbEntity
  8
0
100
AcDbLine
 10
-83.14079726063937
 20
1.587955347675233
 30
0.0
 11
-84.89648204135665
 21
1.587955347675233
 31
0.0
  0
LINE
  5
1AC0
330
1AB1
100
AcDbEntity
  8
0
100
AcDbLine
 10
-76.79070315725766
 20
-1.587955347676142
 30
0.0
 11
-78.69252807808516
 21
-1.587955347676142
 31
0.0
  0
LINE
  5
1AC1
330
1AB1
100
AcDbEntity
  8
0
100
AcDbLine
 10
-74.79534248932395
 20
1.587955347675233
 30
0.0
 11
-76.61473303165621
 21
1.587955347675233
 31
0.0
  0
LINE
  5
1AC2
330
1AB1
100
AcDbEntity
  8
0
100
AcDbLine
 10
-71.24830189691784
 20
-1.587955347675233
 30
0.0
 11
-73.022715294519
 21
-1.587955347676142
 31
0.0
  0
LINE
  5
1AC3
330
1AB1
100
AcDbEntity
  8
0
100
AcDbLine
 10
-72.05599473996335
 20
1.587955347675233
 30
0.0
 11
-73.81167952067698
 21
1.587955347675233
 31
0.0
  0
LINE
  5
1AC4
330
1AB1
100
AcDbEntity
  8
0
100
AcDbLine
 10
-69.38035275221046
 20
1.587955347675233
 30
0.0
 11
-71.07233177131639
 21
1.587955347675233
 31
0.0
  0
LINE
  5
1AC5
330
1AB1
100
AcDbEntity
  8
0
100
AcDbLine
 10
-73.98764964627844
 20
-1.587955347676142
 30
0.0
 11
-75.82576880549822
 21
-1.587955347676142
 31
0.0
  0
LINE
  5
1AC6
330
1AB1
100
AcDbEntity
  8
0
100
AcDbLine
 10
-77.59839600029954
 20
1.587955347675233
 30
0.0
 11
-79.48149230424679
 21
1.587955347675233
 31
0.0
  0
LWPOLYLINE
  5
1AC7
330
1AB1
100
AcDbEntity
  8
0
100
AcDbPolyline
 90
        6
 70
     1
 43
0.0
 10
-57.80310761056899
 20
1.559028241302257
 10
-58.50387098831197
 20
2.386584270632738
 10
-58.82239979637597
 20
1.559028241302257
 10
-57.99422489540666
 20
-1.623882076499285
 10
-57.03863847121102
 20
-2.510549250781878
 10
-57.03863847121102
 20
-1.587955347675233
  0
LWPOLYLINE
  5
1AC8
330
1AB1
100
AcDbEntity
  8
0
100
AcDbPolyline
 90
        6
 70
     1
 43
0.0
 10
-54.87871985339006
 20
1.559028241302257
 10
-55.57948323113305
 20
2.386584270632738
 10
-55.89801203919705
 20
1.559028241302257
 10
-55.06983713822774
 20
-1.623882076499285
 10
-54.11425071403209
 20
-2.510549250781878
 10
-54.11425071403209
 20
-1.587955347675233
  0
LWPOLYLINE
  5
1AC9
330
1AB1
100
AcDbEntity
  8
0
100
AcDbPolyline
 90
        6
 70
     1
 43
0.0
 10
-51.87077889332067
 20
1.559028241302257
 10
-52.57154227106366
 20
2.386584270632738
 10
-52.89007107912766
 20
1.559028241302257
 10
-52.06189617815835
 20
-1.623882076499285
 10
-51.1063097539627
 20
-2.510549250781878
 10
-51.1063097539627
 20
-1.587955347675233
  0
LWPOLYLINE
  5
1ACA
330
1AB1
100
AcDbEntity
  8
0
100
AcDbPolyline
 90
        6
 70
     1
 43
0.0
 10
-49.02994433903586
 20
1.559028241302257
 10
-49.73070771677885
 20
2.386584270632738
 10
-50.04923652484285
 20
1.559028241302257
 10
-49.22106162387354
 20
-1.623882076499285
 10
-48.26547519967789
 20
-2.510549250781878
 10
-48.26547519967789
 20
-1.587955347675233
  0
LWPOLYLINE
  5
1ACB
330
1AB1
100
AcDbEntity
  8
0
100
AcDbPolyline
 90
        6
 70
     1
 43
0.0
 10
-46.27266298763425
 20
1.559028241302257
 10
-46.97342636537723
 20
2.386584270632738
 10
-47.29195517344123
 20
1.559028241302257
 10
-46.46378027247192
 20
-1.623882076499285
 10
-45.50819384827628
 20
-2.510549250781878
 10
-45.50819384827628
 20
-1.587955347675233
  0
LINE
  5
1ACC
330
1AB1
100
AcDbEntity
  8
0
100
AcDbLine
 10
-55.88687790883341
 20
1.587955347675233
 30
0.0
 11
-57.827602697369
 21
1.587955347675233
 31
0.0
  0
LINE
  5
1ACD
330
1AB1
100
AcDbEntity
  8
0
100
AcDbLine
 10
-55.07918506578789
 20
-1.587955347675233
 30
0.0
 11
-57.03863847121102
 21
-1.587955347675233
 31
0.0
  0
LINE
  5
1ACE
330
1AB1
100
AcDbEntity
  8
0
100
AcDbLine
 10
-52.87893694876402
 20
1.587955347675233
 30
0.0
 11
-54.90321494019008
 21
1.587955347675233
 31
0.0
  0
LINE
  5
1ACF
330
1AB1
100
AcDbEntity
  8
0
100
AcDbLine
 10
-52.0712441057185
 20
-1.587955347675233
 30
0.0
 11
-54.11425071403209
 21
-1.587955347675233
 31
0.0
  0
LINE
  5
1AD0
330
1AB1
100
AcDbEntity
  8
0
100
AcDbLine
 10
-50.03810239447921
 20
1.587955347675233
 30
0.0
 11
-51.89527398012069
 21
1.587955347675233
 31
0.0
  0
LINE
  5
1AD1
330
1AB1
100
AcDbEntity
  8
0
100
AcDbLine
 10
-49.2304095514337
 20
-1.587955347675233
 30
0.0
 11
-51.1063097539627
 21
-1.587955347675233
 31
0.0
  0
LINE
  5
1AD2
330
1AB1
100
AcDbEntity
  8
0
100
AcDbLine
 10
-47.28082104307759
 20
1.587955347675233
 30
0.0
 11
-49.05443942583588
 21
1.587955347675233
 31
0.0
  0
LINE
  5
1AD3
330
1AB1
100
AcDbEntity
  8
0
100
AcDbLine
 10
-46.47312820003207
 20
-1.587955347675233
 30
0.0
 11
-48.26547519967789
 21
-1.587955347675233
 31
0.0
  0
LWPOLYLINE
  5
1AD4
330
1AB1
100
AcDbEntity
  8
0
100
AcDbPolyline
 90
        6
 70
     1
 43
0.0
 10
-60.72749536774427
 20
1.559028241302257
 10
-61.42825874548726
 20
2.386584270632738
 10
-61.74678755355126
 20
1.559028241302257
 10
-60.91861265258194
 20
-1.623882076499285
 10
-59.9630262283863
 20
-2.510549250781878
 10
-59.9630262283863
 20
-1.587955347675233
  0
LWPOLYLINE
  5
1AD5
330
1AB1
100
AcDbEntity
  8
0
100
AcDbPolyline
 90
        6
 70
     1
 43
0.0
 10
-63.14831430904814
 20
1.43170977536829
 10
-63.84907768679113
 20
2.25926580469877
 10
-64.16760649485514
 20
1.43170977536829
 10
-63.33943159388581
 20
-1.751200542433252
 10
-62.38384516969017
 20
-2.637867716715845
 10
-62.38384516969017
 20
-1.715273813609201
  0
LWPOLYLINE
  5
1AD6
330
1AB1
100
AcDbEntity
  8
0
100
AcDbPolyline
 90
        6
 70
     1
 43
0.0
 10
-65.76025053517878
 20
1.559028241302257
 10
-66.46101391292177
 20
2.386584270632738
 10
-66.77954272098578
 20
1.559028241302257
 10
-65.95136782001645
 20
-1.623882076499285
 10
-64.99578139582081
 20
-2.510549250781878
 10
-64.99578139582081
 20
-1.587955347675233
  0
LWPOLYLINE
  5
1AD7
330
1AB1
100
AcDbEntity
  8
0
100
AcDbPolyline
 90
        6
 70
     1
 43
0.0
 10
-68.37219469676711
 20
1.559028241302257
 10
-69.0729580745101
 20
2.386584270632738
 10
-69.3914868825741
 20
1.559028241302257
 10
-68.56331198160479
 20
-1.623882076499285
 10
-67.60772555740913
 20
-2.510549250781878
 10
-67.60772555740913
 20
-1.587955347675233
  0
LWPOLYLINE
  5
1AD8
330
1AB1
100
AcDbEntity
  8
0
100
AcDbPolyline
 90
        6
 70
     1
 43
0.0
 10
-71.04783668451637
 20
1.559028241302257
 10
-71.74860006225936
 20
2.386584270632738
 10
-72.06712887032336
 20
1.559028241302257
 10
-71.23895396935404
 20
-1.623882076499285
 10
-70.2833675451584
 20
-2.510549250781878
 10
-70.2833675451584
 20
-1.587955347675233
  0
LWPOLYLINE
  5
1AD9
330
1AB1
100
AcDbEntity
  8
0
100
AcDbPolyline
 90
        6
 70
     1
 43
0.0
 10
-73.78718443387697
 20
1.559028241302257
 10
-74.48794781161996
 20
2.386584270632738
 10
-74.80647661968396
 20
1.559028241302257
 10
-73.97830171871465
 20
-1.623882076499285
 10
-73.022715294519
 20
-2.510549250781878
 10
-73.022715294519
 20
-1.587955347675233
  0
LWPOLYLINE
  5
1ADA
330
1AB1
100
AcDbEntity
  8
0
100
AcDbPolyline
 90
        6
 70
     1
 43
0.0
 10
-76.59023790010542
 20
1.559032455974374
 10
-77.29100127784841
 20
2.386588485304855
 10
-77.60953008591241
 20
1.559032455974374
 10
-76.78135518494309
 20
-1.623877861827168
 10
-75.82576876074745
 20
-2.51054503610976
 10
-75.82576876074745
 20
-1.587951133003116
  0
LWPOLYLINE
  5
1ADB
330
1AB1
100
AcDbEntity
  8
0
100
AcDbPolyline
 90
        6
 70
     1
 43
0.0
 10
-79.45699721744313
 20
1.559028241301348
 10
-80.15776059518612
 20
2.386584270631828
 10
-80.47628940325012
 20
1.559028241301348
 10
-79.6481145022808
 20
-1.623882076500194
 10
-78.69252807808516
 20
-2.510549250782787
 10
-78.69252807808516
 20
-1.587955347676142
  0
LWPOLYLINE
  5
1ADC
330
1AB1
100
AcDbEntity
  8
0
100
AcDbPolyline
 90
        6
 70
     1
 43
0.0
 10
-82.13263920519603
 20
1.559028241301348
 10
-82.83340258293902
 20
2.386584270631828
 10
-83.15193139100301
 20
1.559028241301348
 10
-82.32375649003371
 20
-1.623882076500194
 10
-81.36817006583806
 20
-2.510549250782787
 10
-81.36817006583806
 20
-1.587955347676142
  0
LWPOLYLINE
  5
1ADD
330
1AB1
100
AcDbEntity
  8
0
100
AcDbPolyline
 90
        6
 70
     1
 43
0.0
 10
-84.87198695455663
 20
1.559028241301348
 10
-85.57275033229961
 20
2.386584270631828
 10
-85.89127914036362
 20
1.559028241301348
 10
-85.0631042393943
 20
-1.623882076500194
 10
-84.10751781519866
 20
-2.510549250782787
 10
-84.10751781519866
 20
-1.587955347676142
  0
LINE
  5
1ADE
330
1AB1
100
AcDbEntity
  8
0
100
AcDbLine
 10
-58.81126566601233
 20
1.587955347675233
 30
0.0
 11
-60.75199045454792
 21
1.587955347675233
 31
0.0
  0
LINE
  5
1ADF
330
1AB1
100
AcDbEntity
  8
0
100
AcDbLine
 10
-58.00357282296682
 20
-1.587955347675233
 30
0.0
 11
-59.9630262283863
 21
-1.587955347675233
 31
0.0
  0
LWPOLYLINE
  5
1AE0
330
1AB1
100
AcDbEntity
  8
0
100
AcDbPolyline
 90
        4
 70
     1
 43
0.0
 10
0.0
 20
6.755799831177682
 10
-6.993721998456749
 20
1.587955347676142
 10
-6.993721998456749
 20
-1.587955347675233
 10
0.0
 20
-6.755799831177682
  0
LWPOLYLINE
  5
1AE1
330
1AB1
100
AcDbEntity
  8
0
100
AcDbPolyline
 90
        5
 70
     0
 43
0.0
 10
-85.88014501000362
 20
1.587955347675233
 10
-86.24078793016451
 20
1.587955347675233
 10
-92.19978683726003
 20
-0.0000000000009095
 10
-86.24078793016451
 20
-1.587955347676142
 10
-85.0724521669581
 20
-1.587955347676142
  0
ENDBLK
  5
1AE2
330
1AB1
100
AcDbEntity
  8
0
100
AcDbBlockEnd
  0
BLOCK
  5
695F
330
6946
100
AcDbEntity
  8
0
 48
10.0
100
AcDbBlockBegin
  2
A4 Title Block
 70
     2
 10
0.0
 20
0.0
 30
0.0
  3
A4 Title Block
  1

  0
TEXT
  5
7C7F
330
6946
100
AcDbEntity
  8
3
 62
     7
100
AcDbText
 10
-853.4347976406543
 20
37.0581002795501
 30
0.0
 40
8.0
  1

 41
0.85
  7
ROMANS
100
AcDbText
  0
LINE
  5
7C80
330
6946
100
AcDbEntity
  8
0
100
AcDbLine
 10
-53.39424020223919
 20
255.4041454248354
 30
0.0
 11
-53.39424020223919
 21
-21.19891004925512
 31
0.0
  0
LINE
  5
7C81
330
6946
100
AcDbEntity
  8
0
100
AcDbLine
 10
-53.39424020223919
 20
-21.19891004925512
 30
0.0
 11
136.6057597977608
 21
-21.19891004925512
 31
0.0
  0
LINE
  5
7C82
330
6946
100
AcDbEntity
  8
0
100
AcDbLine
 10
136.6057597977608
 20
-21.19891004925512
 30
0.0
 11
136.6057597977608
 21
255.4041454248354
 31
0.0
  0
LINE
  5
7C83
330
6946
100
AcDbEntity
  8
0
100
AcDbLine
 10
136.6057597977608
 20
255.4041454248354
 30
0.0
 11
-53.39424020223919
 21
255.4041454248354
 31
0.0
  0
LINE
  5
7C84
330
6946
100
AcDbEntity
  8
0
100
AcDbLine
 10
5.160599931094154
 20
-6.141303048717778
 30
0.0
 11
136.7843384162145
 21
-6.141303048717663
 31
0.0
  0
LINE
  5
7C85
330
6946
100
AcDbEntity
  8
0
100
AcDbLine
 10
5.160599931094154
 20
-15.17614263826262
 30
0.0
 11
136.7843384162147
 21
-15.17614263826251
 31
0.0
  0
TEXT
  5
7C86
330
6946
100
AcDbEntity
  8
0
100
AcDbText
 10
6.826237168272655
 20
-11.76410445304272
 30
0.0
 40
2.5
  1
Date:
  7
Title block
100
AcDbText
  0
TEXT
  5
7C87
330
6946
100
AcDbEntity
  8
0
100
AcDbText
 10
91.38994071143883
 20
-11.70327088333114
 30
0.0
 40
2.5
  1
Detail No.
  7
Title block
100
AcDbText
  0
TEXT
  5
7C88
330
6946
100
AcDbEntity
  8
0
100
AcDbText
 10
7.064121796534209
 20
2.432750857016124
 30
0.0
 40
2.5
  1
Title:
  7
Title block
100
AcDbText
  0
LWPOLYLINE
  5
7C89
330
6946
100
AcDbEntity
  8
0
100
AcDbPolyline
 90
        2
 70
     0
 43
0.0
 10
-53.39424020223919
 20
8.156069115485486
 10
136.6057597977608
 20
8.156069115485486
  0
LWPOLYLINE
  5
7C8A
330
6946
100
AcDbEntity
  8
0
100
AcDbPolyline
 90
        2
 70
     0
 43
0.0
 10
46.71209860759859
 20
-6.141303048717773
 10
46.71209860759859
 20
-15.17614263826262
  0
LWPOLYLINE
  5
7C8B
330
6946
100
AcDbEntity
  8
0
100
AcDbPolyline
 90
        2
 70
     0
 43
0.0
 10
89.74925677747592
 20
-6.141303048717704
 10
89.74925677747592
 20
-15.17614263826255
  0
TEXT
  5
7C8C
330
6946
100
AcDbEntity
  8
0
100
AcDbText
 10
51.06569660619993
 20
-11.76410445304272
 30
0.0
 40
2.5
  1
Scale:
  7
Title block
100
AcDbText
  0
ATTDEF
  5
7C8D
330
6946
100
AcDbEntity
  8
0
100
AcDbText
 10
39.57990030128394
 20
2.42141026247782
 30
0.0
 40
4.0
  1

100
AcDbAttributeDefinition
  3
Title
  2
TITLE
 70
     0
1001
AcDbAttr
1070
     0
1070
     1
  0
ATTDEF
  5
7C8E
330
6946
100
AcDbEntity
  8
0
100
AcDbText
 10
23.81513927866558
 20
-11.93443354649616
 30
0.0
 40
2.5
  1

100
AcDbAttributeDefinition
  3
Date
  2
DATE
 70
     0
1001
AcDbAttr
1070
     0
1070
     1
  0
ATTDEF
  5
7C8F
330
6946
100
AcDbEntity
  8
0
100
AcDbText
 10
63.23629700150786
 20
-11.93443354649616
 30
0.0
 40
2.5
  1

100
AcDbAttributeDefinition
  3
Scale
  2
SCALE
 70
     0
1001
AcDbAttr
1070
     0
1070
     1
  0
ATTDEF
  5
7C90
330
6946
100
AcDbEntity
  8
0
100
AcDbText
 10
109.8604241840326
 20
-12.15072715688961
 30
0.0
 40
3.5
  1

100
AcDbAttributeDefinition
  3
Drg No
  2
DRGNO
 70
     0
1001
AcDbAttr
1070
     0
1070
     1
  0
ATTDEF
  5
7C91
330
6946
100
AcDbEntity
  8
0
100
AcDbText
 10
39.57990030128394
 20
-4.43392399728782
 30
0.0
 40
4.0
  1

100
AcDbAttributeDefinition
  3
Title2
  2
TITLE2
 70
     0
1001
AcDbAttr
1070
     0
1070
     1
  0
LINE
  5
7C92
330
6946
100
AcDbEntity
  8
Title block
100
AcDbLine
 10
5.160599931094154
 20
8.156069115485486
 30
0.0
 11
5.160599931094154
 21
-21.18969314367286
 31
0.0
  0
TEXT
  5
7C93
330
6946
100
AcDbEntity
  8
0
100
AcDbText
 10
22.06131255381888
 20
-18.82149836119106
 30
0.0
 40
1.9
  1
This drawing must be read in conjunction with the Supercrete Block Design Guide
  7
Title block
100
AcDbText
  0
MTEXT
  5
7C94
102
{ACAD_XDICTIONARY
360
7C95
102
}
330
6946
100
AcDbEntity
  8
Text
100
AcDbMText
 10
-51.2912653877921
 20
-7.003771573345915
 30
0.0
 40
3.0
 41
55.49050343911358
 71
     1
 72
     5
  1
\pi1.1419;BLOCK CONSTRUCTION
  7
Titles
 73
     1
 44
1.0
1001
ACAD
1000
ACAD_MTEXT_COLUMN_INFO_BEGIN
1070
    75
1070
     2
1070
    79
1070
     0
1070
    76
1070
     1
1070
    78
1070
     0
1070
    48
1040
55.49050343911358
1070
    49
1040
12.5
1070
    50
1070
     1
1040
0.0
1000
ACAD_MTEXT_COLUMN_INFO_END
  0
IMAGE
  5
7C96
330
6946
100
AcDbEntity
  8
0
 92
      140
310
8C0000000100000084000000060000000500000060B1837676B24AC0B63D80ABDC2514C0000000000000000060B1837676B24AC0FFD9854AE84F204000000000000000003828EF4E74A41440FFD9854AE84F204000000000000000003828EF4E74A41440B63D80ABDC2514C0000000000000000060B1837676B24AC0B63D80
310
ABDC2514C00000000000000000
100
AcDbRasterImage
 90
        0
 10
-53.39424020223919
 20
-5.036974601461613
 30
0.0
 11
0.0428345575225555
 21
0.0
 31
0.0
 12
0.0
 22
0.0428345575225555
 32
0.0
 13
1367.0
 23
308.0
340
7BF6
 70
     7
280
     0
281
    50
282
    50
283
     0
360
7C97
 71
     1
 91
        2
 14
-0.5
 24
-0.5
 14
1366.5
 24
307.5
  0
ENDBLK
  5
6960
330
6946
100
AcDbEntity
  8
0
 48
10.0
100
AcDbBlockEnd
  0
BLOCK
  5
7044
330
7043
100
AcDbEntity
  8
0
 48
10.0
100
AcDbBlockBegin
  2
*D3
 70
     1
 10
0.0
 20
0.0
 30
0.0
  3
*D3
  1

  0
LINE
  5
7DCE
330
7043
100
AcDbEntity
  8
Text
 62
     7
440
 16777216
 48
10.0
370
    -2
100
AcDbLine
 10
129.4508222065419
 20
154.7865863874195
 30
0.0
 11
139.4386734327849
 21
154.7865863874195
 31
0.0
  0
LINE
  5
7DCF
330
7043
100
AcDbEntity
  8
Text
 62
     7
440
 16777216
 48
10.0
370
    -2
100
AcDbLine
 10
132.4676217864406
 20
164.7865864075747
 30
0.0
 11
139.4386734327849
 21
164.7865864075747
 31
0.0
  0
LINE
  5
7DD0
330
7043
100
AcDbEntity
  8
Text
 62
     7
440
 16777216
 48
10.0
370
    -2
100
AcDbLine
 10
138.4386734327849
 20
157.7865863874194
 30
0.0
 11
138.4386734327849
 21
161.7865864075747
 31
0.0
  0
MTEXT
  5
7DD1
330
7043
100
AcDbEntity
  8
Text
 62
     7
440
 16777216
 48
10.0
100
AcDbMText
 10
158.0714640362086
 20
159.9796663823646
 30
0.0
 40
2.5
 41
0.0
 71
     5
 72
     1
  1
\A1;{\fTahoma|b0|i1|c0|p34;100mm min. high rebate}
  7
1
 11
0.9999984769132876
 21
0.0017453283658983
 31
0.0
 73
     1
 44
1.0
  0
SOLID
  5
7DD2
330
7043
100
AcDbEntity
  8
Text
 62
     7
440
 16777216
 48
10.0
100
AcDbTrace
 10
137.938673432785
 20
157.7865863874194
 30
0.0
 11
138.938673432785
 21
157.7865863874194
 31
0.0
 12
138.4386734327849
 22
154.7865863874195
 32
0.0
 13
138.4386734327849
 23
154.7865863874195
 33
0.0
  0
SOLID
  5
7DD3
330
7043
100
AcDbEntity
  8
Text
 62
     7
440
 16777216
 48
10.0
100
AcDbTrace
 10
137.938673432785
 20
161.7865864075747
 30
0.0
 11
138.938673432785
 21
161.7865864075747
 31
0.0
 12
138.4386734327849
 22
164.7865864075747
 32
0.0
 13
138.4386734327849
 23
164.7865864075747
 33
0.0
  0
POINT
  5
7DD4
330
7043
100
AcDbEntity
  8
Defpoints
 62
     0
440
 16777216
 48
10.0
100
AcDbPoint
 10
128.4508222065419
 20
154.7865863874195
 30
0.0
  0
POINT
  5
7DD5
330
7043
100
AcDbEntity
  8
Defpoints
 62
     0
440
 16777216
 48
10.0
100
AcDbPoint
 10
131.4676217864406
 20
164.7865864075747
 30
0.0
  0
POINT
  5
7DD6
330
7043
100
AcDbEntity
  8
Defpoints
 62
     0
440
 16777216
 48
10.0
100
AcDbPoint
 10
138.4386734327849
 20
164.7865864075747
 30
0.0
  0
ENDBLK
  5
7045
330
7043
100
AcDbEntity
  8
0
 48
10.0
100
AcDbBlockEnd
  0
BLOCK
  5
705D
330
705C
100
AcDbEntity
  8
0
 48
10.0
100
AcDbBlockBegin
  2
*D4
 70
     1
 10
0.0
 20
0.0
 30
0.0
  3
*D4
  1

  0
LINE
  5
7A37
330
705C
100
AcDbEntity
  8
Text
 62
     7
440
 16777216
 48
10.0
370
    -2
100
AcDbLine
 10
97.95082248298966
 20
166.7865862180329
 30
0.0
 11
87.82183093578055
 21
166.7865862180329
 31
0.0
  0
LINE
  5
7A38
330
705C
100
AcDbEntity
  8
Text
 62
     7
440
 16777216
 48
10.0
370
    -2
100
AcDbLine
 10
103.4508221581692
 20
186.7865864519162
 30
0.0
 11
87.82183093578055
 21
186.7865864519162
 31
0.0
  0
LINE
  5
7A39
330
705C
100
AcDbEntity
  8
Text
 62
     7
440
 16777216
 48
10.0
370
    -2
100
AcDbLine
 10
88.82183093578055
 20
169.7865862180329
 30
0.0
 11
88.82183093578055
 21
183.7865864519162
 31
0.0
  0
SOLID
  5
7A3A
330
705C
100
AcDbEntity
  8
Text
 62
     7
440
 16777216
 48
10.0
100
AcDbTrace
 10
88.32183093578056
 20
169.7865862180329
 30
0.0
 11
89.32183093578055
 21
169.7865862180329
 31
0.0
 12
88.82183093578055
 22
166.7865862180329
 32
0.0
 13
88.82183093578055
 23
166.7865862180329
 33
0.0
  0
SOLID
  5
7A3B
330
705C
100
AcDbEntity
  8
Text
 62
     7
440
 16777216
 48
10.0
100
AcDbTrace
 10
88.32183093578056
 20
183.7865864519162
 30
0.0
 11
89.32183093578055
 21
183.7865864519162
 31
0.0
 12
88.82183093578055
 22
186.7865864519162
 32
0.0
 13
88.82183093578055
 23
186.7865864519162
 33
0.0
  0
MTEXT
  5
7A3C
330
705C
100
AcDbEntity
  8
Text
 62
     7
440
 16777216
 48
10.0
100
AcDbMText
 10
86.53703799620144
 20
176.7865863349746
 30
0.0
 40
2.5
 41
0.0
 71
     5
 72
     1
  1
\A1;200
  7
1
 11
0.0000000000000001
 21
1.0
 31
0.0
 73
     1
 44
1.0
  0
POINT
  5
7A3D
330
705C
100
AcDbEntity
  8
Defpoints
 62
     0
440
 16777216
 48
10.0
100
AcDbPoint
 10
98.95082248298965
 20
166.7865862180329
 30
0.0
  0
POINT
  5
7A3E
330
705C
100
AcDbEntity
  8
Defpoints
 62
     0
440
 16777216
 48
10.0
100
AcDbPoint
 10
104.4508221581692
 20
186.7865864519162
 30
0.0
  0
POINT
  5
7A3F
330
705C
100
AcDbEntity
  8
Defpoints
 62
     0
440
 16777216
 48
10.0
100
AcDbPoint
 10
88.82183093578055
 20
186.7865864519162
 30
0.0
  0
ENDBLK
  5
705E
330
705C
100
AcDbEntity
  8
0
 48
10.0
100
AcDbBlockEnd
  0
BLOCK
  5
7069
330
7068
100
AcDbEntity
  8
0
 48
10.0
100
AcDbBlockBegin
  2
*D5
 70
     1
 10
0.0
 20
0.0
 30
0.0
  3
*D5
  1

  0
LINE
  5
75F3
330
7068
100
AcDbEntity
  8
Text
 62
     7
440
 16777216
 48
10.0
370
    -2
100
AcDbLine
 10
129.4508222085573
 20
217.786586512382
 30
0.0
 11
129.4508222085573
 21
225.3111105580811
 31
0.0
  0
LINE
  5
75F4
330
7068
100
AcDbEntity
  8
Text
 62
     7
440
 16777216
 48
10.0
370
    -2
100
AcDbLine
 10
98.95082248298965
 20
217.7865857494774
 30
0.0
 11
98.95082248298965
 21
225.3111105580811
 31
0.0
  0
LINE
  5
75F5
330
7068
100
AcDbEntity
  8
Text
 62
     7
440
 16777216
 48
10.0
370
    -2
100
AcDbLine
 10
126.4508222085573
 20
224.3111105580811
 30
0.0
 11
101.9508224829896
 21
224.3111105580811
 31
0.0
  0
SOLID
  5
75F6
330
7068
100
AcDbEntity
  8
Text
 62
     7
440
 16777216
 48
10.0
100
AcDbTrace
 10
126.4508222085573
 20
224.8111105580811
 30
0.0
 11
126.4508222085573
 21
223.8111105580811
 31
0.0
 12
129.4508222085573
 22
224.3111105580811
 32
0.0
 13
129.4508222085573
 23
224.3111105580811
 33
0.0
  0
SOLID
  5
75F7
330
7068
100
AcDbEntity
  8
Text
 62
     7
440
 16777216
 48
10.0
100
AcDbTrace
 10
101.9508224829896
 20
224.8111105580811
 30
0.0
 11
101.9508224829896
 21
223.8111105580811
 31
0.0
 12
98.95082248298965
 22
224.3111105580811
 32
0.0
 13
98.95082248298965
 23
224.3111105580811
 33
0.0
  0
MTEXT
  5
75F8
330
7068
100
AcDbEntity
  8
Text
 62
     7
440
 16777216
 48
10.0
100
AcDbMText
 10
114.2008223457735
 20
226.5959034976602
 30
0.0
 40
2.5
 41
0.0
 71
     5
 72
     1
  1
\A1;300
  7
1
 73
     1
 44
1.0
  0
POINT
  5
75F9
330
7068
100
AcDbEntity
  8
Defpoints
 62
     0
440
 16777216
 48
10.0
100
AcDbPoint
 10
129.4508222085573
 20
216.786586512382
 30
0.0
  0
POINT
  5
75FA
330
7068
100
AcDbEntity
  8
Defpoints
 62
     0
440
 16777216
 48
10.0
100
AcDbPoint
 10
98.95082248298965
 20
216.7865857494774
 30
0.0
  0
POINT
  5
75FB
330
7068
100
AcDbEntity
  8
Defpoints
 62
     0
440
 16777216
 48
10.0
100
AcDbPoint
 10
98.95082248298965
 20
224.3111105580811
 30
0.0
  0
ENDBLK
  5
706A
330
7068
100
AcDbEntity
  8
0
 48
10.0
100
AcDbBlockEnd
  0
BLOCK
  5
7226
330
7225
100
AcDbEntity
  8
0
 48
10.0
100
AcDbBlockBegin
  2
*D6
 70
     1
 10
0.0
 20
0.0
 30
0.0
  3
*D6
  1

  0
LINE
  5
7DE1
330
7225
100
AcDbEntity
  8
Text
 62
     7
440
 16777216
 48
10.0
370
    -2
100
AcDbLine
 10
129.4508222065419
 20
154.7865863874195
 30
0.0
 11
139.4386734327849
 21
154.7865863874195
 31
0.0
  0
LINE
  5
7DE2
330
7225
100
AcDbEntity
  8
Text
 62
     7
440
 16777216
 48
10.0
370
    -2
100
AcDbLine
 10
129.4508222065419
 20
149.7865863773418
 30
0.0
 11
139.4386734327849
 21
149.7865863773418
 31
0.0
  0
LINE
  5
7DE3
330
7225
100
AcDbEntity
  8
Text
 62
     7
440
 16777216
 48
10.0
370
    -2
100
AcDbLine
 10
138.4386734327849
 20
157.7865863874194
 30
0.0
 11
138.4386734327849
 21
160.7865863874194
 31
0.0
  0
LINE
  5
7DE4
330
7225
100
AcDbEntity
  8
Text
 62
     7
440
 16777216
 48
10.0
370
    -2
100
AcDbLine
 10
138.4386734327849
 20
146.7865863773418
 30
0.0
 11
138.4386734327849
 21
143.7865863773418
 31
0.0
  0
MTEXT
  5
7DE5
330
7225
100
AcDbEntity
  8
Text
 62
     7
440
 16777216
 48
10.0
100
AcDbMText
 10
164.0066512445735
 20
152.5979017472276
 30
0.0
 40
2.5
 41
0.0
 71
     5
 72
     1
  1
\A1;{\fTahoma|b0|i1|c0|p34;As per NZS 4229 requirements}
  7
1
 11
0.9999984769132876
 21
0.0017453283658983
 31
0.0
 73
     1
 44
1.0
  0
SOLID
  5
7DE6
330
7225
100
AcDbEntity
  8
Text
 62
     7
440
 16777216
 48
10.0
100
AcDbTrace
 10
137.938673432785
 20
157.7865863874194
 30
0.0
 11
138.938673432785
 21
157.7865863874194
 31
0.0
 12
138.4386734327849
 22
154.7865863874195
 32
0.0
 13
138.4386734327849
 23
154.7865863874195
 33
0.0
  0
SOLID
  5
7DE7
330
7225
100
AcDbEntity
  8
Text
 62
     7
440
 16777216
 48
10.0
100
AcDbTrace
 10
137.938673432785
 20
146.7865863773418
 30
0.0
 11
138.938673432785
 21
146.7865863773418
 31
0.0
 12
138.4386734327849
 22
149.7865863773418
 32
0.0
 13
138.4386734327849
 23
149.7865863773418
 33
0.0
  0
POINT
  5
7DE8
330
7225
100
AcDbEntity
  8
Defpoints
 62
     0
440
 16777216
 48
10.0
100
AcDbPoint
 10
128.4508222065419
 20
154.7865863874195
 30
0.0
  0
POINT
  5
7DE9
330
7225
100
AcDbEntity
  8
Defpoints
 62
     0
440
 16777216
 48
10.0
100
AcDbPoint
 10
128.4508222065419
 20
149.7865863773418
 30
0.0
  0
POINT
  5
7DEA
330
7225
100
AcDbEntity
  8
Defpoints
 62
     0
440
 16777216
 48
10.0
100
AcDbPoint
 10
138.4386734327849
 20
149.7865863773418
 30
0.0
  0
ENDBLK
  5
7227
330
7225
100
AcDbEntity
  8
0
 48
10.0
100
AcDbBlockEnd
  0
BLOCK
  5
767E
330
767D
100
AcDbEntity
  8
0
 48
10.0
100
AcDbBlockBegin
  2
*D7
 70
     1
 10
0.0
 20
0.0
 30
0.0
  3
*D7
  1

  0
LINE
  5
76A4
330
767D
100
AcDbEntity
  8
hatch
 62
     7
440
 16777216
 48
10.0
370
    -2
100
AcDbLine
 10
108.4508223939641
 20
153.7865863304863
 30
0.0
 11
108.4508223939641
 21
133.5021418984763
 31
0.0
  0
LINE
  5
76A5
330
767D
100
AcDbEntity
  8
hatch
 62
     7
440
 16777216
 48
10.0
370
    -2
100
AcDbLine
 10
127.9508222112274
 20
148.7865863773418
 30
0.0
 11
127.9508222112274
 21
133.5021418984763
 31
0.0
  0
LINE
  5
76A6
330
767D
100
AcDbEntity
  8
hatch
 62
     7
440
 16777216
 48
10.0
370
    -2
100
AcDbLine
 10
111.4508223939641
 20
134.5021418984763
 30
0.0
 11
124.9508222112274
 21
134.5021418984763
 31
0.0
  0
SOLID
  5
76A7
330
767D
100
AcDbEntity
  8
hatch
 62
     7
440
 16777216
 48
10.0
100
AcDbTrace
 10
111.4508223939641
 20
135.0021418984763
 30
0.0
 11
111.4508223939641
 21
134.0021418984763
 31
0.0
 12
108.4508223939641
 22
134.5021418984763
 32
0.0
 13
108.4508223939641
 23
134.5021418984763
 33
0.0
  0
SOLID
  5
76A8
330
767D
100
AcDbEntity
  8
hatch
 62
     7
440
 16777216
 48
10.0
100
AcDbTrace
 10
124.9508222112274
 20
135.0021418984763
 30
0.0
 11
124.9508222112274
 21
134.0021418984763
 31
0.0
 12
127.9508222112274
 22
134.5021418984763
 32
0.0
 13
127.9508222112274
 23
134.5021418984763
 33
0.0
  0
MTEXT
  5
76A9
330
767D
100
AcDbEntity
  8
hatch
 62
     7
440
 16777216
 48
10.0
100
AcDbMText
 10
118.2008223025957
 20
136.7869348380554
 30
0.0
 40
2.5
 41
0.0
 71
     5
 72
     1
  1
\A1;200
  7
1
 73
     1
 44
1.0
  0
POINT
  5
76AA
330
767D
100
AcDbEntity
  8
Defpoints
 62
     0
440
 16777216
 48
10.0
100
AcDbPoint
 10
108.4508223939641
 20
154.7865863304862
 30
0.0
  0
POINT
  5
76AB
330
767D
100
AcDbEntity
  8
Defpoints
 62
     0
440
 16777216
 48
10.0
100
AcDbPoint
 10
127.9508222112274
 20
149.7865863773418
 30
0.0
  0
POINT
  5
76AC
330
767D
100
AcDbEntity
  8
Defpoints
 62
     0
440
 16777216
 48
10.0
100
AcDbPoint
 10
127.9508222112274
 20
134.5021418984763
 30
0.0
  0
ENDBLK
  5
767F
330
767D
100
AcDbEntity
  8
0
 48
10.0
100
AcDbBlockEnd
  0
BLOCK
  5
7BD1
330
7BD0
100
AcDbEntity
  8
0
100
AcDbBlockBegin
  2
_Dot
 70
     0
 10
0.0
 20
0.0
 30
0.0
  3
_Dot
  1

  0
LWPOLYLINE
  5
7BD2
330
7BD0
100
AcDbEntity
  8
0
  6
ByBlock
 62
     0
100
AcDbPolyline
 90
        2
 70
     1
 43
0.5
 10
-0.25
 20
0.0
 42
1.0
 10
0.25
 20
0.0
 42
1.0
  0
LINE
  5
7BD3
330
7BD0
100
AcDbEntity
  8
0
  6
ByBlock
 62
     0
370
    -2
100
AcDbLine
 10
-0.5
 20
0.0
 30
0.0
 11
-1.0
 21
0.0
 31
0.0
  0
ENDBLK
  5
7BD4
330
7BD0
100
AcDbEntity
  8
0
100
AcDbBlockEnd
  0
ENDSEC
  0
SECTION
  2
ENTITIES
  0
LWPOLYLINE
  5
2457
102
{ACAD_REACTORS
330
781F
102
}
330
1F
100
AcDbEntity
  8
Concrete
100
AcDbPolyline
 90
        4
 70
     0
 43
0.0
 10
-775.2819192090282
 20
4787.690883011672
 10
-170.2819192090283
 20
4787.690883011672
 10
-170.2819192090283
 20
4687.690883011671
 10
-125.2819192090282
 20
4687.690883011671
  0
LWPOLYLINE
  5
2458
102
{ACAD_REACTORS
330
781F
102
}
330
1F
100
AcDbEntity
  8
Concrete
100
AcDbPolyline
 90
        7
 70
     0
 43
0.0
 10
-105.2819192090282
 20
4687.690883011671
 10
24.71808079097173
 20
4687.690883011671
 10
24.71808079097173
 20
4287.690883011672
 10
-275.2819192090283
 20
4287.690883011672
 10
-275.2819192090283
 20
4487.690883011672
 10
-475.2819192090282
 20
4687.690883011671
 10
-775.2819192090282
 20
4687.690883011671
  0
LWPOLYLINE
  5
245C
102
{ACAD_REACTORS
330
781F
102
}
330
1F
100
AcDbEntity
  8
Fastenings and sealants
100
AcDbPolyline
 90
        6
 70
     0
 43
0.0
 10
-775.1898919040213
 20
4106.884837037568
 10
-775.2819192090282
 20
4727.690883011671
 10
-745.2819192090283
 20
4732.690883011672
 10
-805.2819192090282
 20
4742.690883011671
 10
-775.2819192090282
 20
4747.690883011672
 10
-775.2819192090282
 20
4872.690883011672
  0
LWPOLYLINE
  5
245E
102
{ACAD_REACTORS
330
794C
102
}
330
1F
100
AcDbEntity
  8
Hebel
100
AcDbPolyline
 90
        4
 70
     1
 43
0.0
 10
-265.2819192090283
 20
4807.690883011672
 10
-165.2819192090283
 20
4807.690883011672
 10
-165.2819192090283
 20
5007.690883011672
 10
-265.2819192090283
 20
5007.690883011672
  0
LWPOLYLINE
  5
2461
102
{ACAD_REACTORS
330
7855
330
794C
102
}
330
1F
100
AcDbEntity
  8
Hebel
100
AcDbPolyline
 90
        4
 70
     1
 43
0.0
 10
-165.2819192090283
 20
5007.690883011672
 10
-140.2819192090283
 20
5007.690883011672
 10
-140.2819192090283
 20
4707.690883011672
 10
-165.2819192090283
 20
4707.690883011672
  0
LWPOLYLINE
  5
2462
102
{ACAD_REACTORS
330
7855
102
}
330
1F
100
AcDbEntity
  8
Hebel
100
AcDbPolyline
 90
        4
 70
     1
 43
0.0
 10
-90.28191920902827
 20
5007.690883011672
 10
34.71808079097173
 20
5007.690883011672
 10
34.71808079097173
 20
4707.690883011672
 10
-90.28191920902827
 20
4707.690883011672
  0
HATCH
  5
2463
330
1F
100
AcDbEntity
  8
hatch
100
AcDbHatch
 10
0.0
 20
0.0
 30
0.0
210
0.0
220
0.0
230
1.0
  2
AR-SAND
 70
     0
 71
     1
 91
        1
 92
        7
 72
     0
 73
     1
 93
        4
 10
-140.2819192090283
 20
5207.690883011672
 10
-265.2819192090283
 20
5207.690883011673
 10
-265.2819192090283
 20
5007.690883011672
 10
-140.2819192090283
 20
5007.690883011672
 97
        1
330
2464
 75
     0
 76
     1
 52
0.0
 41
10.0
 77
     0
 78
     4
 53
37.5
 43
-5393.863528779821
 44
1275.232200564109
 45
-0.6299335810960816
 46
19.26823769013158
 79
     6
 49
0.0
 49
-15.2
 49
0.0
 49
-17.0
 49
0.0
 49
-16.25
 53
7.499999999999999
 43
-5393.863528779821
 44
1275.232200564109
 45
17.69776705267727
 46
28.2214606522974
 79
     6
 49
0.0
 49
-8.199999999999999
 49
0.0
 49
-13.7
 49
0.0
 49
-5.25
 53
327.5
 43
-5406.163528779821
 44
1275.232200564109
 45
31.14141861751495
 46
0.056590535369645
 79
     6
 49
0.0
 49
-5.0
 49
0.0
 49
-18.0
 49
0.0
 49
-23.5
 53
317.5
 43
-5406.163528779821
 44
1275.232200564109
 45
30.06126604572293
 46
8.77675564934249
 79
     6
 49
0.0
 49
-2.5
 49
0.0
 49
-11.8
 49
0.0
 49
-13.5
 47
1.12975083625195
 98
        1
 10
-196.3358754290202
 20
5115.951092036199
1001
ACAD
1010
0.0
1020
0.0
1030
0.0
  0
LWPOLYLINE
  5
2464
102
{ACAD_REACTORS
330
2463
330
794C
102
}
330
1F
100
AcDbEntity
  8
Hebel
100
AcDbPolyline
 90
        4
 70
     1
 43
0.0
 10
-265.2819192090283
 20
5007.690883011672
 10
-140.2819192090283
 20
5007.690883011672
 10
-140.2819192090283
 20
5207.690883011672
 10
-265.2819192090283
 20
5207.690883011672
  0
HATCH
  5
2465
330
1F
100
AcDbEntity
  8
hatch
100
AcDbHatch
 10
0.0
 20
0.0
 30
0.0
210
0.0
220
0.0
230
1.0
  2
AR-SAND
 70
     0
 71
     1
 91
        1
 92
        7
 72
     0
 73
     1
 93
        4
 10
-140.2819192090283
 20
5307.690883011672
 10
-265.2819192090283
 20
5307.69088301167
 10
-265.2819192090283
 20
5207.690883011671
 10
-140.2819192090283
 20
5207.690883011672
 97
        2
330
2466
330
2467
 75
     0
 76
     1
 52
0.0
 41
10.0
 77
     0
 78
     4
 53
37.5
 43
-5393.863528779821
 44
1475.232200564109
 45
-0.6299335810960816
 46
19.26823769013158
 79
     6
 49
0.0
 49
-15.2
 49
0.0
 49
-17.0
 49
0.0
 49
-16.25
 53
7.499999999999999
 43
-5393.863528779821
 44
1475.232200564109
 45
17.69776705267727
 46
28.2214606522974
 79
     6
 49
0.0
 49
-8.199999999999999
 49
0.0
 49
-13.7
 49
0.0
 49
-5.25
 53
327.5
 43
-5406.163528779821
 44
1475.232200564109
 45
31.14141861751495
 46
0.056590535369645
 79
     6
 49
0.0
 49
-5.0
 49
0.0
 49
-18.0
 49
0.0
 49
-23.5
 53
317.5
 43
-5406.163528779821
 44
1475.232200564109
 45
30.06126604572293
 46
8.77675564934249
 79
     6
 49
0.0
 49
-2.5
 49
0.0
 49
-11.8
 49
0.0
 49
-13.5
 47
1.12975083625195
 98
        1
 10
-177.7819192090283
 20
5257.690883011672
1001
ACAD
1010
0.0
1020
0.0
1030
0.0
  0
LWPOLYLINE
  5
2466
102
{ACAD_REACTORS
330
2465
102
}
330
1F
100
AcDbEntity
  8
Hebel
100
AcDbPolyline
 90
        4
 70
     0
 43
0.0
 10
-265.2819192090283
 20
5307.690883011672
 10
-265.2819192090283
 20
5207.690883011672
 10
-140.2819192090283
 20
5207.690883011672
 10
-140.2819192090283
 20
5307.690883011672
  0
LWPOLYLINE
  5
2467
102
{ACAD_REACTORS
330
2465
330
2476
330
744C
330
758A
102
}
330
1F
100
AcDbEntity
  8
Fastenings and sealants
100
AcDbPolyline
 90
        6
 70
     0
 43
0.0
 10
-340.2819192090283
 20
5307.690883011672
 10
-100.2819192090282
 20
5307.690883011672
 10
-95.28191920902827
 20
5277.690883011672
 10
-85.28191920902827
 20
5337.690883011672
 10
-80.28191920902827
 20
5307.690883011672
 10
69.71808079097172
 20
5307.690883011672
  0
LINE
  5
2469
102
{ACAD_REACTORS
330
7854
102
}
330
1F
100
AcDbEntity
  8
Steel
100
AcDbLine
 10
-109.2819192090282
 20
5307.690883011672
 30
0.0
 11
-109.2819192090282
 21
4565.733367406113
 31
0.0
  0
LINE
  5
246A
102
{ACAD_REACTORS
330
7175
102
}
330
1F
100
AcDbEntity
  8
Steel
100
AcDbLine
 10
-121.2819192090282
 20
5307.690883011672
 30
0.0
 11
-121.2819192090282
 21
4565.733367406113
 31
0.0
  0
LINE
  5
246C
102
{ACAD_REACTORS
330
781F
102
}
330
1F
100
AcDbEntity
  8
Concrete
100
AcDbLine
 10
-125.2819192090282
 20
4687.690883011671
 30
0.0
 11
-125.2819192090282
 21
4562.690883011671
 31
0.0
  0
LINE
  5
246D
102
{ACAD_REACTORS
330
781F
102
}
330
1F
100
AcDbEntity
  8
Concrete
100
AcDbLine
 10
-125.2819192090282
 20
4562.690883011671
 30
0.0
 11
-105.2819192090282
 21
4562.690883011671
 31
0.0
  0
LINE
  5
246E
102
{ACAD_REACTORS
330
781F
102
}
330
1F
100
AcDbEntity
  8
Concrete
100
AcDbLine
 10
-105.2819192090282
 20
4562.690883011671
 30
0.0
 11
-105.2819192090282
 21
4687.690883011671
 31
0.0
  0
LINE
  5
246F
330
1F
100
AcDbEntity
  8
groundline
100
AcDbLine
 10
24.71808079097173
 20
4637.690883011671
 30
0.0
 11
324.7180807909863
 21
4637.690883011674
 31
0.0
  0
LWPOLYLINE
  5
2472
102
{ACAD_REACTORS
330
744C
102
}
330
1F
100
AcDbEntity
  8
linings
100
AcDbPolyline
 90
        4
 70
     0
 43
0.0
 10
34.71808079097173
 20
5307.690883011672
 10
34.71808079097173
 20
4707.690883011672
 10
42.71808079096809
 20
4707.690883011667
 10
42.71808079097172
 20
5307.690883011672
  0
HATCH
  5
2474
330
1F
100
AcDbEntity
  8
hatch
100
AcDbHatch
 10
0.0
 20
0.0
 30
0.0
210
0.0
220
0.0
230
1.0
  2
AR-SAND
 70
     0
 71
     1
 91
        1
 92
        7
 72
     0
 73
     1
 93
        4
 10
-90.28191920902829
 20
5207.690883011672
 10
-90.28191920902827
 20
5007.690883011672
 10
34.71808079097173
 20
5007.690883011672
 10
34.71808079097173
 20
5207.690883011672
 97
        1
330
2475
 75
     0
 76
     1
 52
0.0
 41
10.0
 77
     0
 78
     4
 53
37.5
 43
-5353.043473612885
 44
2329.869331595673
 45
-0.6299335810960816
 46
19.26823769013158
 79
     6
 49
0.0
 49
-15.2
 49
0.0
 49
-17.0
 49
0.0
 49
-16.25
 53
7.499999999999999
 43
-5353.043473612885
 44
2329.869331595673
 45
17.69776705267727
 46
28.2214606522974
 79
     6
 49
0.0
 49
-8.199999999999999
 49
0.0
 49
-13.7
 49
0.0
 49
-5.25
 53
327.5
 43
-5365.343473612885
 44
2329.869331595673
 45
31.14141861751495
 46
0.056590535369645
 79
     6
 49
0.0
 49
-5.0
 49
0.0
 49
-18.0
 49
0.0
 49
-23.5
 53
317.5
 43
-5365.343473612885
 44
2329.869331595673
 45
30.06126604572293
 46
8.77675564934249
 79
     6
 49
0.0
 49
-2.5
 49
0.0
 49
-11.8
 49
0.0
 49
-13.5
 47
1.327766267724173
 98
        1
 10
-13.96692968642674
 20
5174.848926079191
1001
ACAD
1010
0.0
1020
0.0
1030
0.0
  0
LWPOLYLINE
  5
2475
102
{ACAD_REACTORS
330
2474
330
744C
102
}
330
1F
100
AcDbEntity
  8
Hebel
100
AcDbPolyline
 90
        4
 70
     1
 43
0.0
 10
-90.28191920902827
 20
5207.690883011672
 10
34.71808079097173
 20
5207.690883011672
 10
34.71808079097173
 20
5007.690883011672
 10
-90.28191920902827
 20
5007.690883011672
  0
HATCH
  5
2476
330
1F
100
AcDbEntity
  8
hatch
100
AcDbHatch
 10
0.0
 20
0.0
 30
0.0
210
0.0
220
0.0
230
1.0
  2
AR-SAND
 70
     0
 71
     1
 91
        1
 92
        7
 72
     0
 73
     1
 93
        6
 10
34.71808079097173
 20
5307.690883011672
 10
-80.28191920902809
 20
5307.69088301167
 10
-85.28191920902825
 20
5337.690883011672
 10
-90.28191920902829
 20
5307.690883011672
 10
-90.2819192090283
 20
5207.690883011672
 10
34.71808079097172
 20
5207.690883011671
 97
        2
330
2477
330
2467
 75
     0
 76
     1
 52
0.0
 41
10.0
 77
     0
 78
     4
 53
37.5
 43
-5353.043473612885
 44
2529.869331595674
 45
-0.6299335810960816
 46
19.26823769013158
 79
     6
 49
0.0
 49
-15.2
 49
0.0
 49
-17.0
 49
0.0
 49
-16.25
 53
7.499999999999999
 43
-5353.043473612885
 44
2529.869331595674
 45
17.69776705267727
 46
28.2214606522974
 79
     6
 49
0.0
 49
-8.199999999999999
 49
0.0
 49
-13.7
 49
0.0
 49
-5.25
 53
327.5
 43
-5365.343473612885
 44
2529.869331595674
 45
31.14141861751495
 46
0.056590535369645
 79
     6
 49
0.0
 49
-5.0
 49
0.0
 49
-18.0
 49
0.0
 49
-23.5
 53
317.5
 43
-5365.343473612885
 44
2529.869331595674
 45
30.06126604572293
 46
8.77675564934249
 79
     6
 49
0.0
 49
-2.5
 49
0.0
 49
-11.8
 49
0.0
 49
-13.5
 47
1.327766267724173
 98
        1
 10
-2.781919209028274
 20
5257.690883011672
1001
ACAD
1010
0.0
1020
0.0
1030
0.0
  0
LWPOLYLINE
  5
2477
102
{ACAD_REACTORS
330
2476
330
744C
102
}
330
1F
100
AcDbEntity
  8
Hebel
100
AcDbPolyline
 90
        4
 70
     0
 43
0.0
 10
34.71808079097173
 20
5307.690883011672
 10
34.71808079097173
 20
5207.690883011672
 10
-90.28191920902827
 20
5207.690883011672
 10
-90.28191920902827
 20
5307.690883011672
  0
HATCH
  5
2478
330
1F
100
AcDbEntity
  8
hatch
100
AcDbHatch
 10
0.0
 20
0.0
 30
0.0
210
0.0
220
0.0
230
1.0
  2
SACNCR
 70
     0
 71
     0
 91
        1
 92
        7
 72
     0
 73
     1
 93
        4
 10
-273.2819192090283
 20
4827.69088301167
 10
-285.2819192090283
 20
4822.690883011672
 10
-285.2819192090283
 20
4787.690883011672
 10
-273.2819192090283
 20
4787.690883011672
 97
        0
 75
     0
 76
     1
 52
0.0
 41
50.0
 77
     0
 78
     2
 53
45.0
 43
-5353.043473612885
 44
2329.869331595673
 45
-3.314563036811941
 46
3.314563036811942
 79
     0
 53
45.0
 43
-5349.728910562884
 44
2329.869331595673
 45
-3.314563036811941
 46
3.314563036811942
 79
     2
 49
0.0
 49
-4.6875
 47
0.1103543912470512
 98
        1
 10
-279.7304102249218
 20
4816.680843107814
1001
ACAD
1010
0.0
1020
0.0
1030
0.0
  0
LWPOLYLINE
  5
2479
330
1F
100
AcDbEntity
  8
dress timber
100
AcDbPolyline
 90
        4
 70
     1
 43
0.0
 10
-285.2819192090283
 20
4787.690883011672
 10
-273.2819192090283
 20
4787.690883011672
 10
-273.2819192090283
 20
4827.690883011672
 10
-285.2819192090283
 20
4822.690883011672
  0
LWPOLYLINE
  5
247A
102
{ACAD_REACTORS
330
7176
102
}
330
1F
100
AcDbEntity
  8
linings
100
AcDbPolyline
 90
        4
 70
     0
 43
0.0
 10
-265.2819192090283
 20
5307.690883011672
 10
-265.2819192090283
 20
4787.690883011672
 10
-273.2819192090283
 20
4787.690883011672
 10
-273.2819192090283
 20
5307.690883011672
  0
HATCH
  5
247B
330
1F
100
AcDbEntity
  8
hatch
100
AcDbHatch
 10
0.0
 20
0.0
 30
0.0
210
0.0
220
0.0
230
1.0
  2
AR-SAND
 70
     0
 71
     0
 91
        1
 92
        7
 72
     0
 73
     1
 93
        4
 10
-265.2819192090283
 20
5037.690883011672
 10
-273.2819192090283
 20
5037.69088301167
 10
-273.2819192090283
 20
4787.690883011669
 10
-265.2819192090283
 20
4787.690883011672
 97
        0
 75
     0
 76
     1
 52
0.0
 41
1.0
 77
     0
 78
     4
 53
37.5
 43
-5661.043473612885
 44
2359.869331595673
 45
-0.0629933581096082
 46
1.926823769013158
 79
     6
 49
0.0
 49
-1.52
 49
0.0
 49
-1.7
 49
0.0
 49
-1.625
 53
7.499999999999999
 43
-5661.043473612885
 44
2359.869331595673
 45
1.769776705267727
 46
2.82214606522974
 79
     6
 49
0.0
 49
-0.8199999999999999
 49
0.0
 49
-1.37
 49
0.0
 49
-0.525
 53
327.5
 43
-5662.273473612884
 44
2359.869331595673
 45
3.114141861751495
 46
0.0056590535369645
 79
     6
 49
0.0
 49
-0.5
 49
0.0
 49
-1.8
 49
0.0
 49
-2.35
 53
317.5
 43
-5662.273473612884
 44
2359.869331595673
 45
3.006126604572293
 46
0.877675564934249
 79
     6
 49
0.0
 49
-0.25
 49
0.0
 49
-1.179999999999999
 49
0.0
 49
-1.35
 47
0.3495429600961051
 98
        1
 10
-270.5413447162027
 20
5008.897276037329
1001
ACAD
1010
0.0
1020
0.0
1030
0.0
  0
HATCH
  5
247C
330
1F
100
AcDbEntity
  8
hatch
100
AcDbHatch
 10
0.0
 20
0.0
 30
0.0
210
0.0
220
0.0
230
1.0
  2
AR-SAND
 70
     0
 71
     0
 91
        1
 92
        7
 72
     0
 73
     1
 93
        4
 10
-265.2819192090283
 20
5237.690883011669
 10
-273.2819192090283
 20
5237.690883011672
 10
-273.2819192090283
 20
5037.690883011672
 10
-265.2819192090283
 20
5037.69088301167
 97
        0
 75
     0
 76
     1
 52
0.0
 41
1.0
 77
     0
 78
     4
 53
37.5
 43
-5661.043473612885
 44
2359.869331595673
 45
-0.0629933581096082
 46
1.926823769013158
 79
     6
 49
0.0
 49
-1.52
 49
0.0
 49
-1.7
 49
0.0
 49
-1.625
 53
7.499999999999999
 43
-5661.043473612885
 44
2359.869331595673
 45
1.769776705267727
 46
2.82214606522974
 79
     6
 49
0.0
 49
-0.8199999999999999
 49
0.0
 49
-1.37
 49
0.0
 49
-0.525
 53
327.5
 43
-5662.273473612884
 44
2359.869331595673
 45
3.114141861751495
 46
0.0056590535369645
 79
     6
 49
0.0
 49
-0.5
 49
0.0
 49
-1.8
 49
0.0
 49
-2.35
 53
317.5
 43
-5662.273473612884
 44
2359.869331595673
 45
3.006126604572293
 46
0.877675564934249
 79
     6
 49
0.0
 49
-0.25
 49
0.0
 49
-1.179999999999999
 49
0.0
 49
-1.35
 47
0.3061377715112155
 98
        1
 10
-267.8981145584657
 20
5218.689592220314
1001
ACAD
1010
0.0
1020
0.0
1030
0.0
  0
LWPOLYLINE
  5
247D
102
{ACAD_REACTORS
330
794C
102
}
330
1F
100
AcDbEntity
  8
linings
100
AcDbPolyline
 90
        4
 70
     0
 43
0.0
 10
-273.2819192090283
 20
5307.690883011672
 10
-273.2819192090283
 20
4787.690883011672
 10
-265.2819192090283
 20
4787.690883011672
 10
-265.2819192090283
 20
5307.690883011672
  0
HATCH
  5
247E
330
1F
100
AcDbEntity
  8
hatch
100
AcDbHatch
 10
0.0
 20
0.0
 30
0.0
210
0.0
220
0.0
230
1.0
  2
AR-SAND
 70
     0
 71
     0
 91
        1
 92
        1
 93
        4
 72
     1
 10
-265.2819192090283
 20
5307.690883011672
 11
-273.2819192090283
 21
5307.690883011672
 72
     1
 10
-273.2819192090283
 20
5307.690883011672
 11
-273.2819192090283
 21
5237.690883011672
 72
     1
 10
-273.2819192090283
 20
5237.690883011672
 11
-265.2819192090283
 21
5237.690883011669
 72
     1
 10
-265.2819192090283
 20
5237.690883011669
 11
-265.2819192090283
 21
5307.690883011672
 97
        0
 75
     0
 76
     1
 52
0.0
 41
1.0
 77
     0
 78
     4
 53
37.5
 43
-5661.043473612885
 44
2559.869331595673
 45
-0.0629933581096082
 46
1.926823769013158
 79
     6
 49
0.0
 49
-1.52
 49
0.0
 49
-1.7
 49
0.0
 49
-1.625
 53
7.499999999999999
 43
-5661.043473612885
 44
2559.869331595673
 45
1.769776705267727
 46
2.82214606522974
 79
     6
 49
0.0
 49
-0.8199999999999999
 49
0.0
 49
-1.37
 49
0.0
 49
-0.525
 53
327.5
 43
-5662.273473612884
 44
2559.869331595673
 45
3.114141861751495
 46
0.0056590535369645
 79
     6
 49
0.0
 49
-0.5
 49
0.0
 49
-1.8
 49
0.0
 49
-2.35
 53
317.5
 43
-5662.273473612884
 44
2559.869331595673
 45
3.006126604572293
 46
0.877675564934249
 79
     6
 49
0.0
 49
-0.25
 49
0.0
 49
-1.179999999999999
 49
0.0
 49
-1.35
 98
        1
 10
-267.8981145584657
 20
5418.689592220315
1001
ACAD
1010
0.0
1020
0.0
1030
0.0
  0
LINE
  5
247F
330
1F
100
AcDbEntity
  8
linings
100
AcDbLine
 10
-775.2819192090282
 20
4787.690883011672
 30
0.0
 11
-775.2819192090282
 21
4797.690883011672
 31
0.0
  0
LINE
  5
2480
330
1F
100
AcDbEntity
  8
linings
  6
BATTING
 48
20.0
100
AcDbLine
 10
-775.2819192090282
 20
4797.690883011672
 30
0.0
 11
-285.2819192090283
 21
4797.690883011672
 31
0.0
  0
LWPOLYLINE
  5
2482
330
1F
100
AcDbEntity
  8
linings
100
AcDbPolyline
 90
        4
 70
     0
 43
0.0
 10
-121.2819192090282
 20
4697.69088301167
 10
-165.2819192090283
 20
4697.690883011669
 10
-165.2819192090283
 20
4707.690883011672
 10
-121.2819192090282
 20
4707.690883011672
  0
LWPOLYLINE
  5
2483
102
{ACAD_REACTORS
330
7854
102
}
330
1F
100
AcDbEntity
  8
linings
100
AcDbPolyline
 90
        4
 70
     0
 43
0.0
 10
-109.2819192090282
 20
4707.690883011672
 10
24.71808079097173
 20
4707.690883011672
 10
24.71808079097173
 20
4697.690883011669
 10
-109.2819192090282
 20
4697.690883011669
  0
LINE
  5
2484
102
{ACAD_REACTORS
330
781F
102
}
330
1F
100
AcDbEntity
  8
Fastenings and sealants
100
AcDbLine
 10
-775.2819192090282
 20
4737.690883011672
 30
0.0
 11
-220.2819192090283
 21
4737.690883011669
 31
0.0
  0
CIRCLE
  5
2485
102
{ACAD_REACTORS
330
781F
102
}
330
1F
100
AcDbEntity
  8
Steel
100
AcDbCircle
 10
-220.2819192090283
 20
4742.69088301167
 30
0.0
 40
2.5
  0
CIRCLE
  5
2486
102
{ACAD_REACTORS
330
781F
102
}
330
1F
100
AcDbEntity
  8
Steel
100
AcDbCircle
 10
-370.2819192090283
 20
4742.69088301167
 30
0.0
 40
2.5
  0
CIRCLE
  5
2487
102
{ACAD_REACTORS
330
781F
102
}
330
1F
100
AcDbEntity
  8
Steel
100
AcDbCircle
 10
-520.2819192090283
 20
4742.69088301167
 30
0.0
 40
2.5
  0
CIRCLE
  5
2488
102
{ACAD_REACTORS
330
781F
102
}
330
1F
100
AcDbEntity
  8
Steel
100
AcDbCircle
 10
-670.2819192090283
 20
4742.69088301167
 30
0.0
 40
2.5
  0
LINE
  5
248A
102
{ACAD_REACTORS
330
781F
102
}
330
1F
100
AcDbEntity
  8
Fastenings and sealants
100
AcDbLine
 10
-314.3816149038048
 20
4727.690883011668
 30
0.0
 11
-670.2819192090283
 21
4727.69088301167
 31
0.0
  0
LINE
  5
248B
102
{ACAD_REACTORS
330
781F
102
}
330
1F
100
AcDbEntity
  8
Fastenings and sealants
100
AcDbLine
 10
-295.8120810861019
 20
4724.114717555934
 30
0.0
 11
-125.2819192090282
 21
4609.090280050435
 31
0.0
  0
ARC
  5
248C
102
{ACAD_REACTORS
330
781F
102
}
330
1F
100
AcDbEntity
  8
Fastenings and sealants
100
AcDbCircle
 10
-314.3816149038048
 20
4677.69088301167
 30
0.0
 40
50.0
100
AcDbArc
 50
68.19859051359154
 51
90.0
  0
LINE
  5
248D
102
{ACAD_REACTORS
330
781F
102
}
330
1F
100
AcDbEntity
  8
Fastenings and sealants
100
AcDbLine
 10
-20.28191920902827
 20
4522.325720963845
 30
0.0
 11
-20.28191920902827
 21
4367.690883011671
 31
0.0
  0
LINE
  5
248F
102
{ACAD_REACTORS
330
781F
102
}
330
1F
100
AcDbEntity
  8
Fastenings and sealants
100
AcDbLine
 10
-50.28191920902827
 20
4337.690883011672
 30
0.0
 11
-190.2819192090283
 21
4337.690883011672
 31
0.0
  0
LINE
  5
2492
102
{ACAD_REACTORS
330
781F
102
}
330
1F
100
AcDbEntity
  8
Fastenings and sealants
100
AcDbLine
 10
-220.2819192090283
 20
4367.690883011671
 30
0.0
 11
-220.2819192090283
 21
4437.690883011671
 31
0.0
  0
CIRCLE
  5
2493
102
{ACAD_REACTORS
330
781F
102
}
330
1F
100
AcDbEntity
  8
Steel
100
AcDbCircle
 10
-37.47873802922186
 20
4355.376488011919
 30
0.0
 40
5.0
  0
CIRCLE
  5
2494
102
{ACAD_REACTORS
330
781F
102
}
330
1F
100
AcDbEntity
  8
Steel
100
AcDbCircle
 10
-202.6897455879916
 20
4355.097373506636
 30
0.0
 40
5.0
  0
LWPOLYLINE
  5
2495
102
{ACAD_REACTORS
330
781F
102
}
330
1F
100
AcDbEntity
  8
linings
100
AcDbPolyline
 90
        6
 70
     0
 43
0.0
 10
-775.2819192090282
 20
4687.690883011671
 10
-475.2819192090282
 20
4687.690883011671
 10
-275.2819192090283
 20
4487.690883011672
 10
-275.2819192090283
 20
4287.690883011672
 10
24.71808079097173
 20
4287.690883011672
 10
24.71808079097173
 20
4637.690883011671
  0
LWPOLYLINE
  5
2496
330
1F
100
AcDbEntity
  8
linings
  6
DASHED
 48
50.0
100
AcDbPolyline
 90
        7
 70
     0
 43
0.0
 10
-775.2796956327856
 20
4682.690883011672
 10
-477.3529870208949
 20
4682.690883011672
 10
-280.2819192090283
 20
4485.079888971344
 10
-280.2819192090283
 20
4282.69088301167
 10
29.71808079097172
 20
4282.690883011672
 10
29.71808079097172
 20
4692.690883011669
 10
-109.2819192090283
 20
4692.69088301167
  0
LINE
  5
2497
330
1F
100
AcDbEntity
  8
linings
100
AcDbLine
 10
-775.2819192090282
 20
4532.690883011672
 30
0.0
 11
-775.2819192090282
 21
4482.690883011672
 31
0.0
  0
LINE
  5
2498
330
1F
100
AcDbEntity
  8
hatch
100
AcDbLine
 10
-775.2819192090282
 20
4637.690883011671
 30
0.0
 11
-775.2819192090282
 21
4587.690883011672
 31
0.0
  0
LINE
  5
249A
330
1F
100
AcDbEntity
  8
hatch
100
AcDbLine
 10
-775.2819192090282
 20
4487.690883011672
 30
0.0
 11
-775.2819192090282
 21
4237.690883011672
 31
0.0
  0
LINE
  5
258E
330
1F
100
AcDbEntity
  8
Steel
370
     9
100
AcDbLine
 10
-121.2819192090282
 20
5282.690883011672
 30
0.0
 11
-121.1175356473832
 21
5282.704581641809
 31
0.0
  0
INSERT
  5
26E2
102
{ACAD_REACTORS
330
794C
102
}
330
1F
100
AcDbEntity
  8
Fastenings and sealants
100
AcDbBlockReference
  2
14-10x95BH
 10
-285.2819192090283
 20
4816.133878065515
 30
0.0
 41
0.5
 42
0.5
 43
0.5
 50
180.0
  0
LINE
  5
5973
102
{ACAD_REACTORS
330
781F
102
}
330
1F
100
AcDbEntity
  8
Fastenings and sealants
100
AcDbLine
 10
-314.3816149038048
 20
4721.690883011667
 30
0.0
 11
-670.2819192090283
 21
4721.69088301167
 31
0.0
  0
ARC
  5
5974
102
{ACAD_REACTORS
330
781F
102
}
330
1F
100
AcDbEntity
  8
Fastenings and sealants
100
AcDbCircle
 10
-314.3816149038048
 20
4677.69088301167
 30
0.0
 40
44.0
100
AcDbArc
 50
68.19859051359154
 51
90.0
  0
LINE
  5
5975
102
{ACAD_REACTORS
330
781F
102
}
330
1F
100
AcDbEntity
  8
Fastenings and sealants
100
AcDbLine
 10
-298.1204043289836
 20
4718.575758340345
 30
0.0
 11
-125.2819192090282
 21
4601.907643115568
 31
0.0
  0
LINE
  5
5977
102
{ACAD_REACTORS
330
781F
102
}
330
1F
100
AcDbEntity
  8
Fastenings and sealants
100
AcDbLine
 10
-26.28191920902827
 20
4522.325720963845
 30
0.0
 11
-26.28191920902827
 21
4367.690883011671
 31
0.0
  0
LINE
  5
5979
102
{ACAD_REACTORS
330
781F
102
}
330
1F
100
AcDbEntity
  8
Fastenings and sealants
100
AcDbLine
 10
-50.28191920902827
 20
4343.690883011672
 30
0.0
 11
-190.2819192090283
 21
4343.690883011672
 31
0.0
  0
LINE
  5
597C
102
{ACAD_REACTORS
330
781F
102
}
330
1F
100
AcDbEntity
  8
Fastenings and sealants
100
AcDbLine
 10
-214.2819192090283
 20
4367.690883011671
 30
0.0
 11
-214.2819192090283
 21
4437.690883011671
 31
0.0
  0
LINE
  5
597E
102
{ACAD_REACTORS
330
781F
102
}
330
1F
100
AcDbEntity
  8
Fastenings and sealants
100
AcDbLine
 10
-751.2819192090282
 20
4731.690883011672
 30
0.0
 11
-220.2819192090283
 21
4731.69088301167
 31
0.0
  0
LINE
  5
597F
102
{ACAD_REACTORS
330
781F
102
}
330
1F
100
AcDbEntity
  8
Fastenings and sealants
 48
10.0
100
AcDbLine
 10
-670.2819192090283
 20
4727.69088301167
 30
0.0
 11
-670.2819192090283
 21
4721.690883011671
 31
0.0
  0
LINE
  5
5980
102
{ACAD_REACTORS
330
781F
102
}
330
1F
100
AcDbEntity
  8
Fastenings and sealants
 48
10.0
100
AcDbLine
 10
-220.2819192090283
 20
4437.690883011671
 30
0.0
 11
-214.2819192090283
 21
4437.690883011671
 31
0.0
  0
CIRCLE
  5
5981
102
{ACAD_REACTORS
330
781F
102
}
330
1F
100
AcDbEntity
  8
Steel
100
AcDbCircle
 10
-35.13376919619259
 20
4532.244041637972
 30
0.0
 40
5.0
  0
LINE
  5
5982
102
{ACAD_REACTORS
330
781F
102
}
330
1F
100
AcDbEntity
  8
Fastenings and sealants
 48
10.0
100
AcDbLine
 10
-220.2819192090283
 20
4737.690883011669
 30
0.0
 11
-220.2819192090283
 21
4731.69088301167
 31
0.0
  0
LINE
  5
5989
330
1F
100
AcDbEntity
  8
Steel
100
AcDbLine
 10
-121.2819192090282
 20
4565.733367406113
 30
0.0
 11
-109.2819192090282
 21
4565.733367406113
 31
0.0
  0
LINE
  5
5A45
102
{ACAD_REACTORS
330
781F
102
}
330
1F
100
AcDbEntity
  8
Concrete
 48
10.0
100
AcDbLine
 10
-525.2819192090282
 20
4687.690883011671
 30
0.0
 11
-170.2819192090283
 21
4687.690883011671
 31
0.0
  0
LINE
  5
5A58
330
1F
100
AcDbEntity
  8
elevation
 48
10.0
100
AcDbLine
 10
-775.2796956327856
 20
4687.690883011671
 30
0.0
 11
-775.2796956327856
 21
4637.690883011671
 31
0.0
  0
LINE
  5
5A59
330
1F
100
AcDbEntity
  8
hatch
  6
BATTING
 48
100.0
100
AcDbLine
 10
-775.2796956327856
 20
4637.690883011671
 30
0.0
 11
-445.2819192090283
 21
4637.690883011671
 31
0.0
  0
LWPOLYLINE
  5
5A5A
102
{ACAD_REACTORS
330
781F
102
}
330
1F
100
AcDbEntity
  8
elevation
 48
10.0
100
AcDbPolyline
 90
        3
 70
     0
 43
0.0
 10
-775.2819192090282
 20
4687.690883011671
 10
-475.2819192090282
 20
4687.690883011671
 10
-275.2819192090283
 20
4487.690883011672
  0
LINE
  5
5A5C
330
1F
100
AcDbEntity
  8
elevation
 48
10.0
100
AcDbLine
 10
-775.2796956327856
 20
4687.690883011671
 30
0.0
 11
-775.2796956327856
 21
4577.690883011672
 31
0.0
  0
LINE
  5
5A5D
330
1F
100
AcDbEntity
  8
elevation
 48
10.0
100
AcDbLine
 10
-775.2796956327856
 20
4687.690883011726
 30
0.0
 11
-775.2796956327856
 21
4587.690883011727
 31
0.0
  0
LINE
  5
5A5E
330
1F
100
AcDbEntity
  8
elevation
 48
10.0
100
AcDbLine
 10
-775.2796956327856
 20
4587.690883011727
 30
0.0
 11
-382.612552496812
 21
4587.690883011727
 31
0.0
  0
LINE
  5
5A5F
330
1F
100
AcDbEntity
  8
elevation
 48
10.0
100
AcDbLine
 10
-775.2648717911688
 20
4587.690883011727
 30
0.0
 11
-382.612552496812
 21
4587.690883011727
 31
0.0
  0
HATCH
  5
5A75
330
1F
100
AcDbEntity
  8
hatch
 48
10.0
100
AcDbHatch
 10
0.0
 20
0.0
 30
0.0
210
0.0
220
0.0
230
1.0
  2
AR-SAND
 70
     0
 71
     0
 91
        1
 92
        7
 72
     0
 73
     1
 93
       12
 10
-382.6125524968138
 20
4587.690883011727
 10
-775.2648717911688
 20
4587.690883011727
 10
-775.2574598703595
 20
4537.690883011726
 10
-403.3633098310674
 20
4537.690883011726
 10
-330.2819192090264
 20
4464.409267364028
 10
-330.2819192090264
 20
4232.690883011668
 10
79.71808079097536
 20
4232.690883011668
 10
79.71808079097172
 20
4637.690883011671
 10
29.71808079097172
 20
4637.690883011671
 10
29.71808079097172
 20
4282.690883011672
 10
-280.2819192090283
 20
4282.69088301167
 10
-280.2819192090283
 20
4485.079888971344
 97
        0
 75
     0
 76
     1
 52
0.0
 41
0.2
 77
     0
 78
     4
 53
37.5
 43
-4375.47136658477
 44
-3994.800227836368
 45
-0.3200062591968091
 46
9.788264746586847
 79
     6
 49
0.0
 49
-7.721600000000001
 49
0.0
 49
-8.636000000000001
 49
0.0
 49
-8.255
 53
7.499999999999999
 43
-4375.47136658477
 44
-3994.800227836368
 45
8.990465662760053
 46
14.33650201136708
 79
     6
 49
0.0
 49
-4.1656
 49
0.0
 49
-6.9596
 49
0.0
 49
-2.667
 53
327.5
 43
-4381.719766584771
 44
-3994.800227836368
 45
15.81984740482916
 46
0.0287436935709138
 79
     6
 49
0.0
 49
-2.54
 49
0.0
 49
-9.144
 49
0.0
 49
-11.938
 53
317.5
 43
-4381.719766584771
 44
-3994.800227836368
 45
15.27112904944594
 46
4.458586465144324
 79
     6
 49
0.0
 49
-1.27
 49
0.0
 49
-5.994399999999999
 49
0.0
 49
-6.858
 47
0.8406266399080729
 98
        1
 10
-423.7497292137268
 20
4569.01910504933
1001
ACAD
1010
0.0
1020
0.0
1030
0.0
  0
LINE
  5
5A77
330
1F
100
AcDbEntity
  8
hatch
 48
10.0
100
AcDbLine
 10
-775.2574598703595
 20
4537.690883011726
 30
0.0
 11
-775.2574598703595
 21
4387.690883011726
 31
0.0
  0
HATCH
  5
5AAD
330
1F
100
AcDbEntity
  8
hatch
 48
10.0
100
AcDbHatch
 10
0.0
 20
0.0
 30
0.0
210
0.0
220
0.0
230
1.0
  2
GRAVEL
 70
     0
 71
     0
 91
        1
 92
        7
 72
     0
 73
     1
 93
        5
 10
-330.2819192090264
 20
4464.409267364028
 10
-403.3633098310656
 20
4537.690883011726
 10
-775.2574598703577
 20
4537.690883011728
 10
-775.2352241079334
 20
4387.690883011726
 10
-330.2819192090264
 20
4387.690883011726
 97
        0
 75
     0
 76
     1
 52
0.0
 41
5.0
 77
     0
 78
    42
 53
228.0128
 43
-4284.031366584771
 44
-3867.800227836368
 45
-1016.0008632948
 46
-1143.001404475628
 79
     2
 49
17.08605
 49
-1691.525
 53
184.9697
 43
-4295.46136658477
 44
-3880.500227836368
 45
1524.002465308956
 46
126.9991037693729
 79
     2
 49
29.32025
 49
-2902.7
 53
132.5104
 43
-4324.67136658477
 44
-3883.040227836367
 45
1269.999075916584
 46
-1397.00136462302
 79
     2
 49
20.6741
 49
-2046.735
 53
267.2737
 43
-4374.201366584769
 44
-3914.790227836368
 45
126.9994485414086
 46
2539.999182668321
 79
     2
 49
26.70025
 49
-2643.32
 53
292.8337
 43
-4375.47136658477
 44
-3941.460227836368
 45
-635.0018027750953
 46
1524.000866502556
 79
     2
 49
26.1817
 49
-2591.99
 53
357.2737
 43
-4365.31136658477
 44
-3965.590227836368
 45
-2539.999182668321
 46
126.9994485414087
 79
     2
 49
26.70025
 49
-2643.32
 53
37.6942
 43
-4338.64136658477
 44
-3966.860227836368
 45
-1651.001043061997
 46
-1269.998867849244
 79
     2
 49
35.30969999999999
 49
-3495.655000000001
 53
72.2553
 43
-4310.70136658477
 44
-3945.270227836368
 45
889.0017782733599
 46
2794.00081030182
 79
     2
 49
33.336
 49
-3300.265
 53
121.4296
 43
-4300.541366584769
 44
-3913.520227836368
 45
-1016.000261763224
 46
1650.998057998634
 79
     2
 49
26.79065
 49
-2652.275
 53
175.2364
 43
-4314.51136658477
 44
-3890.660227836367
 45
1396.998902652723
 46
-126.9988081360578
 79
     2
 49
30.58564999999998
 49
-1498.694999999999
 53
222.3974
 43
-4344.99136658477
 44
-3888.120227836367
 45
-1524.000045861985
 46
-1396.998182531848
 79
     2
 49
39.5539
 49
-3915.84
 53
138.8141
 43
-4248.47136658477
 44
-3916.060227836368
 45
-888.9994337112367
 46
761.9988278562003
 79
     2
 49
13.50025
 49
-1336.53
 53
171.4692
 43
-4258.63136658477
 44
-3907.170227836367
 45
1650.99747977957
 46
-254.0006400022849
 79
     2
 49
25.68409999999998
 49
-2542.729999999998
 53
225.0
 43
-4284.031366584771
 44
-3903.360227836368
 45
-0.0000000000000266
 46
-126.9999134350098
 79
     2
 49
17.96045
 49
-161.6445
 53
203.1986
 43
-4292.92136658477
 44
-3888.120227836367
 45
635.0021412795415
 46
254.0011137153133
 79
     2
 49
9.67205
 49
-957.5299999999998
 53
291.8014
 43
-4301.811366584771
 44
-3891.930227836367
 45
-127.0000890947254
 46
381.0002454365932
 79
     2
 49
13.6783
 49
-670.2399999999999
 53
30.9638
 43
-4296.73136658477
 44
-3904.630227836367
 45
380.9995977404113
 46
254.0001979330276
 79
     2
 49
22.21599999999998
 49
-718.3149999999994
 53
161.5651
 43
-4277.68136658477
 44
-3893.200227836367
 45
254.0001159090491
 46
-126.9998111232538
 79
     2
 49
16.06435
 49
-385.545
 53
16.3895
 43
-4375.47136658477
 44
-3891.930227836367
 45
1270.000700698467
 46
380.9992074983902
 79
     2
 49
22.50440000000001
 49
-2227.94
 53
70.3462
 43
-4353.88136658477
 44
-3885.580227836367
 45
-507.9985844338254
 46
-1396.99802442725
 79
     2
 49
18.87995
 49
-1869.11
 53
293.1986
 43
-4277.68136658477
 44
-3867.800227836368
 45
-254.0011137153132
 46
635.0021412795416
 79
     2
 49
19.344
 49
-947.86
 53
343.6105
 43
-4270.06136658477
 44
-3885.580227836367
 45
-1270.000700698467
 46
380.9992074983906
 79
     2
 49
22.50439999999999
 49
-2227.939999999998
 53
339.4440000000001
 43
-4375.47136658477
 44
-3970.670227836367
 45
-635.0007882127955
 46
253.9996918025069
 79
     2
 49
21.70175
 49
-1063.385
 53
294.7751
 43
-4355.15136658477
 44
-3978.290227836367
 45
-634.9985201813419
 46
1396.999351307833
 79
     2
 49
18.18359999999998
 49
-1800.179999999999
 53
66.8014
 43
-4276.41136658477
 44
-3994.800227836368
 45
254.0011137153134
 46
635.0021412795415
 79
     2
 49
19.344
 49
-947.86
 53
17.354
 43
-4268.79136658477
 44
-3977.020227836368
 45
-1651.000089092997
 46
-507.9992337802815
 79
     2
 49
21.28915
 49
-2107.62
 53
69.444
 43
-4338.64136658477
 44
-3994.800227836368
 45
-253.9996918025072
 46
-635.0007882127953
 79
     2
 49
10.8509
 49
-1074.24
 53
101.3098999999999
 43
-4284.031366584771
 44
-3994.800227836368
 45
-126.9993731443674
 46
507.998373045131
 79
     2
 49
6.475749999999997
 49
-641.0999999999997
 53
165.9638
 43
-4285.301366584771
 44
-3988.450227836367
 45
381.0002677348586
 46
-126.9997802061821
 79
     2
 49
26.1817
 49
-497.4524999999999
 53
186.009
 43
-4310.70136658477
 44
-3982.100227836368
 45
1269.998127221397
 46
126.9997034273929
 79
     2
 49
24.26335
 49
-2402.07
 53
303.6901
 43
-4296.73136658477
 44
-3916.060227836368
 45
-127.0000435653616
 46
253.999754961592
 79
     2
 49
18.3162
 49
-439.589
 53
353.1572
 43
-4286.57136658477
 44
-3931.300227836368
 45
2159.000892832171
 46
-254.001137582742
 79
     2
 49
31.97785
 49
-3165.8
 53
60.94540000000001
 43
-4254.82136658477
 44
-3935.110227836368
 45
-507.9988182914545
 46
-888.9978805417063
 79
     2
 49
13.0754
 49
-1294.47
 53
90.0
 43
-4248.47136658477
 44
-3923.680227836367
 45
-127.0
 46
127.0
 79
     2
 49
7.62
 49
-119.38
 53
120.2564
 43
-4313.241366584771
 44
-3978.290227836367
 45
507.9989233418055
 46
-888.9995516238782
 79
     2
 49
17.64335
 49
-1746.695
 53
48.01279999999999
 43
-4322.13136658477
 44
-3963.050227836367
 45
1016.0008632948
 46
1143.001404475629
 79
     2
 49
34.17215000000001
 49
-1674.44
 53
0.0
 43
-4299.27136658477
 44
-3937.650227836368
 45
127.0
 46
127.0
 79
     2
 49
33.02
 49
-93.97999999999999
 53
325.3048
 43
-4266.25136658477
 44
-3937.650227836368
 45
-1269.997799547684
 46
889.0000845242381
 79
     2
 49
20.0805
 49
-1987.965
 53
254.0546
 43
-4249.74136658477
 44
-3949.080227836367
 45
-127.0003239850737
 46
-508.0012101601814
 79
     2
 49
18.49145
 49
-906.085
 53
207.6459999999999
 43
-4254.82136658477
 44
-3966.860227836368
 45
-2412.999152451136
 46
-1270.000798736169
 79
     2
 49
30.10725
 49
-2980.625
 53
175.4261
 43
-4281.49136658477
 44
-3980.830227836367
 45
-1651.000380237375
 46
126.9993855609731
 79
     2
 49
31.85144999999999
 49
-3153.289999999998
 53
175.4261
 43
-4281.49136658477
 44
-3980.830227836367
 45
-1651.000380237375
 46
126.9993855609731
 79
     2
 49
31.85144999999999
 49
-3153.289999999998
 47
1.187876182805529
 98
        1
 10
-521.2426101233432
 20
4434.041972285507
1001
ACAD
1010
0.0
1020
0.0
1030
0.0
  0
HATCH
  5
5AE8
330
1F
100
AcDbEntity
  8
hatch
 48
10.0
100
AcDbHatch
 10
0.0
 20
0.0
 30
0.0
210
0.0
220
0.0
230
1.0
  2
EARTH
 70
     0
 71
     0
 91
        1
 92
        7
 72
     0
 73
     1
 93
        8
 10
179.7180807909717
 20
4637.690883011671
 10
79.71808079097172
 20
4637.690883011671
 10
79.71808079097536
 20
4232.690883011669
 10
-330.2819192090264
 20
4232.690883011672
 10
-330.2819192090264
 20
4387.690883011726
 10
-775.2352241079315
 20
4387.690883011727
 10
-775.1981435199596
 20
4137.549327743001
 10
179.7180807909717
 20
4137.690883011672
 97
        0
 75
     0
 76
     1
 52
45.0
 41
10.0
 77
     0
 78
     6
 53
45.0
 43
-4375.47136658477
 44
-3994.800227836368
 45
0.0000000000000071
 46
89.80256121069151
 79
     2
 49
63.5
 49
-63.5
 53
45.0
 43
-4392.309346811774
 44
-3977.962247609363
 45
0.0000000000000071
 46
89.80256121069151
 79
     2
 49
63.5
 49
-63.5
 53
45.0
 43
-4409.147327038779
 44
-3961.124267382358
 45
0.0000000000000071
 46
89.80256121069151
 79
     2
 49
63.5
 49
-63.5
 53
135.0
 43
-4409.147327038779
 44
-3949.898947231022
 45
-89.80256121069151
 46
0.0000000000000071
 79
     2
 49
63.5
 49
-63.5
 53
135.0
 43
-4392.309346811774
 44
-3933.060967004017
 45
-89.80256121069151
 46
0.0000000000000071
 79
     2
 49
63.5
 49
-63.5
 53
135.0
 43
-4375.47136658477
 44
-3916.222986777012
 45
-89.80256121069151
 46
0.0000000000000071
 79
     2
 49
63.5
 49
-63.5
 47
2.352649099006038
 98
        1
 10
-477.4494060495817
 20
4227.578512504602
1001
ACAD
1010
0.0
1020
0.0
1030
0.0
  0
LINE
  5
6893
102
{ACAD_REACTORS
330
781F
102
}
330
1F
100
AcDbEntity
  8
Fastenings and sealants
100
AcDbLine
 10
-105.2819192090283
 20
4595.594545795754
 30
0.0
 11
-33.49752227648787
 21
4547.191038569115
 31
0.0
  0
LINE
  5
6894
102
{ACAD_REACTORS
330
781F
102
}
330
1F
100
AcDbEntity
  8
Fastenings and sealants
100
AcDbLine
 10
-105.2819192090282
 20
4588.407395743719
 30
0.0
 11
-36.85440166299668
 21
4542.21797504806
 31
0.0
  0
ARC
  5
6897
102
{ACAD_REACTORS
330
781F
102
}
330
1F
100
AcDbEntity
  8
Fastenings and sealants
100
AcDbCircle
 10
-50.28191920902827
 20
4367.690883011671
 30
0.0
 40
24.0
100
AcDbArc
 50
270.0
 51
0.0
  0
ARC
  5
6898
102
{ACAD_REACTORS
330
781F
102
}
330
1F
100
AcDbEntity
  8
Fastenings and sealants
100
AcDbCircle
 10
-190.2819192090283
 20
4367.690883011671
 30
0.0
 40
24.0
100
AcDbArc
 50
180.0
 51
270.0
  0
ARC
  5
689C
102
{ACAD_REACTORS
330
781F
102
}
330
1F
100
AcDbEntity
  8
Fastenings and sealants
100
AcDbCircle
 10
-50.28191920902827
 20
4522.325720963845
 30
0.0
 40
24.0
100
AcDbArc
 50
0.0
 51
55.98016316497975
  0
ARC
  5
68A0
102
{ACAD_REACTORS
330
781F
102
}
330
1F
100
AcDbEntity
  8
Fastenings and sealants
100
AcDbCircle
 10
-50.28191920902827
 20
4367.690883011671
 30
0.0
 40
30.0
100
AcDbArc
 50
270.0
 51
0.0
  0
ARC
  5
68A1
102
{ACAD_REACTORS
330
781F
102
}
330
1F
100
AcDbEntity
  8
Fastenings and sealants
100
AcDbCircle
 10
-190.2819192090283
 20
4367.690883011671
 30
0.0
 40
30.0
100
AcDbArc
 50
180.0
 51
270.0
  0
ARC
  5
68A2
102
{ACAD_REACTORS
330
781F
102
}
330
1F
100
AcDbEntity
  8
Fastenings and sealants
100
AcDbCircle
 10
-50.28191920902827
 20
4522.325720963845
 30
0.0
 40
30.0
100
AcDbArc
 50
0.0
 51
55.98016316497975
  0
HATCH
  5
7175
330
1F
100
AcDbEntity
  8
hatch
 48
10.0
100
AcDbHatch
 10
0.0
 20
0.0
 30
0.0
210
0.0
220
0.0
230
1.0
  2
AR-SAND
 70
     0
 71
     0
 91
        1
 92
        1
 93
        4
 72
     1
 10
-121.2819192090282
 20
4697.690883011672
 11
-121.2819192090282
 21
4707.690883011673
 72
     1
 10
-121.2819192090282
 20
4707.690883011673
 11
-165.2819192090283
 21
4707.690883011673
 72
     1
 10
-165.2819192090283
 20
4707.690883011673
 11
-165.2819192090282
 21
4697.690883011669
 72
     1
 10
-165.2819192090282
 20
4697.690883011669
 11
-121.2819192090282
 21
4697.690883011672
 97
        0
 75
     0
 76
     1
 52
0.0
 41
0.1
 77
     0
 78
     4
 53
37.5
 43
-165.2819192090283
 44
4697.690883011669
 45
-0.1600031295984046
 46
4.894132373293423
 79
     6
 49
0.0
 49
-3.8608
 49
0.0
 49
-4.318
 49
0.0
 49
-4.1275
 53
7.499999999999999
 43
-165.2819192090283
 44
4697.690883011669
 45
4.495232831380026
 46
7.168251005683543
 79
     6
 49
0.0
 49
-2.0828
 49
0.0
 49
-3.4798
 49
0.0
 49
-1.3335
 53
327.5
 43
-168.4061192090283
 44
4697.690883011669
 45
7.909923702414579
 46
0.0143718467854569
 79
     6
 49
0.0
 49
-1.27
 49
0.0
 49
-4.572
 49
0.0
 49
-5.969
 53
317.5
 43
-168.4061192090283
 44
4697.690883011669
 45
7.635564524722972
 46
2.229293232572162
 79
     6
 49
0.0
 49
-0.635
 49
0.0
 49
-2.997199999999999
 49
0.0
 49
-3.429
 98
        1
 10
-109.749773637157
 20
4703.137840771651
1001
ACAD
1010
-165.2819192090283
1020
4697.690883011669
1030
0.0
  0
HATCH
  5
7176
330
1F
100
AcDbEntity
  8
hatch
 48
10.0
100
AcDbHatch
 10
0.0
 20
0.0
 30
0.0
210
0.0
220
0.0
230
1.0
  2
AR-SAND
 70
     0
 71
     0
 91
        1
 92
        1
 93
        4
 72
     1
 10
-265.2819192090283
 20
4807.690883011672
 11
-265.2819192090283
 21
4797.69088301167
 72
     1
 10
-265.2819192090283
 20
4797.69088301167
 11
-170.2819192090283
 21
4797.69088301167
 72
     1
 10
-170.2819192090283
 20
4797.69088301167
 11
-170.2819192090283
 21
4807.690883011672
 72
     1
 10
-170.2819192090283
 20
4807.690883011672
 11
-265.2819192090283
 21
4807.690883011672
 97
        0
 75
     0
 76
     1
 52
0.0
 41
0.1
 77
     0
 78
     4
 53
37.5
 43
-279.2819192090283
 44
4797.69088301167
 45
-0.1600031295984046
 46
4.894132373293423
 79
     6
 49
0.0
 49
-3.8608
 49
0.0
 49
-4.318
 49
0.0
 49
-4.1275
 53
7.499999999999999
 43
-279.2819192090283
 44
4797.69088301167
 45
4.495232831380026
 46
7.168251005683543
 79
     6
 49
0.0
 49
-2.0828
 49
0.0
 49
-3.4798
 49
0.0
 49
-1.3335
 53
327.5
 43
-282.4061192090283
 44
4797.69088301167
 45
7.909923702414579
 46
0.0143718467854569
 79
     6
 49
0.0
 49
-1.27
 49
0.0
 49
-4.572
 49
0.0
 49
-5.969
 53
317.5
 43
-282.4061192090283
 44
4797.69088301167
 45
7.635564524722972
 46
2.229293232572162
 79
     6
 49
0.0
 49
-0.635
 49
0.0
 49
-2.997199999999999
 49
0.0
 49
-3.429
 98
        1
 10
-193.9524513951855
 20
4799.703848558241
1001
ACAD
1010
-84.28191920902827
1020
4697.690883011669
1030
0.0
  0
LWPOLYLINE
  5
7177
102
{ACAD_REACTORS
330
794C
102
}
330
1F
100
AcDbEntity
  8
linings
100
AcDbPolyline
 90
        4
 70
     0
 43
0.0
 10
-265.2819192090283
 20
4807.690883011672
 10
-170.2819192090283
 20
4807.690883011672
 10
-170.2819192090283
 20
4797.69088301167
 10
-265.2819192090283
 20
4797.69088301167
  0
LWPOLYLINE
  5
7333
330
1F
100
AcDbEntity
  8
linings
  6
DASHED
 48
50.0
100
AcDbPolyline
 90
        4
 70
     0
 43
0.0
 10
-121.2819192090282
 20
4692.69088301167
 10
-167.5102506604771
 20
4692.690883011671
 10
-167.5102506604771
 20
4792.690883011669
 10
-267.5102506604771
 20
4792.690883011671
  0
HATCH
  5
744C
330
1F
100
AcDbEntity
  8
hatch
 48
10.0
100
AcDbHatch
 10
0.0
 20
0.0
 30
0.0
210
0.0
220
0.0
230
1.0
  2
AR-SAND
 70
     0
 71
     1
 91
        1
 92
        7
 72
     0
 73
     1
 93
        6
 10
42.71808079097172
 20
5307.690883011672
 10
34.71808079097173
 20
5307.690883011672
 10
34.71808079097173
 20
5207.690883011672
 10
34.71808079097173
 20
5007.690883011672
 10
34.71808079097173
 20
4707.690883011672
 10
42.71808079096809
 20
4707.690883011667
 97
        4
330
2467
330
2477
330
2475
330
2472
 75
     0
 76
     1
 52
0.0
 41
0.05
 77
     0
 78
     4
 53
37.5
 43
34.71808079097173
 44
4707.690883011667
 45
-0.0800015647992023
 46
2.447066186646711
 79
     6
 49
0.0
 49
-1.9304
 49
0.0
 49
-2.159
 49
0.0
 49
-2.06375
 53
7.499999999999999
 43
34.71808079097173
 44
4707.690883011667
 45
2.247616415690013
 46
3.584125502841771
 79
     6
 49
0.0
 49
-1.0414
 49
0.0
 49
-1.7399
 49
0.0
 49
-0.6667500000000001
 53
327.5
 43
33.15598079097173
 44
4707.690883011667
 45
3.95496185120729
 46
0.0071859233927285
 79
     6
 49
0.0
 49
-0.635
 49
0.0
 49
-2.286
 49
0.0
 49
-2.9845
 53
317.5
 43
33.15598079097173
 44
4707.690883011667
 45
3.817782262361486
 46
1.114646616286081
 79
     6
 49
0.0
 49
-0.3175
 49
0.0
 49
-1.498599999999999
 49
0.0
 49
-1.7145
 47
1.284070458757294
 98
        1
 10
39.17484295750728
 20
5196.111319882454
1001
ACAD
1010
34.71808079097173
1020
4707.690883011667
1030
0.0
  0
HATCH
  5
758A
330
1F
100
AcDbEntity
  8
hatch
100
AcDbHatch
 10
0.0
 20
0.0
 30
0.0
210
0.0
220
0.0
230
1.0
  2
AR-CONC
 70
     0
 71
     0
 91
        2
 92
        7
 72
     0
 73
     1
 93
        7
 10
-121.2819192090283
 20
5283.690883011672
 10
-125.2819192090284
 20
5307.690883011672
 10
-140.2819192090283
 20
5307.690883011672
 10
-140.2819192090283
 20
5207.690883011672
 10
-140.2819192090283
 20
5007.690883011672
 10
-140.2819192090283
 20
4707.690883011672
 10
-121.2819192090282
 20
4707.690883011672
 97
        0
 92
        1
 93
        6
 72
     1
 10
-95.28191920902832
 20
5277.690883011672
 11
-100.2819192090282
 21
5307.690883011672
 72
     1
 10
-100.2819192090282
 20
5307.690883011672
 11
-109.2819192090282
 21
5307.690883011672
 72
     1
 10
-109.2819192090282
 20
5307.690883011672
 11
-109.2819192090282
 21
4707.690883011673
 72
     1
 10
-109.2819192090282
 20
4707.690883011673
 11
-90.28191920902827
 21
4707.690883011673
 72
     1
 10
-90.28191920902827
 20
4707.690883011673
 11
-90.28191920902827
 21
5307.690883011672
 72
     1
 10
-90.28191920902827
 20
5307.690883011672
 11
-95.28191920902832
 21
5277.690883011672
 97
        0
 75
     0
 76
     1
 52
0.0
 41
0.2
 77
     0
 78
    13
 53
50.0
 43
-25.0
 44
0.0
 45
36.4369337992008
 46
-3.187817107780617
 79
     2
 49
3.81
 49
-41.91
 53
355.0
 43
-25.0
 44
0.0
 45
-7.048565195133398
 46
38.211328576436
 79
     2
 49
3.048
 49
-33.528
 53
100.451
 43
-21.9636
 44
-0.26565
 45
29.38850033319185
 46
35.02333756405838
 79
     2
 49
3.238
 49
-35.618
 53
46.1842
 43
-25.0
 44
10.16
 45
54.21580817842599
 46
-8.40846558654543
 79
     2
 49
5.714999999999999
 49
-62.865
 53
96.6356
 43
-20.48202
 44
9.4593
 45
47.48084689324743
 46
49.48511117800984
 79
     2
 49
4.857
 49
-53.427
 53
351.184
 43
-25.0
 44
10.16
 45
47.48092116278678
 46
49.48502357211953
 79
     2
 49
4.572
 49
-50.292
 53
21.0
 43
-19.92
 44
7.62
 45
30.32297596707666
 46
-20.4531037033525
 79
     2
 49
3.81
 49
-41.91
 53
326.0
 43
-19.92
 44
7.62
 45
12.36040566952941
 46
36.83759322446385
 79
     2
 49
3.048
 49
-33.528
 53
71.45140000000001
 43
-17.3931
 44
5.91558
 45
42.6832981540249
 46
16.38457154321149
 79
     2
 49
3.238
 49
-35.618
 53
37.5
 43
-25.0
 44
0.0
 45
0.6177206501183635
 46
16.91100777463062
 79
     6
 49
0.0
 49
-33.1216
 49
0.0
 49
-34.036
 49
0.0
 49
-33.655
 53
7.499999999999999
 43
-25.0
 44
0.0
 45
13.36393250206115
 46
20.0361149636239
 79
     6
 49
0.0
 49
-19.4056
 49
0.0
 49
-32.3596
 49
0.0
 49
-12.827
 53
327.5
 43
-36.3284
 44
0.0
 45
27.11811903337428
 46
-1.145748798534691
 79
     6
 49
0.0
 49
-12.7
 49
0.0
 49
-39.624
 49
0.0
 49
-52.578
 53
317.5
 43
-41.40839999999999
 44
0.0
 45
29.62583627720361
 46
5.085298206666603
 79
     6
 49
0.0
 49
-16.51
 49
0.0
 49
-26.3144
 49
0.0
 49
-37.338
 47
1.683974367041775
 98
        2
 10
-101.0042290436558
 20
5123.106265028283
 10
-134.699735776966
 20
5084.374851376315
1001
ACAD
1010
0.0
1020
0.0
1030
0.0
  0
HATCH
  5
781F
330
1F
100
AcDbEntity
  8
hatch
 48
10.0
100
AcDbHatch
 10
0.0
 20
0.0
 30
0.0
210
0.0
220
0.0
230
1.0
  2
AR-CONC
 70
     0
 71
     1
 91
       10
 92
        7
 72
     1
 73
     1
 93
       27
 10
24.71808079097173
 20
4637.690883011671
 42
0.0
 10
24.71808079097173
 20
4687.690883011671
 42
0.0
 10
-105.2819192090282
 20
4687.690883011671
 42
0.0
 10
-105.2819192090282
 20
4595.594545795755
 42
0.0
 10
-33.52221489269542
 20
4547.207688555437
 42
-0.2494996831531876
 10
-20.28191920902827
 20
4522.325720963845
 42
0.0
 10
-20.28191920902827
 20
4367.690883011671
 42
-0.4142135623730951
 10
-50.28191920902827
 20
4337.690883011672
 42
0.0
 10
-190.2819192090283
 20
4337.690883011672
 42
-0.4142135623730951
 10
-220.2819192090283
 20
4367.690883011671
 42
0.0
 10
-220.2819192090283
 20
4437.690883011671
 42
0.0
 10
-214.2819192090283
 20
4437.690883011671
 42
0.0
 10
-214.2819192090283
 20
4367.690883011671
 42
0.4142135623730951
 10
-190.2819192090283
 20
4343.690883011672
 42
0.0
 10
-50.28191920902827
 20
4343.690883011672
 42
0.4142135623730951
 10
-26.28191920902827
 20
4367.690883011671
 42
0.0
 10
-26.28191920902827
 20
4522.325720963845
 42
0.2492360696912212
 10
-36.85440166299668
 20
4542.21797504806
 42
0.0
 10
-105.2819192090282
 20
4588.40739574372
 42
0.0
 10
-105.2819192090283
 20
4562.690883011671
 42
0.0
 10
-125.2819192090282
 20
4562.690883011671
 42
0.0
 10
-125.2819192090282
 20
4601.907643115567
 42
0.0
 10
-252.3658718704631
 20
4687.690883011671
 42
0.0
 10
-475.2819192090284
 20
4687.690883011671
 42
0.0
 10
-275.2819192090283
 20
4487.690883011672
 42
0.0
 10
-275.2819192090283
 20
4287.690883011672
 42
0.0
 10
24.71808079097173
 20
4287.690883011672
 42
0.0
 97
       23
330
2458
330
246E
330
6893
330
68A2
330
248D
330
68A0
330
248F
330
68A1
330
2492
330
5980
330
597C
330
6898
330
5979
330
6897
330
5977
330
689C
330
6894
330
246D
330
246C
330
5975
330
5A45
330
5A5A
330
2495
 92
       22
 72
     1
 73
     1
 93
        2
 10
-30.13376919619259
 20
4532.244041637972
 42
-1.0
 10
-40.13376919619259
 20
4532.244041637972
 42
-1.0
 97
        1
330
5981
 92
       22
 72
     1
 73
     1
 93
        2
 10
-32.47873802922186
 20
4355.376488011919
 42
-1.0
 10
-42.47873802922185
 20
4355.376488011919
 42
-1.0
 97
        1
330
2493
 92
       22
 72
     1
 73
     1
 93
        2
 10
-197.6897455879916
 20
4355.097373506636
 42
-1.0
 10
-207.6897455879916
 20
4355.097373506636
 42
-1.0
 97
        1
330
2494
 92
       23
 72
     0
 73
     1
 93
        4
 10
-125.2819192090282
 20
4687.690883011671
 10
-170.2819192090283
 20
4687.690883011671
 10
-241.811709202346
 20
4687.690883011671
 10
-125.2819192090282
 20
4609.090280050435
 97
        4
330
2457
330
5A45
330
248B
330
246C
 92
        7
 72
     1
 73
     1
 93
       20
 10
-170.2819192090283
 20
4787.690883011673
 42
0.0
 10
-775.2819192090282
 20
4787.690883011672
 42
0.0
 10
-775.2819192090282
 20
4747.69088301167
 42
0.0
 10
-805.2819192090275
 20
4742.690883011671
 42
0.0
 10
-775.2819192090334
 20
4737.690883011672
 42
0.0
 10
-220.2819192090283
 20
4737.690883011669
 42
0.0
 10
-220.2819192090283
 20
4731.69088301167
 42
0.0
 10
-751.2819192090234
 20
4731.690883011672
 42
0.0
 10
-775.2819192090282
 20
4727.690883011671
 42
0.0
 10
-775.2759896723812
 20
4687.690883011671
 42
0.0
 10
-475.2819192090282
 20
4687.690883011671
 42
0.0
 10
-252.3658718704623
 20
4687.690883011671
 42
0.0
 10
-298.120404328986
 20
4718.575758340346
 42
0.0949208994920629
 10
-314.3816149038048
 20
4721.690883011667
 42
0.0
 10
-670.2819192090283
 20
4721.69088301167
 42
0.0
 10
-670.2819192090283
 20
4727.69088301167
 42
0.0
 10
-314.3816149038048
 20
4727.690883011668
 42
-0.0954145723997446
 10
-295.8120810861019
 20
4724.114717555934
 42
0.0
 10
-241.811709202346
 20
4687.690883011671
 42
0.0
 10
-170.2819192090282
 20
4687.690883011671
 42
0.0
 97
       14
330
2457
330
245C
330
2484
330
5982
330
597E
330
5A5A
330
5A45
330
5975
330
5974
330
5973
330
597F
330
248A
330
248C
330
248B
 92
       22
 72
     1
 73
     1
 93
        2
 10
-222.7819192090283
 20
4742.69088301167
 42
-1.0
 10
-217.7819192090283
 20
4742.69088301167
 42
-1.0
 97
        1
330
2485
 92
       22
 72
     1
 73
     1
 93
        2
 10
-372.7819192090283
 20
4742.69088301167
 42
-1.0
 10
-367.7819192090283
 20
4742.69088301167
 42
-1.0
 97
        1
330
2486
 92
       22
 72
     1
 73
     1
 93
        2
 10
-522.7819192090282
 20
4742.69088301167
 42
-1.0
 10
-517.7819192090282
 20
4742.69088301167
 42
-1.0
 97
        1
330
2487
 92
       22
 72
     1
 73
     1
 93
        2
 10
-672.7819192090282
 20
4742.69088301167
 42
-1.0
 10
-667.7819192090282
 20
4742.69088301167
 42
-1.0
 97
        1
330
2488
 75
     0
 76
     1
 52
0.0
 41
0.5
 77
     0
 78
    13
 53
50.0
 43
-805.2819192090275
 44
4287.690883011672
 45
91.092334498002
 46
-7.969542769451543
 79
     2
 49
9.525
 49
-104.775
 53
355.0
 43
-805.2819192090275
 44
4287.690883011672
 45
-17.62141298783349
 46
95.52832144108998
 79
     2
 49
7.62
 49
-83.81999999999999
 53
100.451
 43
-797.6909192090276
 44
4287.026758011672
 45
73.47125083297962
 46
87.55834391014593
 79
     2
 49
8.095
 49
-89.045
 53
46.1842
 43
-805.2819192090275
 44
4313.090883011671
 45
135.5395204460649
 46
-21.02116396636358
 79
     2
 49
14.2875
 49
-157.1625
 53
96.6356
 43
-793.9869692090276
 44
4311.339133011672
 45
118.7021172331185
 46
123.7127779450246
 79
     2
 49
12.1425
 49
-133.5675
 53
351.184
 43
-805.2819192090275
 44
4313.090883011671
 45
118.7023029069669
 46
123.7125589302988
 79
     2
 49
11.43
 49
-125.73
 53
21.0
 43
-792.5819192090275
 44
4306.740883011672
 45
75.80743991769164
 46
-51.13275925838125
 79
     2
 49
9.525
 49
-104.775
 53
326.0
 43
-792.5819192090275
 44
4306.740883011672
 45
30.90101417382354
 46
92.09398306115962
 79
     2
 49
7.62
 49
-83.81999999999999
 53
71.45140000000001
 43
-786.2646692090276
 44
4302.479833011672
 45
106.7082453850622
 46
40.96142885802872
 79
     2
 49
8.095
 49
-89.045
 53
37.5
 43
-805.2819192090275
 44
4287.690883011672
 45
1.544301625295908
 46
42.27751943657655
 79
     6
 49
0.0
 49
-82.804
 49
0.0
 49
-85.09
 49
0.0
 49
-84.1375
 53
7.499999999999999
 43
-805.2819192090275
 44
4287.690883011672
 45
33.40983125515287
 46
50.09028740905975
 79
     6
 49
0.0
 49
-48.51399999999999
 49
0.0
 49
-80.899
 49
0.0
 49
-32.0675
 53
327.5
 43
-833.6029192090276
 44
4287.690883011672
 45
67.7952975834357
 46
-2.864371996336728
 79
     6
 49
0.0
 49
-31.75
 49
0.0
 49
-99.06
 49
0.0
 49
-131.445
 53
317.5
 43
-846.3029192090274
 44
4287.690883011672
 45
74.06459069300902
 46
12.71324551666651
 79
     6
 49
0.0
 49
-41.275
 49
0.0
 49
-65.786
 49
0.0
 49
-93.345
 47
1.506936490942231
 98
       10
 10
-40.9945149061432
 20
4607.663964832025
 10
-40.9945149061432
 20
4607.663964832025
 10
-40.9945149061432
 20
4607.663964832025
 10
-40.9945149061432
 20
4607.663964832025
 10
-161.6067778019823
 20
4664.927550205726
 10
-199.2981135711852
 20
4719.177265706743
 10
-199.2981135711852
 20
4719.177265706743
 10
-199.2981135711852
 20
4719.177265706743
 10
-199.2981135711852
 20
4719.177265706743
 10
-199.2981135711852
 20
4719.177265706743
1001
ACAD
1010
-805.2819192090275
1020
4287.690883011672
1030
0.0
  0
HATCH
  5
7854
330
1F
100
AcDbEntity
  8
hatch
 48
10.0
100
AcDbHatch
 10
0.0
 20
0.0
 30
0.0
210
0.0
220
0.0
230
1.0
  2
AR-SAND
 70
     0
 71
     1
 91
        1
 92
        7
 72
     0
 73
     1
 93
        4
 10
24.71808079097173
 20
4697.690883011669
 10
24.71808079097173
 20
4707.690883011672
 10
-109.2819192090282
 20
4707.690883011672
 10
-109.2819192090282
 20
4697.690883011669
 97
        2
330
2483
330
2469
 75
     0
 76
     1
 52
0.0
 41
0.1
 77
     0
 78
     4
 53
37.5
 43
-109.2819192090282
 44
4697.690883011669
 45
-0.1600031295984046
 46
4.894132373293423
 79
     6
 49
0.0
 49
-3.8608
 49
0.0
 49
-4.318
 49
0.0
 49
-4.1275
 53
7.499999999999999
 43
-109.2819192090282
 44
4697.690883011669
 45
4.495232831380026
 46
7.168251005683543
 79
     6
 49
0.0
 49
-2.0828
 49
0.0
 49
-3.4798
 49
0.0
 49
-1.3335
 53
327.5
 43
-112.4061192090282
 44
4697.690883011669
 45
7.909923702414579
 46
0.0143718467854569
 79
     6
 49
0.0
 49
-1.27
 49
0.0
 49
-4.572
 49
0.0
 49
-5.969
 53
317.5
 43
-112.4061192090282
 44
4697.690883011669
 45
7.635564524722972
 46
2.229293232572162
 79
     6
 49
0.0
 49
-0.635
 49
0.0
 49
-2.997199999999999
 49
0.0
 49
-3.429
 47
0.5206029267729566
 98
        1
 10
-26.48056390124748
 20
4702.466117771502
1001
ACAD
1010
-165.2819192090283
1020
4697.690883011669
1030
0.0
  0
HATCH
  5
7855
330
1F
100
AcDbEntity
  8
hatch
 48
10.0
100
AcDbHatch
 10
0.0
 20
0.0
 30
0.0
210
0.0
220
0.0
230
1.0
  2
AR-SAND
 70
     0
 71
     1
 91
        2
 92
        1
 93
        4
 72
     1
 10
-90.28191920902827
 20
5007.690883011672
 11
34.71808079097173
 21
5007.690883011672
 72
     1
 10
34.71808079097173
 20
5007.690883011672
 11
34.71808079097173
 21
4707.690883011672
 72
     1
 10
34.71808079097173
 20
4707.690883011672
 11
-90.28191920902827
 21
4707.690883011672
 72
     1
 10
-90.28191920902827
 20
4707.690883011672
 11
-90.28191920902827
 21
5007.690883011672
 97
        1
330
2462
 92
        1
 93
        4
 72
     1
 10
-165.2819192090283
 20
5007.690883011672
 11
-140.2819192090283
 21
5007.690883011672
 72
     1
 10
-140.2819192090283
 20
5007.690883011672
 11
-140.2819192090283
 21
4707.690883011672
 72
     1
 10
-140.2819192090283
 20
4707.690883011672
 11
-165.2819192090283
 21
4707.690883011672
 72
     1
 10
-165.2819192090283
 20
4707.690883011672
 11
-165.2819192090283
 21
5007.690883011672
 97
        1
330
2461
 75
     0
 76
     1
 52
0.0
 41
0.5
 77
     0
 78
     4
 53
37.5
 43
-165.2819192090283
 44
4707.690883011672
 45
-0.8000156479920228
 46
24.47066186646712
 79
     6
 49
0.0
 49
-19.304
 49
0.0
 49
-21.59
 49
0.0
 49
-20.6375
 53
7.499999999999999
 43
-165.2819192090283
 44
4707.690883011672
 45
22.47616415690013
 46
35.84125502841772
 79
     6
 49
0.0
 49
-10.414
 49
0.0
 49
-17.399
 49
0.0
 49
-6.6675
 53
327.5
 43
-180.9029192090283
 44
4707.690883011672
 45
39.5496185120729
 46
0.0718592339272846
 79
     6
 49
0.0
 49
-6.349999999999999
 49
0.0
 49
-22.86
 49
0.0
 49
-29.845
 53
317.5
 43
-180.9029192090283
 44
4707.690883011672
 45
38.17782262361486
 46
11.14646616286081
 79
     6
 49
0.0
 49
-3.174999999999999
 49
0.0
 49
-14.986
 49
0.0
 49
-17.145
 98
        1
 10
0.0
 20
0.0
1001
ACAD
1010
-165.2819192090283
1020
4707.690883011672
1030
0.0
  0
HATCH
  5
794C
330
1F
100
AcDbEntity
  8
hatch
 48
10.0
100
AcDbHatch
 10
0.0
 20
0.0
 30
0.0
210
0.0
220
0.0
230
1.0
  2
AR-SAND
 70
     0
 71
     1
 91
        1
 92
        7
 72
     0
 73
     1
 93
       99
 10
-165.2819192090283
 20
5007.690883011672
 10
-265.2819192090283
 20
5007.690883011672
 10
-265.2819192090283
 20
4816.927855739352
 10
-262.5278222848902
 20
4816.927855739352
 10
-262.5278222848901
 20
4817.389152690906
 10
-262.0306694442169
 20
4816.927855739352
 10
-261.1491816091893
 20
4816.927855739352
 10
-261.1491816091893
 20
4817.389152690906
 10
-260.6520287685151
 20
4816.927855739352
 10
-259.7287643320469
 20
4816.927855739352
 10
-259.7287643320469
 20
4817.389152690906
 10
-259.231611491374
 20
4816.927855739352
 10
-258.2247938520122
 20
4816.927855739352
 10
-258.2247938520122
 20
4817.389152690906
 10
-257.7276410113385
 20
4816.927855739352
 10
-256.7625999734228
 20
4816.927855739352
 10
-256.7625999734228
 20
4817.389152690904
 10
-256.2654471327481
 20
4816.927855739352
 10
-255.3004060948351
 20
4816.927855739352
 10
-255.3004060948351
 20
4817.389152690904
 10
-254.8032532541609
 20
4816.927855739352
 10
-254.0899966241831
 20
4816.927855739352
 10
-254.0899966241831
 20
4817.452811923872
 10
-253.5242364181276
 20
4816.927855739352
 10
-252.7840285111178
 20
4816.927855739352
 10
-252.7840285111178
 20
4817.389152690906
 10
-252.2868756704435
 20
4816.927855739352
 10
-251.4780564303237
 20
4816.927855739354
 10
-251.4780564303237
 20
4817.389152690906
 10
-250.9809035896497
 20
4816.927855739352
 10
-250.1402354364491
 20
4816.927855739352
 10
-250.140235436449
 20
4817.389152690906
 10
-249.6430825957741
 20
4816.927855739352
 10
-248.7705615617688
 20
4816.927855739352
 10
-248.7705615617687
 20
4817.389152690906
 10
-248.2734087210952
 20
4816.927855739352
 10
-247.3690348286545
 20
4816.927855739352
 10
-247.3690348286545
 20
4817.389150583569
 10
-246.871884259117
 20
4816.927855739352
 10
-245.9356551699857
 20
4816.927855739352
 10
-245.9356551699857
 20
4817.389152690907
 10
-245.4385023293114
 20
4816.927855739352
 10
-244.5978341761092
 20
4816.927855739352
 10
-244.5978341761092
 20
4817.389152690906
 10
-244.1006813354351
 20
4816.927855739352
 10
-243.2281603014289
 20
4816.927855739352
 10
-243.2281603014289
 20
4817.389152690906
 10
-242.7310074607553
 20
4816.927855739352
 10
-242.1615252439453
 20
4816.927855739352
 10
-239.1820257903975
 20
4816.133878065515
 10
-242.362455976304
 20
4815.286356325646
 10
-242.4955440428786
 20
4814.940585930198
 10
-242.8336781883494
 20
4815.339900391677
 10
-243.7115205787085
 20
4815.339900391677
 10
-243.8652179175588
 20
4814.940585930198
 10
-244.2033520630303
 20
4815.339900391677
 10
-245.0493415725852
 20
4815.339900391677
 10
-245.2030389114356
 20
4814.940585930198
 10
-245.5411730569059
 20
4815.339900391677
 10
-246.4827204201336
 20
4815.339900391677
 10
-246.636418570104
 20
4814.940583822862
 10
-246.9745545000393
 20
4815.339900391677
 10
-247.8842479643681
 20
4815.339900391678
 10
-248.0379453032185
 20
4814.9405859302
 10
-248.3760794486901
 20
4815.339900391677
 10
-249.2539218390477
 20
4815.339900391677
 10
-249.4076191778984
 20
4814.940585930198
 10
-249.7457533233699
 20
4815.339900391677
 10
-250.591742832923
 20
4815.339900391677
 10
-250.7454401717731
 20
4814.940585930198
 10
-251.0835743172452
 20
4815.339900391677
 10
-251.8977149137167
 20
4815.339900391677
 10
-252.0514122525674
 20
4814.9405859302
 10
-252.3895463980397
 20
4815.339900391677
 10
-253.228185657276
 20
4815.339900391678
 10
-253.3573803656329
 20
4815.004245163164
 10
-253.6416087240194
 20
4815.339900391677
 10
-254.4140924974343
 20
4815.339900391677
 10
-254.5677898362846
 20
4814.940585930198
 10
-254.9059239817561
 20
4815.339900391677
 10
-255.876286376022
 20
4815.339900391677
 10
-256.0299837148721
 20
4814.940585930198
 10
-256.3681178603441
 20
4815.339900391677
 10
-257.3384802546113
 20
4815.339900391677
 10
-257.4921775934619
 20
4814.940585930198
 10
-257.8303117389336
 20
4815.339900391677
 10
-258.8424507346463
 20
4815.339900391677
 10
-258.9961480734966
 20
4814.940585930198
 10
-259.3342822189682
 20
4815.339900391677
 10
-260.262868011788
 20
4815.339900391678
 10
-260.4165653506387
 20
4814.940585930198
 10
-260.7546994961108
 20
4815.339900391678
 10
-261.6415086874892
 20
4815.339900391677
 10
-261.7952060263398
 20
4814.9405859302
 10
-262.1333401718115
 20
4815.339900391677
 10
-265.2819192090283
 20
4815.339900391677
 10
-265.2819192090283
 20
4807.690883011672
 10
-170.2819192090283
 20
4807.690883011672
 10
-165.2819192090283
 20
4807.690883011672
 97
        6
330
2464
330
247D
330
26E2
330
7177
330
245E
330
2461
 75
     0
 76
     1
 52
0.0
 41
0.5
 77
     0
 78
     4
 53
37.5
 43
-265.2819192090283
 44
4807.690883011672
 45
-0.8000156479920228
 46
24.47066186646712
 79
     6
 49
0.0
 49
-19.304
 49
0.0
 49
-21.59
 49
0.0
 49
-20.6375
 53
7.499999999999999
 43
-265.2819192090283
 44
4807.690883011672
 45
22.47616415690013
 46
35.84125502841772
 79
     6
 49
0.0
 49
-10.414
 49
0.0
 49
-17.399
 49
0.0
 49
-6.6675
 53
327.5
 43
-280.9029192090283
 44
4807.690883011672
 45
39.5496185120729
 46
0.0718592339272846
 79
     6
 49
0.0
 49
-6.349999999999999
 49
0.0
 49
-22.86
 49
0.0
 49
-29.845
 53
317.5
 43
-280.9029192090283
 44
4807.690883011672
 45
38.17782262361486
 46
11.14646616286081
 79
     6
 49
0.0
 49
-3.174999999999999
 49
0.0
 49
-14.986
 49
0.0
 49
-17.145
 47
0.7198017088896452
 98
        2
 10
-203.1419396374131
 20
4911.831819082991
 10
-194.9663744499212
 20
4916.922308358474
1001
ACAD
1010
-165.2819192090283
1020
4707.690883011672
1030
0.0
  0
VIEWPORT
  5
6F1D
330
6F1B
100
AcDbEntity
 67
     1
  8
0
100
AcDbViewport
 10
101.8116638660431
 20
145.3409149646759
 30
0.0
 40
441.1823485382563
 41
299.3737365081025
 68
     1
 69
     1
 12
101.8116638660431
 22
145.3409149646759
 13
0.0
 23
0.0
 14
10.0
 24
10.0
 15
10.0
 25
10.0
 16
0.0
 26
0.0
 36
1.0
 17
0.0
 27
0.0
 37
0.0
 42
50.0
 43
0.0
 44
0.0
 45
299.3737365081025
 50
0.0
 51
0.0
 72
   100
 90
    32800
  1

281
     0
 71
     1
 74
     0
110
0.0
120
0.0
130
0.0
111
1.0
121
0.0
131
0.0
112
0.0
122
1.0
132
0.0
 79
     0
146
0.0
170
     0
  0
VIEWPORT
  5
6F1E
330
6F1B
100
AcDbEntity
 67
     1
  8
Defpoints
100
AcDbViewport
 10
99.49297093454163
 20
158.1833443331356
 30
0.0
 40
184.6573621098212
 41
238.1316197943823
 68
     2
 69
     2
 12
0.0
 22
0.0
 13
0.0
 23
0.0
 14
10.0
 24
10.0
 15
10.0
 25
10.0
 16
0.0
 26
0.0
 36
3587.365462589492
 17
-259.860434642703
 27
4721.658463356479
 37
0.0
 42
50.0
 43
0.0
 44
0.0
 45
2381.316220259402
 50
0.0
 51
0.0
 72
   100
 90
    32864
  1

281
     0
 71
     1
 74
     0
110
0.0
120
0.0
130
0.0
111
1.0
121
0.0
131
0.0
112
0.0
122
1.0
132
0.0
 79
     0
146
0.0
170
     0
  0
TEXT
  5
6F1F
330
6F1B
100
AcDbEntity
 67
     1
  8
Text
100
AcDbText
 10
82.56875649243694
 20
28.26661657628182
 30
0.0
 40
4.0
  1

  7
Titles
100
AcDbText
  0
INSERT
  5
6F20
330
6F1B
100
AcDbEntity
 67
     1
  8
Title block
100
AcDbBlockReference
 66
     1
  2
A4 Title Block
 10
60.55853008187023
 20
28.71568383002443
 30
0.0
  0
ATTRIB
  5
6F21
330
6F20
100
AcDbEntity
 67
     1
  8
Title block
100
AcDbText
 10
82.83204253221446
 20
28.14935733888603
 30
0.0
 40
4.0
  1
Type 6 Foundation Detail
  7
Titles
100
AcDbAttribute
  2
TITLE
 70
     0
1001
AcDbAttr
1070
     0
1070
     1
  0
ATTRIB
  5
6F22
330
6F20
100
AcDbEntity
 67
     1
  8
Title block
100
AcDbText
 10
76.67312180800786
 20
16.67226275318421
 30
0.0
 40
3.0
  1
September 2013
  7
Titles
100
AcDbAttribute
  2
DATE
 70
     0
1001
AcDbAttr
1070
     0
1070
     1
  0
ATTRIB
  5
6F23
330
6F20
100
AcDbEntity
 67
     1
  8
Title block
100
AcDbText
 10
123.7948270833781
 20
16.78125028352826
 30
0.0
 40
3.5
  1
1:10
  7
Titles
100
AcDbAttribute
  2
SCALE
 70
     0
1001
AcDbAttr
1070
     0
1070
     1
  0
ATTRIB
  5
6F24
330
6F20
100
AcDbEntity
 67
     1
  8
Title block
100
AcDbText
 10
170.4189542659028
 20
16.56495667313481
 30
0.0
 40
4.0
  1
BLK 2.7
  7
Titles
100
AcDbAttribute
  2
DRGNO
 70
     0
1001
AcDbAttr
1070
     0
1070
     1
  0
ATTRIB
  5
6F25
330
6F20
100
AcDbEntity
 67
     1
  8
Title block
100
AcDbText
 10
100.1384303831541
 20
24.28175983273661
 30
0.0
 40
4.0
  1

100
AcDbAttribute
  2
TITLE2
 70
     0
1001
AcDbAttr
1070
     0
1070
     1
  0
SEQEND
  5
6F26
330
6F20
100
AcDbEntity
 67
     1
  8
Title block
  0
MTEXT
  5
7031
102
{ACAD_XDICTIONARY
360
7ABD
102
}
330
6F1B
100
AcDbEntity
 67
     1
  8
Text
 48
10.0
100
AcDbMText
 10
150.1953587438898
 20
235.6638613642535
 30
0.0
 40
2.5
 41
43.23333257605634
 71
     1
 72
     5
  3
%%C{\fTahoma|b0|i1|c0|p34;12 reinforcing rod in }%%C{\fTahoma|b0|i1|c0|p34;50mm drilled grout filled core (17MPa sand grout )\P\PSupercoat\U+2122 Coating System as specified\P\P\P\P\P\P10mm nominal Supercoat\U+2122 Superbase render to level first cou
  3
rse over DPC as a slip joint on the 50mm rebate\P\P\P\P\P\P\P10mm max. overhang\P\PTank back & bottom of rebate with Supercoat\U+2122 Tanking Membrane\P\P}%%C{\fTahoma|b0|i1|c0|p34;12 reinforcing rod epoxy grouted into }%%C{\fTahoma|b0|i1|c0|p34;14mm
  1
 x 150mm deep hole }
  7
1
 73
     1
 44
1.0
1001
ACAD
1000
ACAD_MTEXT_DEFINED_HEIGHT_BEGIN
1070
    46
1040
11.53147892077593
1000
ACAD_MTEXT_DEFINED_HEIGHT_END
  0
LEADER
  5
7032
330
6F1B
100
AcDbEntity
 67
     1
  8
Text
 48
10.0
100
AcDbLeader
  3
Ben 10
 72
     1
 76
     3
 10
114.1866756307381
 20
209.4080096791516
 30
0.0
 10
145.0383563258722
 20
233.5324849581704
 30
0.0
 10
148.7181850502591
 20
233.861075102746
 30
0.0
1001
ACAD
1000
DSTYLE
1002
{
1070
    41
1040
3.0
1070
    40
1040
1.0
1070
    77
1070
     0
1002
}
  0
LEADER
  5
7033
330
6F1B
100
AcDbEntity
 67
     1
  8
Text
 48
10.0
100
AcDbLeader
  3
Ben 10
 72
     1
 76
     3
 10
129.5431942996354
 20
200.2995138522185
 30
0.0
 10
140.2340856680297
 20
216.4649540377737
 30
0.0
 10
148.7181850502591
 20
217.0284776675863
 30
0.0
1001
ACAD
1000
DSTYLE
1002
{
1070
    41
1040
3.0
1070
    40
1040
1.0
1070
    77
1070
     0
1002
}
  0
DIMENSION
  5
7034
330
6F1B
100
AcDbEntity
 67
     1
  8
Text
 48
10.0
100
AcDbDimension
  2
*D3
 10
138.4386734327849
 20
164.7865864075747
 30
0.0
 11
158.0714640362086
 21
159.9796663823646
 31
0.0
 70
   160
  1
{\fTahoma|b0|i1|c0|p34;<>0mm min. high rebate}
 71
     5
 42
10.00000002015522
 53
0.1
  3
Standard
100
AcDbAlignedDimension
 13
128.4508222065419
 23
154.7865863874195
 33
0.0
 14
131.4676217864406
 24
164.7865864075747
 34
0.0
 50
90.0
100
AcDbRotatedDimension
1001
ACAD
1000
DSTYLE
1002
{
1070
   279
1070
     2
1070
    40
1040
1.0
1070
    49
1040
1.25
1070
    50
1040
1.570796326794896
1070
   340
1005
693B
1002
}
  0
DIMENSION
  5
7035
330
6F1B
100
AcDbEntity
 67
     1
  8
Text
 48
10.0
100
AcDbDimension
  2
*D6
 10
138.4386734327849
 20
149.7865863773418
 30
0.0
 11
164.0066512445735
 21
152.5979017472276
 31
0.0
 70
   160
  1
{\fTahoma|b0|i1|c0|p34;As per NZS 4229 requirements}
 71
     5
 42
5.000000010077627
 53
0.1
  3
Standard
100
AcDbAlignedDimension
 13
128.4508222065419
 23
154.7865863874195
 33
0.0
 14
128.4508222065419
 24
149.7865863773418
 34
0.0
 50
90.0
100
AcDbRotatedDimension
1001
ACAD
1000
DSTYLE
1002
{
1070
   279
1070
     2
1070
    40
1040
1.0
1070
    49
1040
1.25
1070
    50
1040
1.570796326794896
1070
   340
1005
693B
1002
}
  0
LEADER
  5
7037
330
6F1B
100
AcDbEntity
 67
     1
  8
Text
 48
10.0
100
AcDbLeader
  3
Ben 10
 72
     1
 76
     3
 10
123.0909858943431
 20
156.461373644691
 30
0.0
 10
140.8212699657662
 20
187.6860792087163
 30
0.0
 10
148.7286730810357
 20
187.6860792087163
 30
0.0
1001
ACAD
1000
DSTYLE
1002
{
1070
    41
1040
3.0
1070
    40
1040
1.0
1070
    77
1070
     0
1002
}
  0
LEADER
  5
7038
330
6F1B
100
AcDbEntity
 67
     1
  8
Text
 48
10.0
100
AcDbLeader
  3
Ben 10
 72
     1
 76
     3
 10
129.1924697914997
 20
155.5683842826547
 30
0.0
 10
138.4013788902241
 20
142.2307102423427
 30
0.0
 10
148.8402719612604
 20
141.6046411538296
 30
0.0
1001
ACAD
1000
DSTYLE
1002
{
1070
    41
1040
3.0
1070
    40
1040
1.0
1070
    77
1070
     0
1002
}
  0
LEADER
  5
7039
330
6F1B
100
AcDbEntity
 67
     1
  8
Text
 48
10.0
100
AcDbLeader
  3
Ben 10
 72
     1
 76
     3
 10
123.9055939691991
 20
154.797543930765
 30
0.0
 10
144.4559366501296
 20
132.9440197638308
 30
0.0
 10
148.7358834731415
 20
133.2570543080875
 30
0.0
1001
ACAD
1000
DSTYLE
1002
{
1070
    41
1040
3.0
1070
    40
1040
1.0
1070
    77
1070
     0
1002
}
  0
MTEXT
  5
703A
102
{ACAD_XDICTIONARY
360
7AC0
102
}
330
6F1B
100
AcDbEntity
 67
     1
  8
Text
 48
10.0
100
AcDbMText
 10
20.68869177115896
 20
247.7997940757227
 30
0.0
 40
2.5
 41
63.43498262329501
 71
     1
 72
     5
  3
{\fTahoma|b0|i1|c0|p34;600 x 300 x 250mm Supercrete\U+2122 Blocks glued together with 2-3mm nominal Supercoat\H1.0833x;\U+2122\H0.92311x; Superbond Adhesive \P\P\PInternal linings plasterboard or Supercoat\U+2122 Coating System\P\P\P\P\P\Pex 600 x 10
  3
0 x 300mm Supercrete\U+2122 Block packer to form 300mm thk wall\P\PFloor finish and skirting board \Pas selected by owner\P\P\P\P\P\P\P\P\P\P\P\P\P\P\P\P\P\P\P\PReinforced concrete slab & foundation footing to NZS 4229 or engineer's drawings & specif
  1
ications}
  7
1
 73
     1
 44
1.0
1001
ACAD
1000
ACAD_MTEXT_DEFINED_HEIGHT_BEGIN
1070
    46
1040
11.53147892077593
1000
ACAD_MTEXT_DEFINED_HEIGHT_END
  0
LEADER
  5
703B
330
6F1B
100
AcDbEntity
 67
     1
  8
Text
 48
10.0
100
AcDbLeader
  3
Ben 10
 72
     1
 76
     3
 10
108.7232137921368
 20
206.996523790878
 30
0.0
 10
93.7963121742298
 20
246.4462627466135
 30
0.0
 10
84.18254608929123
 20
246.4567631094708
 30
0.0
1001
ACAD
1000
DSTYLE
1002
{
1070
    41
1040
3.0
1070
    40
1040
1.0
1070
    77
1070
     0
1002
}
  0
LEADER
  5
703C
330
6F1B
100
AcDbEntity
 67
     1
  8
Text
 48
10.0
100
AcDbLeader
  3
Ben 10
 72
     1
 76
     3
 10
98.19293786256231
 20
215.2849533979203
 30
0.0
 10
88.83141492780669
 20
223.9549274259879
 30
0.0
 10
71.20958631498547
 20
224.595450638931
 30
0.0
1001
ACAD
1000
DSTYLE
1002
{
1070
    41
1040
3.0
1070
    40
1040
1.0
1070
    77
1070
     0
1002
}
  0
LEADER
  5
703E
330
6F1B
100
AcDbEntity
 67
     1
  8
Text
 48
10.0
100
AcDbLeader
  3
Ben 10
 72
     1
 76
     3
 10
96.95082250173188
 20
166.1987962319822
 30
0.0
 10
94.51929129089194
 20
177.621813731708
 30
0.0
 10
67.82688058287317
 20
182.8567197853165
 30
0.0
1001
ACAD
1000
DSTYLE
1002
{
1070
    41
1040
3.0
1070
    40
1040
1.0
1070
    77
1070
     0
1002
}
  0
LEADER
  5
703F
330
6F1B
100
AcDbEntity
 67
     1
  8
Text
 48
10.0
100
AcDbLeader
  3
Ben 10
 72
     1
 76
     3
 10
112.6802382601644
 20
133.0021280911369
 30
0.0
 10
88.42517396638049
 20
95.7716162239418
 30
0.0
 10
81.0870275361924
 20
95.57338190511131
 30
0.0
1001
ACAD
1000
DSTYLE
1002
{
1070
    41
1040
3.0
1070
    40
1040
1.0
1070
    77
1070
     0
1002
}
  0
LEADER
  5
7040
330
6F1B
100
AcDbEntity
 67
     1
  8
Text
 48
10.0
100
AcDbLeader
  3
Ben 10
 72
     1
 76
     3
 10
103.4699590645195
 20
175.3475595206889
 30
0.0
 10
96.71550257163175
 20
194.8463450470825
 30
0.0
 10
88.03450652243668
 20
195.7849557590446
 30
0.0
1001
ACAD
1000
DSTYLE
1002
{
1070
    41
1040
3.0
1070
    40
1040
1.0
1070
    77
1070
     0
1002
}
  0
DIMENSION
  5
7041
330
6F1B
100
AcDbEntity
 67
     1
  8
Text
 48
10.0
100
AcDbDimension
  2
*D4
 10
88.82183093578055
 20
186.7865864519162
 30
0.0
 11
86.53703799620144
 21
176.7865863349746
 31
0.0
 70
    32
  1
<>0
 71
     5
 42
20.00000023388333
  3
Standard
100
AcDbAlignedDimension
 13
98.95082248298965
 23
166.7865862180329
 33
0.0
 14
104.4508221581692
 24
186.7865864519162
 34
0.0
 50
90.0
100
AcDbRotatedDimension
1001
ACAD
1000
DSTYLE
1002
{
1070
    40
1040
1.0
1070
    49
1040
1.25
1070
    50
1040
1.570796326794896
1070
   340
1005
693B
1002
}
  0
DIMENSION
  5
7042
330
6F1B
100
AcDbEntity
 67
     1
  8
Text
 48
10.0
100
AcDbDimension
  2
*D5
 10
98.95082248298965
 20
224.3111105580811
 30
0.0
 11
114.2008223457735
 21
226.5959034976602
 31
0.0
 70
    32
  1
<>0
 71
     5
 42
30.49999972556768
  3
Standard
100
AcDbAlignedDimension
 13
129.4508222085573
 23
216.786586512382
 33
0.0
 14
98.95082248298965
 24
216.7865857494774
 34
0.0
100
AcDbRotatedDimension
1001
ACAD
1000
DSTYLE
1002
{
1070
    40
1040
1.0
1070
    49
1040
1.25
1070
    50
1040
1.570796326794896
1070
   340
1005
693B
1002
}
  0
DIMENSION
  5
767C
330
6F1B
100
AcDbEntity
 67
     1
  8
hatch
 48
10.0
100
AcDbDimension
  2
*D7
 10
127.9508222112274
 20
134.5021418984763
 30
0.0
 11
118.2008223025957
 21
136.7869348380554
 31
0.0
 70
    32
  1
200
 71
     5
 42
19.49999981726333
  3
Standard
100
AcDbAlignedDimension
 13
108.4508223939641
 23
154.7865863304862
 33
0.0
 14
127.9508222112274
 24
149.7865863773418
 34
0.0
100
AcDbRotatedDimension
1001
ACAD
1000
DSTYLE
1002
{
1070
    40
1040
1.0
1070
    49
1040
1.25
1070
    50
1040
1.570796326794896
1070
   340
1005
693B
1002
}
  0
MTEXT
  5
7D08
102
{ACAD_XDICTIONARY
360
7D09
102
}
330
6F1B
100
AcDbEntity
 67
     1
  8
Text
100
AcDbMText
 10
110.6188450709584
 20
44.088720340003
 30
0.0
 40
2.5
 41
80.96515538281812
 71
     1
 72
     5
  1
{\fTahoma|b1|i0|c0|p34;\C7;Copyright \U+00A9 Superbuild International Ltd 2013}
  7
ROMANS
 73
     1
 44
1.0
 90
        3
 63
   256
 45
1.5
441
        0
1001
ACAD
1000
ACAD_MTEXT_DEFINED_HEIGHT_BEGIN
1070
    46
1040
3.019389854573114
1000
ACAD_MTEXT_DEFINED_HEIGHT_END
  0
MULTILEADER
  5
7DEB
330
6F1B
100
AcDbEntity
 67
     1
  8
hatch
 48
10.0
 92
      644
310
84020000150000000C00000016000000070000C30C00000033000000000000000C00000013000000993A00000C00000033000000000000000C000000100000000B0000000C00000016000000070000C30C00000012000000FF7F00000C00000013000000010000000C00000014000000010000005400000007000000030000
310
00ACB9AB92D5835D40616DE311375662400000000000000000408D0A5A3DD75C40C431E56D3683624000000000000000004159E940B1975D406A172EBFA274624000000000000000000C000000130000008913000044010000060000000D0000007789CA69C38D5D4065C288E86C6562400000000000000000412603CA19E6
310
5E40CA3703FC1B2D6240000000000000000096409C8724715F40D18754ED3BFF61400000000000000000873E12D3DBE05F40E53C335336C26140000000000000000034F82B979444604028291F698D26614000000000000000000929AD085A8A604071A2D316C77160400000000000000000DEBCCF5897DC6040459DBA6A12
310
775F400000000000000000F30758A4741261405A2BF7C884CE5E400000000000000000AC2C005200526140D8797E7810375E40000000000000000062F697D4E599614029F865FCBFB65D4000000000000000001B1CDC34CDE86140D080D7EF9D535D400000000000000000DC54897B5E3D62404CEEFCEDB4135D4000000000
310
00000000A8575CB1419662401F1B00920FFD5C4000000000000000000C00000013000000112700000C00000016000000070000C30C00000012000000FF7F00000C00000017000000000000000C000000130000009A3A00000C00000016000000000000C00C00000012000000FF7F00000C00000017000000FFFFFFFF0C0000
310
003300000000000000
100
AcDbMLeader
300
CONTEXT_DATA{
 40
1.0
 10
148.6955191424906
 20
115.9540753365549
 30
0.0
 41
2.5
140
3.0
145
2.0
174
     2
175
     2
176
     0
177
     0
290
     1
304

 11
0.0
 21
0.0
 31
1.0
340
693B
 12
150.6955191424906
 22
117.204075336555
 32
0.0
 13
1.0
 23
0.0
 33
0.0
 42
0.0
 43
0.0
 44
0.0
 45
1.0
170
     1
 90
-1023410169
171
     1
172
     5
 91
-1073741824
141
0.0
 92
        0
291
     0
292
     0
173
     0
293
     0
142
0.0
143
0.0
294
     0
295
     0
296
     0
110
115.3631196120304
120
148.100394199033
130
0.0
111
1.0
121
0.0
131
0.0
112
0.0
122
1.0
132
0.0
297
     0
302
LEADER{
290
     1
291
     1
 10
148.3355191424906
 20
115.9540753365549
 30
0.0
 11
1.0
 21
0.0
 31
0.0
 90
        0
 40
0.36
304
LEADER_LINE{
 10
115.3631196120304
 20
148.100394199033
 30
0.0
 10
123.5705954738002
 20
145.4215346066702
 30
0.0
 10
135.2955594099312
 20
125.1626567808048
 30
0.0
 91
        0
305
}
303
}
301
}
340
67FB
 90
   279552
170
     2
 91
-1023410169
341
14
171
    -2
290
     1
291
     1
 41
0.36
 42
3.0
172
     2
343
693B
173
     2
 95
        2
174
     1
175
     0
 92
-1023410169
292
     0
 93
-1056964608
 10
1.0
 20
1.0
 30
1.0
 43
0.0
176
     0
293
     0
294
     0
178
     0
179
     1
 45
1.0
1001
ACAD_MLEADERVER
1070
     2
  0
ENDSEC
  0
SECTION
  2
OBJECTS
  0
DICTIONARY
  5
C
330
0
100
AcDbDictionary
281
     1
  3
ACAD_2007HEADERVARS_RT
350
7E93
  3
ACAD_BACKGROUND
350
751C
  3
ACAD_CIP_PREVIOUS_PRODUCT_INFO
350
7A71
  3
ACAD_COLOR
350
1AA1
  3
ACAD_DETAILVIEWSTYLE
350
7A62
  3
ACAD_GROUP
350
D
  3
ACAD_IMAGE_DICT
350
6961
  3
ACAD_IMAGE_VARS
350
BE
  3
ACAD_LAYOUT
350
1A
  3
ACAD_MATERIAL
350
1AA0
  3
ACAD_MLEADERSTYLE
350
67FA
  3
ACAD_MLINESTYLE
350
17
  3
ACAD_PLOTSETTINGS
350
19
  3
ACAD_PLOTSTYLENAME
350
E
  3
ACAD_SCALELIST
350
67E8
  3
ACAD_SECTIONVIEWSTYLE
350
7A60
  3
ACAD_TABLESTYLE
350
1AA2
  3
ACAD_VISUALSTYLE
350
67D7
  3
AcadDim
350
2814
  3
ACDB_RECOMPOSE_DATA
350
7E92
  3
AcDbVariableDictionary
350
C2
  3
AcDsDecomposeData
350
7E9B
  3
AEC_CLASSIFICATION_SYSTEM_DEFS
350
3B16
  3
AEC_PROPERTY_SET_DEFS
350
3B17
  3
ASE_INDEX_DICTIONARY
350
7C14
  0
DICTIONARY
  5
6AC0
330
8
100
AcDbDictionary
280
     1
281
     1
  0
DICTIONARY
  5
105
330
2
100
AcDbDictionary
280
     1
281
     1
  3
ACAD_LAYERFILTERS
360
5434
  3
ACAD_LAYERSTATES
360
2B2
  3
ACLYDICTIONARY
360
5433
  0
DICTIONARY
  5
68A3
330
10
100
AcDbDictionary
280
     1
281
     1
  3
ADSK_XREC_LAYER_RECONCILED
360
68A4
  0
DICTIONARY
  5
68A5
330
5E
100
AcDbDictionary
280
     1
281
     1
  3
ADSK_XREC_LAYER_RECONCILED
360
68A6
  0
DICTIONARY
  5
68A7
330
5F
100
AcDbDictionary
280
     1
281
     1
  3
ADSK_XREC_LAYER_RECONCILED
360
68A8
  0
DICTIONARY
  5
68A9
330
60
100
AcDbDictionary
280
     1
281
     1
  3
ADSK_XREC_LAYER_RECONCILED
360
68AA
  0
DICTIONARY
  5
68AD
330
62
100
AcDbDictionary
280
     1
281
     1
  3
ADSK_XREC_LAYER_RECONCILED
360
68AE
  0
DICTIONARY
  5
68B1
330
65
100
AcDbDictionary
280
     1
281
     1
  3
ADSK_XREC_LAYER_RECONCILED
360
68B2
  0
DICTIONARY
  5
68B3
330
F0
100
AcDbDictionary
280
     1
281
     1
  3
ADSK_XREC_LAYER_RECONCILED
360
68B4
  0
DICTIONARY
  5
68B5
330
636
100
AcDbDictionary
280
     1
281
     1
  3
ADSK_XREC_LAYER_RECONCILED
360
68B6
  0
DICTIONARY
  5
68B7
330
1AE4
100
AcDbDictionary
280
     1
281
     1
  3
ADSK_XREC_LAYER_RECONCILED
360
68B8
  0
DICTIONARY
  5
68B9
330
1AE5
100
AcDbDictionary
280
     1
281
     1
  3
ADSK_XREC_LAYER_RECONCILED
360
68BA
  0
DICTIONARY
  5
68BB
330
1AE6
100
AcDbDictionary
280
     1
281
     1
  3
ADSK_XREC_LAYER_RECONCILED
360
68BC
  0
DICTIONARY
  5
68BD
330
1AE7
100
AcDbDictionary
280
     1
281
     1
  3
ADSK_XREC_LAYER_RECONCILED
360
68BE
  0
DICTIONARY
  5
68BF
330
1AE8
100
AcDbDictionary
280
     1
281
     1
  3
ADSK_XREC_LAYER_RECONCILED
360
68C0
  0
DICTIONARY
  5
693A
330
6939
100
AcDbDictionary
280
     1
281
     1
  0
DICTIONARY
  5
C0
330
1F
100
AcDbDictionary
280
     1
281
     1
  3
ACAD_SORTENTS
360
C1
  0
DICTIONARY
  5
695D
330
6946
100
AcDbDictionary
280
     1
281
     1
  3
ACAD_SORTENTS
360
7C98
  0
DICTIONARY
  5
7C95
330
7C94
100
AcDbDictionary
280
     1
281
     1
  3
ACAD_MTEXT_2008_RT
360
7E91
  0
IMAGEDEF_REACTOR
  5
7C97
330
7C96
100
AcDbRasterImageDefReactor
 90
        2
330
7C96
  0
DICTIONARY
  5
7ABD
330
7031
100
AcDbDictionary
280
     1
281
     1
  3
ACAD_MTEXT_2008_RT
360
7EC2
  0
DICTIONARY
  5
7AC0
330
703A
100
AcDbDictionary
280
     1
281
     1
  3
ACAD_MTEXT_2008_RT
360
7EC3
  0
DICTIONARY
  5
7D09
330
7D08
100
AcDbDictionary
280
     1
281
     1
  3
ACAD_MTEXT_2008_RT
360
7ED8
  0
DICTIONARY
  5
7E93
102
{ACAD_REACTORS
330
C
102
}
330
C
100
AcDbDictionary
281
     1
  3
DIMFXL
350
7E94
  3
DIMJOGANG
350
7E95
  0
DICTIONARY
  5
751C
102
{ACAD_REACTORS
330
C
102
}
330
C
100
AcDbDictionary
281
     1
  0
XRECORD
  5
7A71
102
{ACAD_REACTORS
330
C
102
}
330
C
100
AcDbXrecord
280
     1
300
ACD
300
2013
300
ACD_F_S
  0
DICTIONARY
  5
1AA1
102
{ACAD_REACTORS
330
C
102
}
330
C
100
AcDbDictionary
281
     1
  0
DICTIONARY
  5
7A62
102
{ACAD_REACTORS
330
C
102
}
330
C
100
AcDbDictionary
281
     1
  3
Metric50
350
7A63
  0
DICTIONARY
  5
D
102
{ACAD_REACTORS
330
C
102
}
330
C
100
AcDbDictionary
281
     1
  0
DICTIONARY
  5
6961
102
{ACAD_REACTORS
330
C
102
}
330
C
100
AcDbDictionary
281
     1
  3
Hebel
350
7B64
  3
hebel Hi Res
350
7BF3
  3
Hebel Supercrete Logo
350
7BF4
  3
Hebel Supercrete Logo_1
350
7BF5
  3
Supercrete Hi Res
350
7B65
  3
Supercrete Hi Res_1
350
7BF6
  0
RASTERVARIABLES
  5
BE
102
{ACAD_REACTORS
330
C
102
}
330
C
100
AcDbRasterVariables
 90
        0
 70
     1
 71
     1
 72
     1
  0
DICTIONARY
  5
1A
102
{ACAD_REACTORS
330
C
102
}
330
C
100
AcDbDictionary
281
     1
  3
BLK 2.7
350
6F41
  3
Model
350
22
  0
DICTIONARY
  5
1AA0
102
{ACAD_REACTORS
330
C
102
}
330
C
100
AcDbDictionary
281
     1
  3
ByBlock
350
67C7
  3
ByLayer
350
67BF
  3
Global
350
67CF
  0
DICTIONARY
  5
67FA
102
{ACAD_REACTORS
330
C
102
}
330
C
100
AcDbDictionary
281
     1
  3
Standard
350
67FB
  0
DICTIONARY
  5
17
102
{ACAD_REACTORS
330
C
102
}
330
C
100
AcDbDictionary
281
     1
  3
Standard
350
18
  0
DICTIONARY
  5
19
102
{ACAD_REACTORS
330
C
102
}
330
C
100
AcDbDictionary
281
     1
  0
ACDBDICTIONARYWDFLT
  5
E
102
{ACAD_REACTORS
330
C
102
}
330
C
100
AcDbDictionary
281
     1
  3
Normal
350
F
100
AcDbDictionaryWithDefault
340
F
  0
DICTIONARY
  5
67E8
102
{ACAD_REACTORS
330
C
102
}
330
C
100
AcDbDictionary
281
     1
  3
A0
350
67E9
  3
A1
350
67EA
  3
A2
350
67EB
  3
A3
350
67EC
  3
A4
350
67ED
  3
A5
350
67EE
  3
A6
350
67EF
  3
A7
350
67F0
  3
A8
350
67F1
  3
A9
350
67F2
  3
B0
350
67F3
  3
B1
350
67F4
  3
B2
350
67F5
  3
B3
350
67F6
  3
B4
350
67F7
  3
B5
350
67F8
  3
B6
350
67F9
  0
DICTIONARY
  5
7A60
102
{ACAD_REACTORS
330
C
102
}
330
C
100
AcDbDictionary
281
     1
  3
Metric50
350
7A61
  0
DICTIONARY
  5
1AA2
102
{ACAD_REACTORS
330
C
102
}
330
C
100
AcDbDictionary
281
     1
  3
Standard
350
1AA3
  0
DICTIONARY
  5
67D7
102
{ACAD_REACTORS
330
C
102
}
330
C
100
AcDbDictionary
281
     1
  3
2dWireframe
350
67DD
  3
3D Hidden
350
67DF
  3
3dWireframe
350
67DE
  3
Basic
350
67DC
  3
Brighten
350
67E3
  3
ColorChange
350
67E7
  3
Conceptual
350
67E0
  3
Dim
350
67E2
  3
EdgeColorOff
350
7A5F
  3
Facepattern
350
67E6
  3
Flat
350
67D8
  3
FlatWithEdges
350
67D9
  3
Gouraud
350
67DA
  3
GouraudWithEdges
350
67DB
  3
Hidden
350
7A57
  3
JitterOff
350
7A5D
  3
Linepattern
350
67E5
  3
OverhangOff
350
7A5E
  3
Realistic
350
67E1
  3
Shaded
350
7A5C
  3
Shaded with edges
350
7A5B
  3
Shades of Gray
350
7A58
  3
Sketchy
350
7A59
  3
Thicken
350
67E4
  3
Wireframe
350
7A56
  3
X-Ray
350
7A5A
  0
XRECORD
  5
2814
102
{ACAD_REACTORS
330
C
102
}
330
C
100
AcDbXrecord
280
     1
 90
   990106
  3

 60
     0
 61
     0
 62
     1
 63
     3
 64
     0
 65
     1
 66
     0
 67
     3
 68
     1
 69
     0
 70
     0
 71
     0
 72
     0
 40
0.0
170
     1
  0
XRECORD
  5
7E92
102
{ACAD_REACTORS
330
C
102
}
330
C
100
AcDbXrecord
280
     1
 90
        1
330
1AA3
330
7034
330
7035
330
7C94
  0
DICTIONARY
  5
C2
102
{ACAD_REACTORS
330
C
102
}
330
C
100
AcDbDictionary
281
     1
  3
CANNOSCALE
350
6B05
  3
CMLEADERSTYLE
350
6B04
  3
CTABLESTYLE
350
2347
  3
CVIEWDETAILSTYLE
350
7AD8
  3
CVIEWSECTIONSTYLE
350
7AD9
  3
SORTENTS
350
C3
  0
DICTIONARY
  5
7E9B
102
{ACAD_REACTORS
330
C
102
}
330
C
100
AcDbDictionary
281
     1
  3
AcDsRecords
350
7E9D
  3
AcDsSchemas
350
7E9C
1001
ACAD
1070
     2
  0
DICTIONARY
  5
3B16
102
{ACAD_REACTORS
330
C
102
}
330
C
100
AcDbDictionary
281
     1
  0
DICTIONARY
  5
3B17
102
{ACAD_REACTORS
330
C
102
}
330
C
100
AcDbDictionary
281
     1
  0
DICTIONARY
  5
7C14
102
{ACAD_REACTORS
330
C
102
}
330
C
100
AcDbDictionary
281
     1
  3
ASEBlockHierarchyIndexRecord
350
7C16
1001
DCO15
1040
1776601486.942
  0
DICTIONARY
  5
5434
102
{ACAD_REACTORS
330
105
102
}
330
105
100
AcDbDictionary
281
     1
  3
1stFloor
350
5436
  3
2ndFloor
350
5466
  3
3D
350
548E
  3
a00
350
5448
  3
All levels
350
5468
  3
cd
350
546C
  3
cd-ht
350
549E
  3
ceiling plan
350
546E
  3
Combo
350
5486
  3
Construction
350
5472
  3
DASHDOT
350
543E
  3
Elevations
350
5458
  3
f
350
5474
  3
F000
350
5478
  3
F001
350
5444
  3
F002
350
547A
  3
F100
350
5490
  3
F200
350
547E
  3
First Floor
350
544E
  3
Fix
350
5480
  3
Floor Layers
350
543C
  3
Frez
350
5454
  3
Gndfloor
350
5484
  3
Ground Floor
350
5498
  3
Groungfloor
350
5488
  3
HB_X
350
545C
  3
HH
350
548A
  3
Interiors
350
544C
  3
JAMES
350
5462
  3
KRB
350
54A0
  3
L0-1-2-3
350
5492
  3
LAYERON
350
546A
  3
Lower
350
5494
  3
n
350
5438
  3
on
350
543A
  3
R100
350
5446
  3
RC2
350
549A
  3
RC_Ground
350
5476
  3
RED
350
549C
  3
Roof
350
544A
  3
S000
350
5456
  3
Section
350
5440
  3
SiteOnly
350
5482
  3
t
350
5442
  3
test
350
545A
  3
THAW
350
5464
  3
THL
350
5450
  3
TILEEDGE
350
548C
  3
TP
350
5452
  3
viewports
350
5470
  3
w
350
545E
  3
waitakere
350
5496
  3
WHITE
350
5460
  3
Xref
350
547C
  0
DICTIONARY
  5
2B2
102
{ACAD_REACTORS
330
105
102
}
330
105
100
AcDbDictionary
281
     1
  0
DICTIONARY
  5
5433
102
{ACAD_REACTORS
330
105
102
}
330
105
100
AcDbDictionary
281
     1
  3
*A1
350
5435
  3
*A10
350
5437
  3
*A11
350
5473
  3
*A12
350
543B
  3
*A13
350
5475
  3
*A14
350
543F
  3
*A15
350
5479
  3
*A16
350
5449
  3
*A17
350
5485
  3
*A18
350
5447
  3
*A19
350
547F
  3
*A2
350
544B
  3
*A20
350
5481
  3
*A21
350
544F
  3
*A22
350
5483
  3
*A23
350
5459
  3
*A24
350
548F
  3
*A25
350
5457
  3
*A26
350
5489
  3
*A27
350
548B
  3
*A28
350
545D
  3
*A29
350
548D
  3
*A3
350
5467
  3
*A30
350
5497
  3
*A31
350
5465
  3
*A32
350
5493
  3
*A33
350
5495
  3
*A34
350
546B
  3
*A35
350
543D
  3
*A36
350
549F
  3
*A37
350
5471
  3
*A38
350
549B
  3
*A39
350
549D
  3
*A4
350
5477
  3
*A40
350
544D
  3
*A41
350
5445
  3
*A42
350
547D
  3
*A43
350
5441
  3
*A44
350
5443
  3
*A45
350
545B
  3
*A46
350
5455
  3
*A47
350
5487
  3
*A48
350
5451
  3
*A49
350
5453
  3
*A5
350
5469
  3
*A50
350
5463
  3
*A51
350
5491
  3
*A52
350
545F
  3
*A53
350
5461
  3
*A54
350
546F
  3
*A6
350
5499
  3
*A7
350
546D
  3
*A8
350
5439
  3
*A9
350
547B
1001
ACAD
1000
<All
  0
XRECORD
  5
68A4
102
{ACAD_REACTORS
330
68A3
102
}
330
68A3
100
AcDbXrecord
280
     1
290
     1
  0
XRECORD
  5
68A6
102
{ACAD_REACTORS
330
68A5
102
}
330
68A5
100
AcDbXrecord
280
     1
290
     1
  0
XRECORD
  5
68A8
102
{ACAD_REACTORS
330
68A7
102
}
330
68A7
100
AcDbXrecord
280
     1
290
     1
  0
XRECORD
  5
68AA
102
{ACAD_REACTORS
330
68A9
102
}
330
68A9
100
AcDbXrecord
280
     1
290
     1
  0
XRECORD
  5
68AE
102
{ACAD_REACTORS
330
68AD
102
}
330
68AD
100
AcDbXrecord
280
     1
290
     1
  0
XRECORD
  5
68B2
102
{ACAD_REACTORS
330
68B1
102
}
330
68B1
100
AcDbXrecord
280
     1
290
     1
  0
XRECORD
  5
68B4
102
{ACAD_REACTORS
330
68B3
102
}
330
68B3
100
AcDbXrecord
280
     1
290
     1
  0
XRECORD
  5
68B6
102
{ACAD_REACTORS
330
68B5
102
}
330
68B5
100
AcDbXrecord
280
     1
290
     1
  0
XRECORD
  5
68B8
102
{ACAD_REACTORS
330
68B7
102
}
330
68B7
100
AcDbXrecord
280
     1
290
     1
  0
XRECORD
  5
68BA
102
{ACAD_REACTORS
330
68B9
102
}
330
68B9
100
AcDbXrecord
280
     1
290
     1
  0
XRECORD
  5
68BC
102
{ACAD_REACTORS
330
68BB
102
}
330
68BB
100
AcDbXrecord
280
     1
290
     1
  0
XRECORD
  5
68BE
102
{ACAD_REACTORS
330
68BD
102
}
330
68BD
100
AcDbXrecord
280
     1
290
     1
  0
XRECORD
  5
68C0
102
{ACAD_REACTORS
330
68BF
102
}
330
68BF
100
AcDbXrecord
280
     1
290
     1
  0
SORTENTSTABLE
  5
C1
102
{ACAD_REACTORS
330
C0
102
}
330
C0
100
AcDbSortentsTable
330
1F
331
2497
  5
5AF3
331
5A5E
  5
7820
331
26E2
  5
710E
331
2458
  5
246C
331
247E
  5
249F
331
794C
  5
2475
331
2463
  5
247E
331
2476
  5
2497
331
7854
  5
248A
331
5975
  5
24C7
331
758A
  5
2478
331
2494
  5
5AEF
331
5980
  5
7176
331
247B
  5
249C
331
68A0
  5
599E
331
744C
  5
2485
331
2486
  5
24AD
331
7176
  5
7856
331
6898
  5
59A1
331
5A58
  5
754D
331
246D
  5
248F
331
2465
  5
2481
331
597F
  5
7142
331
2478
  5
2499
331
248B
  5
24C5
331
5977
  5
24CC
331
2483
  5
24A7
331
2496
  5
5AF1
331
5A5D
  5
77AF
331
5982
  5
7363
331
2457
  5
246B
331
5A45
  5
754C
331
6897
  5
25B8
331
246A
  5
248C
331
247D
  5
249E
331
2462
  5
247C
331
68A2
  5
24CE
331
2475
  5
2496
331
597C
  5
59A0
331
2488
  5
24C1
331
5974
  5
24CA
331
2480
  5
24A1
331
2493
  5
59A4
331
245C
  5
2471
331
5A5A
  5
77AD
331
7333
  5
5AF2
331
258E
  5
5AF6
331
246F
  5
2491
331
5AAD
  5
246E
331
6894
  5
24C8
331
2467
  5
2488
331
5A75
  5
246D
331
247A
  5
249B
331
248D
  5
24CB
331
2472
  5
2492
331
5AE8
  5
246F
331
5979
  5
24D0
331
2485
  5
24AC
331
2498
  5
5AF4
331
7175
  5
248D
331
5A5F
  5
7821
331
246C
  5
248E
331
247F
  5
24A0
331
2464
  5
247F
331
2477
  5
2498
331
597E
  5
24A9
331
248A
  5
24C2
331
7855
  5
2479
331
689C
  5
24CD
331
2482
  5
24A2
331
5989
  5
7417
331
2495
  5
5AF0
331
245E
  5
2476
331
5A5C
  5
77AE
331
5981
  5
7177
331
781F
  5
2468
331
2469
  5
248B
331
5A77
  5
7855
331
247C
  5
249D
331
248F
  5
24CF
331
2461
  5
247B
331
68A1
  5
59A2
331
2474
  5
2494
331
2487
  5
24C0
331
7177
  5
7857
331
249A
  5
5AF5
331
5973
  5
24C4
331
2492
  5
599F
331
5A59
  5
77AC
331
246E
  5
2490
331
6893
  5
24C6
331
2466
  5
2484
331
2479
  5
249A
331
248C
  5
24C9
331
2484
  5
24A8
  0
SORTENTSTABLE
  5
7C98
102
{ACAD_REACTORS
330
695D
102
}
330
695D
100
AcDbSortentsTable
330
6946
  0
XRECORD
  5
7E91
102
{ACAD_REACTORS
330
7C95
102
}
330
7C95
100
AcDbXrecord
280
     1
 40
29599.0
  1
\pxqc;BLOCK CONSTRUCTION
  0
XRECORD
  5
7EC2
102
{ACAD_REACTORS
330
7ABD
102
}
330
7ABD
100
AcDbXrecord
280
     1
 40
12014461.0
  1
%%C{\fTahoma|b0|i1|c0|p34;12 reinforcing rod in }%%C{\fTahoma|b0|i1|c0|p34;50mm drilled grout filled core (17MPa sand grout )\P\PSupercoat™ Coating System as specified\P\P\P\P\P\P10mm nominal Supercoat™ Superbase render to level first course over DPC
  1
 as a slip joint on the 50mm rebate\P\P\P\P\P\P\P10mm max. overhang\P\PTank back & bottom of rebate with Supercoat™ Tanking Membrane\P\P}%%C{\fTahoma|b0|i1|c0|p34;12 reinforcing rod epoxy grouted into }%%C{\fTahoma|b0|i1|c0|p34;14mm x 150mm deep hole
  1
 }
  0
XRECORD
  5
7EC3
102
{ACAD_REACTORS
330
7AC0
102
}
330
7AC0
100
AcDbXrecord
280
     1
 40
11533001.0
  1
{\fTahoma|b0|i1|c0|p34;600 x 300 x 250mm Supercrete™ Blocks glued together with 2-3mm nominal Supercoat\H1.0833x;™\H0.92311x; Superbond Adhesive \P\P\PInternal linings plasterboard or Supercoat™ Coating System\P\P\P\P\P\Pex 600 x 100 x 300mm Supercre
  1
te™ Block packer to form 300mm thk wall\P\PFloor finish and skirting board \Pas selected by owner\P\P\P\P\P\P\P\P\P\P\P\P\P\P\P\P\P\P\P\PReinforced concrete slab & foundation footing to NZS 4229 or engineer's drawings & specifications}
  0
XRECORD
  5
7ED8
102
{ACAD_REACTORS
330
7D09
102
}
330
7D09
100
AcDbXrecord
280
     1
 40
274088.0
  1
{\fTahoma|b1|i0|c0|p34;\C7;Copyright © Superbuild International Ltd 2013}
  0
XRECORD
  5
7E94
102
{ACAD_REACTORS
330
7E93
102
}
330
7E93
100
AcDbXrecord
280
     1
 40
1.25
  0
XRECORD
  5
7E95
102
{ACAD_REACTORS
330
7E93
102
}
330
7E93
100
AcDbXrecord
280
     1
 40
1.570796326794896
  0
ACDBDETAILVIEWSTYLE
  5
7A63
102
{ACAD_REACTORS
330
7A62
102
}
330
7A62
100
AcDbModelDocViewStyle
 70
     0
  3
Metric50
290
     0
100
AcDbDetailViewStyle
 70
     0
 71
     0
 90
        3
 71
     1
340
11
 62
   256
 40
5.0
340
0
 62
   256
 40
5.0
300

 40
0.0
280
     1
 71
     2
340
16
 90
       25
 62
   256
 71
     3
340
11
 62
   256
 40
5.0
 90
        0
 40
15.0
 90
        1
300
%<\AcVar ViewDetailId>% (%<\AcVar ViewScale \f "%sn">%)
 71
     4
340
16
 90
       25
 62
   256
340
16
 90
       25
 62
   256
280
     0
  0
IMAGEDEF
  5
7B64
102
{ACAD_REACTORS
330
6961
102
}
330
6961
100
AcDbRasterImageDef
 90
        0
  1
M:\logos & letter head\Graphics\Hebel Letterheads & Logos\Hebel.gif
 10
456.0
 20
158.0
 11
0.0021929824561404
 21
0.0021929824561404
280
     1
281
     0
  0
IMAGEDEF
  5
7BF3
102
{ACAD_REACTORS
330
6961
102
}
330
6961
100
AcDbRasterImageDef
 90
        0
  1
M:\LOGISTICS and PRICING\logos & letter head\Graphics\Hebel Letterheads & Logos\hebel Hi Res.jpg
 10
1366.0
 20
474.0
 11
0.0846666666666667
 21
0.0846666666666667
280
     1
281
     5
  0
IMAGEDEF
  5
7BF4
102
{ACAD_REACTORS
330
6961
102
}
330
6961
100
AcDbRasterImageDef
 90
        0
  1
M:\Autocad\CAD Library\Hebel Supercrete Logo.jpg
 10
5906.0
 20
3360.0
 11
0.0846666666666667
 21
0.0846666666666667
280
     1
281
     5
  0
IMAGEDEF
  5
7BF5
102
{ACAD_REACTORS
330
6961
102
}
330
6961
100
AcDbRasterImageDef
 90
        0
  1
C:\Documents and Settings\Dennis\My Documents\CAD-DATA\Hebel Supercrete Logo.jpg
 10
5906.0
 20
3360.0
 11
0.0846666666666667
 21
0.0846666666666667
280
     1
281
     5
  0
IMAGEDEF
  5
7B65
102
{ACAD_REACTORS
330
6961
102
}
330
6961
100
AcDbRasterImageDef
 90
        0
  1
M:\logos & letter head\Graphics\Hebel Letterheads & Logos\Supercrete Hi Res.jpg
 10
1367.0
 20
308.0
 11
0.0846666666666667
 21
0.0846666666666667
280
     1
281
     5
  0
IMAGEDEF
  5
7BF6
102
{ACAD_REACTORS
330
6961
330
7C97
102
}
330
6961
100
AcDbRasterImageDef
 90
        0
  1
M:\LOGISTICS and PRICING\logos & letter head\Graphics\Hebel Letterheads & Logos\Supercrete Hi Res.jpg
 10
1367.0
 20
308.0
 11
0.0846666666666667
 21
0.0846666666666667
280
     1
281
     5
  0
LAYOUT
  5
6F41
102
{ACAD_XDICTIONARY
360
6F42
102
}
102
{ACAD_REACTORS
330
1A
102
}
330
1A
100
AcDbPlotSettings
  1

  2
Adobe PDF.pc3
  4
A4
  6

 40
3.174999952316284
 41
3.174999952316284
 42
3.175003051757812
 43
3.17498779296875
 44
209.9733276367187
 45
297.0318298339844
 46
0.0
 47
0.0
 48
0.0
 49
0.0
140
0.0
141
0.0
142
1.0
143
1.0
 70
   688
 72
     1
 73
     0
 74
     5
  7
Hebel monochrome.ctb
 75
    16
147
1.0
 76
     0
 77
     2
 78
   300
148
0.0
149
0.0
100
AcDbLayout
  1
BLK 2.7
 70
     0
 71
     1
 10
-3.174999952316284
 20
-3.174999952316284
 11
206.7983276844024
 21
293.8568298816681
 12
0.0
 22
0.0
 32
0.0
 14
7.151295027547689
 24
7.512272705266923
 34
-0.0000000349181948
 15
197.3531168299977
 25
284.1213512759751
 35
0.0000000814935746
146
0.0
 13
0.0
 23
0.0
 33
0.0
 16
1.0
 26
0.0
 36
0.0
 17
0.0
 27
1.0
 37
0.0
 76
     0
330
6F1B
331
6F1D
1001
ACAD_PSEXT
1000
Adobe PDF.pc3
1000
Adobe PDF Converter
1000
Documents\*.pdf
1000

1070
     0
  0
LAYOUT
  5
22
102
{ACAD_REACTORS
330
1A
102
}
330
1A
100
AcDbPlotSettings
  1

  2
none_device
  4
ANSI_A_(8.50_x_11.00_Inches)
  6

 40
6.349999904632568
 41
19.04999923706055
 42
6.350006103515625
 43
19.04998779296875
 44
215.8999938964844
 45
279.3999938964844
 46
0.0
 47
0.0
 48
0.0
 49
0.0
140
0.0
141
0.0
142
1.0
143
78.436453180766
 70
 11952
 72
     0
 73
     1
 74
     0
  7

 75
     0
147
0.0127491741332998
 76
     0
 77
     2
 78
   300
148
0.0
149
0.0
100
AcDbLayout
  1
Model
 70
     1
 71
     0
 10
0.0
 20
0.0
 11
12.0
 21
9.0
 12
0.0
 22
0.0
 32
0.0
 14
0.0
 24
0.0
 34
0.0
 15
0.0
 25
0.0
 35
0.0
146
0.0
 13
0.0
 23
0.0
 33
0.0
 16
1.0
 26
0.0
 36
0.0
 17
0.0
 27
1.0
 37
0.0
 76
     0
330
1F
331
67BD
  0
MATERIAL
  5
67C7
102
{ACAD_XDICTIONARY
360
67C8
102
}
102
{ACAD_REACTORS
330
1AA0
102
}
330
1AA0
100
AcDbMaterial
  1
ByBlock
 72
     0
 43
0.0008202099737533
 43
0.0
 43
0.0
 43
0.0
 43
0.0
 43
0.0008202099737533
 43
0.0
 43
0.0
 43
0.0
 43
0.0
 43
1.0
 43
0.0
 43
0.0
 43
0.0
 43
0.0
 43
1.0
 77
     0
 47
0.0008202099737533
 47
0.0
 47
0.0
 47
0.0
 47
0.0
 47
0.0008202099737533
 47
0.0
 47
0.0
 47
0.0
 47
0.0
 47
1.0
 47
0.0
 47
0.0
 47
0.0
 47
0.0
 47
1.0
171
     0
 49
0.0008202099737533
 49
0.0
 49
0.0
 49
0.0
 49
0.0
 49
0.0008202099737533
 49
0.0
 49
0.0
 49
0.0
 49
0.0
 49
1.0
 49
0.0
 49
0.0
 49
0.0
 49
0.0
 49
1.0
175
     0
142
0.0008202099737533
142
0.0
142
0.0
142
0.0
142
0.0
142
0.0008202099737533
142
0.0
142
0.0
142
0.0
142
0.0
142
1.0
142
0.0
142
0.0
142
0.0
142
0.0
142
1.0
179
     0
144
0.0008202099737533
144
0.0
144
0.0
144
0.0
144
0.0
144
0.0008202099737533
144
0.0
144
0.0
144
0.0
144
0.0
144
1.0
144
0.0
144
0.0
144
0.0
144
0.0
144
1.0
147
0.0008202099737533
147
0.0
147
0.0
147
0.0
147
0.0
147
0.0008202099737533
147
0.0
147
0.0
147
0.0
147
0.0
147
1.0
147
0.0
147
0.0
147
0.0
147
0.0
147
1.0
  0
MATERIAL
  5
67BF
102
{ACAD_XDICTIONARY
360
67C0
102
}
102
{ACAD_REACTORS
330
1AA0
102
}
330
1AA0
100
AcDbMaterial
  1
ByLayer
 72
     0
 43
0.0008202099737533
 43
0.0
 43
0.0
 43
0.0
 43
0.0
 43
0.0008202099737533
 43
0.0
 43
0.0
 43
0.0
 43
0.0
 43
1.0
 43
0.0
 43
0.0
 43
0.0
 43
0.0
 43
1.0
 77
     0
 47
0.0008202099737533
 47
0.0
 47
0.0
 47
0.0
 47
0.0
 47
0.0008202099737533
 47
0.0
 47
0.0
 47
0.0
 47
0.0
 47
1.0
 47
0.0
 47
0.0
 47
0.0
 47
0.0
 47
1.0
171
     0
 49
0.0008202099737533
 49
0.0
 49
0.0
 49
0.0
 49
0.0
 49
0.0008202099737533
 49
0.0
 49
0.0
 49
0.0
 49
0.0
 49
1.0
 49
0.0
 49
0.0
 49
0.0
 49
0.0
 49
1.0
175
     0
142
0.0008202099737533
142
0.0
142
0.0
142
0.0
142
0.0
142
0.0008202099737533
142
0.0
142
0.0
142
0.0
142
0.0
142
1.0
142
0.0
142
0.0
142
0.0
142
0.0
142
1.0
179
     0
144
0.0008202099737533
144
0.0
144
0.0
144
0.0
144
0.0
144
0.0008202099737533
144
0.0
144
0.0
144
0.0
144
0.0
144
1.0
144
0.0
144
0.0
144
0.0
144
0.0
144
1.0
147
0.0008202099737533
147
0.0
147
0.0
147
0.0
147
0.0
147
0.0008202099737533
147
0.0
147
0.0
147
0.0
147
0.0
147
1.0
147
0.0
147
0.0
147
0.0
147
0.0
147
1.0
  0
MATERIAL
  5
67CF
102
{ACAD_XDICTIONARY
360
67D0
102
}
102
{ACAD_REACTORS
330
1AA0
102
}
330
1AA0
100
AcDbMaterial
  1
Global
 72
     0
 43
0.0008202099737533
 43
0.0
 43
0.0
 43
0.0
 43
0.0
 43
0.0008202099737533
 43
0.0
 43
0.0
 43
0.0
 43
0.0
 43
1.0
 43
0.0
 43
0.0
 43
0.0
 43
0.0
 43
1.0
 77
     0
 47
0.0008202099737533
 47
0.0
 47
0.0
 47
0.0
 47
0.0
 47
0.0008202099737533
 47
0.0
 47
0.0
 47
0.0
 47
0.0
 47
1.0
 47
0.0
 47
0.0
 47
0.0
 47
0.0
 47
1.0
171
     0
 49
0.0008202099737533
 49
0.0
 49
0.0
 49
0.0
 49
0.0
 49
0.0008202099737533
 49
0.0
 49
0.0
 49
0.0
 49
0.0
 49
1.0
 49
0.0
 49
0.0
 49
0.0
 49
0.0
 49
1.0
175
     0
142
0.0008202099737533
142
0.0
142
0.0
142
0.0
142
0.0
142
0.0008202099737533
142
0.0
142
0.0
142
0.0
142
0.0
142
1.0
142
0.0
142
0.0
142
0.0
142
0.0
142
1.0
179
     0
144
0.0008202099737533
144
0.0
144
0.0
144
0.0
144
0.0
144
0.0008202099737533
144
0.0
144
0.0
144
0.0
144
0.0
144
1.0
144
0.0
144
0.0
144
0.0
144
0.0
144
1.0
147
0.0008202099737533
147
0.0
147
0.0
147
0.0
147
0.0
147
0.0008202099737533
147
0.0
147
0.0
147
0.0
147
0.0
147
1.0
147
0.0
147
0.0
147
0.0
147
0.0
147
1.0
  0
MLEADERSTYLE
  5
67FB
102
{ACAD_REACTORS
330
67FA
330
7DEB
102
}
330
67FA
100
AcDbMLeaderStyle
170
     2
171
     1
172
     0
 90
        4
 40
0.0
 41
0.0
173
     2
 91
-1023410169
340
14
 92
       -2
290
     1
 42
2.0
291
     1
 43
0.36
  3
Standard
 44
3.0
300

342
693B
174
     2
178
     2
175
     1
176
     0
 93
-1023410169
 45
2.5
292
     0
297
     0
 46
4.0
 94
-1056964608
 47
1.0
 49
1.0
140
1.0
293
     1
141
0.0
294
     1
177
     0
142
1.0
295
     0
296
     0
143
0.125
1001
ACAD_MLEADERVER
1070
     2
  0
MLINESTYLE
  5
18
102
{ACAD_REACTORS
330
17
102
}
330
17
100
AcDbMlineStyle
  2
STANDARD
 70
     0
  3

 62
   256
 51
90.0
 52
90.0
 71
     2
 49
0.5
 62
   256
  6
BYLAYER
 49
-0.5
 62
   256
  6
BYLAYER
  0
ACDBPLACEHOLDER
  5
F
102
{ACAD_REACTORS
330
E
102
}
330
E
  0
SCALE
  5
67E9
102
{ACAD_REACTORS
330
67E8
102
}
330
67E8
100
AcDbScale
 70
     0
300
1:1
140
1.0
141
1.0
290
     1
  0
SCALE
  5
67EA
102
{ACAD_REACTORS
330
67E8
102
}
330
67E8
100
AcDbScale
 70
     0
300
1:2
140
1.0
141
2.0
290
     0
  0
SCALE
  5
67EB
102
{ACAD_REACTORS
330
67E8
102
}
330
67E8
100
AcDbScale
 70
     0
300
1:4
140
1.0
141
4.0
290
     0
  0
SCALE
  5
67EC
102
{ACAD_REACTORS
330
67E8
102
}
330
67E8
100
AcDbScale
 70
     0
300
1:5
140
1.0
141
5.0
290
     0
  0
SCALE
  5
67ED
102
{ACAD_REACTORS
330
67E8
102
}
330
67E8
100
AcDbScale
 70
     0
300
1:8
140
1.0
141
8.0
290
     0
  0
SCALE
  5
67EE
102
{ACAD_REACTORS
330
67E8
102
}
330
67E8
100
AcDbScale
 70
     0
300
1:10
140
1.0
141
10.0
290
     0
  0
SCALE
  5
67EF
102
{ACAD_REACTORS
330
67E8
102
}
330
67E8
100
AcDbScale
 70
     0
300
1:16
140
1.0
141
16.0
290
     0
  0
SCALE
  5
67F0
102
{ACAD_REACTORS
330
67E8
102
}
330
67E8
100
AcDbScale
 70
     0
300
1:20
140
1.0
141
20.0
290
     0
  0
SCALE
  5
67F1
102
{ACAD_REACTORS
330
67E8
102
}
330
67E8
100
AcDbScale
 70
     0
300
1:30
140
1.0
141
30.0
290
     0
  0
SCALE
  5
67F2
102
{ACAD_REACTORS
330
67E8
102
}
330
67E8
100
AcDbScale
 70
     0
300
1:40
140
1.0
141
40.0
290
     0
  0
SCALE
  5
67F3
102
{ACAD_REACTORS
330
67E8
102
}
330
67E8
100
AcDbScale
 70
     0
300
1:50
140
1.0
141
50.0
290
     0
  0
SCALE
  5
67F4
102
{ACAD_REACTORS
330
67E8
102
}
330
67E8
100
AcDbScale
 70
     0
300
1:100
140
1.0
141
100.0
290
     0
  0
SCALE
  5
67F5
102
{ACAD_REACTORS
330
67E8
102
}
330
67E8
100
AcDbScale
 70
     0
300
2:1
140
2.0
141
1.0
290
     0
  0
SCALE
  5
67F6
102
{ACAD_REACTORS
330
67E8
102
}
330
67E8
100
AcDbScale
 70
     0
300
4:1
140
4.0
141
1.0
290
     0
  0
SCALE
  5
67F7
102
{ACAD_REACTORS
330
67E8
102
}
330
67E8
100
AcDbScale
 70
     0
300
8:1
140
8.0
141
1.0
290
     0
  0
SCALE
  5
67F8
102
{ACAD_REACTORS
330
67E8
102
}
330
67E8
100
AcDbScale
 70
     0
300
10:1
140
10.0
141
1.0
290
     0
  0
SCALE
  5
67F9
102
{ACAD_REACTORS
330
67E8
102
}
330
67E8
100
AcDbScale
 70
     0
300
100:1
140
100.0
141
1.0
290
     0
  0
ACDBSECTIONVIEWSTYLE
  5
7A61
102
{ACAD_REACTORS
330
7A60
102
}
330
7A60
100
AcDbModelDocViewStyle
 70
     0
  3
Metric50
290
     0
100
AcDbSectionViewStyle
 70
     0
 71
     0
 90
      102
 71
     1
340
11
 62
   256
 40
5.0
340
0
340
0
 62
   256
 40
5.0
300
I, O, Q, S, X, Z
 40
10.0
 90
        0
 40
2.5
 90
        0
 71
     2
340
16
 90
       25
 62
   256
340
16
 90
       50
 62
   256
 40
5.0
 40
2.5
 40
5.0
 71
     3
340
11
 62
   256
 40
5.0
 90
        0
 40
15.0
 90
        1
300
%<\AcVar ViewSectionStartId>%-%<\AcVar ViewSectionEndId>% (%<\AcVar ViewScale \f "%sn">%)
 71
     4
 62
   256
 62
   257
300
ANSI31
 40
1.0
 90
        0
290
     0
290
     0
 90
        6
 40
0.0
 40
1.570796326794896
 40
0.2617993877991494
 40
1.308996938995747
 40
-0.2617993877991494
 40
1.832595714594046
  0
TABLESTYLE
  5
1AA3
102
{ACAD_XDICTIONARY
360
6ABA
102
}
102
{ACAD_REACTORS
330
1AA2
102
}
330
1AA2
100
AcDbTableStyle
  3
Standard
 70
     0
 71
     0
 40
1.5
 41
1.5
280
     0
281
     0
  7
Standard
140
4.5
170
     2
 62
     0
 63
     7
283
     0
274
    -2
284
     1
 64
     0
275
    -2
285
     1
 65
     0
276
    -2
286
     1
 66
     0
277
    -2
287
     1
 67
     0
278
    -2
288
     1
 68
     0
279
    -2
289
     1
 69
     0
  7
Standard
140
6.0
170
     5
 62
     0
 63
     7
283
     0
274
    -2
284
     1
 64
     0
275
    -2
285
     1
 65
     0
276
    -2
286
     1
 66
     0
277
    -2
287
     1
 67
     0
278
    -2
288
     1
 68
     0
279
    -2
289
     1
 69
     0
  7
Standard
140
4.5
170
     5
 62
     0
 63
     7
283
     0
274
    -2
284
     1
 64
     0
275
    -2
285
     1
 65
     0
276
    -2
286
     1
 66
     0
277
    -2
287
     1
 67
     0
278
    -2
288
     1
 68
     0
279
    -2
289
     1
 69
     0
  0
VISUALSTYLE
  5
67DD
102
{ACAD_XDICTIONARY
360
7EAC
102
}
102
{ACAD_REACTORS
330
67D7
102
}
330
67D7
100
AcDbVisualStyle
  2
2dWireframe
 70
     4
 71
     0
 72
     2
 73
     0
 90
        0
 40
-0.6
 41
-30.0
 62
     5
 63
     7
421
 16777215
 74
     1
 91
        4
 64
     7
 65
   257
 75
     1
175
     1
 42
1.0
 92
        0
 66
   257
 43
1.0
 76
     1
 77
     6
 78
     2
 67
     7
 79
     5
170
     0
171
     0
290
     0
174
     0
 93
        1
 44
0.0
173
     0
291
     0
 45
0.0
1001
ACAD
1000
AcDbSavedByObjectVersion
1070
     0
  0
VISUALSTYLE
  5
67DF
102
{ACAD_XDICTIONARY
360
7EB0
102
}
102
{ACAD_REACTORS
330
67D7
102
}
330
67D7
100
AcDbVisualStyle
  2
3D Hidden
 70
     6
 71
     1
 72
     2
 73
     2
 90
        0
 40
-0.6
 41
-30.0
 62
     5
 63
     7
421
 16777215
 74
     2
 91
        2
 64
     7
 65
   257
 75
     2
175
     1
 42
40.0
 92
        0
 66
   257
 43
1.0
 76
     1
 77
     6
 78
     2
 67
     7
 79
     3
170
     0
171
     0
290
     0
174
     0
 93
        1
 44
0.0
173
     0
291
     0
 45
0.0
1001
ACAD
1000
AcDbSavedByObjectVersion
1070
     0
  0
VISUALSTYLE
  5
67DE
102
{ACAD_XDICTIONARY
360
7EAE
102
}
102
{ACAD_REACTORS
330
67D7
102
}
330
67D7
100
AcDbVisualStyle
  2
3dWireframe
 70
     5
 71
     0
 72
     2
 73
     0
 90
        0
 40
-0.6
 41
-30.0
 62
     5
 63
     7
421
 16777215
 74
     1
 91
        4
 64
     7
 65
   257
 75
     1
175
     1
 42
1.0
 92
        0
 66
   257
 43
1.0
 76
     1
 77
     6
 78
     2
 67
     7
 79
     5
170
     0
171
     0
290
     0
174
     0
 93
        1
 44
0.0
173
     0
291
     0
 45
0.0
1001
ACAD
1000
AcDbSavedByObjectVersion
1070
     0
  0
VISUALSTYLE
  5
67DC
102
{ACAD_XDICTIONARY
360
7EAA
102
}
102
{ACAD_REACTORS
330
67D7
102
}
330
67D7
100
AcDbVisualStyle
  2
Basic
 70
     7
 71
     1
 72
     0
 73
     1
 90
        0
 40
-0.6
 41
-30.0
 62
     5
 63
     7
421
 16777215
 74
     0
 91
        4
 64
     7
 65
   257
 75
     1
175
     1
 42
1.0
 92
        8
 66
     7
 43
1.0
 76
     1
 77
     6
 78
     2
 67
     7
 79
     5
170
     0
171
     0
290
     0
174
     0
 93
        1
 44
0.0
173
     0
291
     1
 45
0.0
1001
ACAD
1000
AcDbSavedByObjectVersion
1070
     0
  0
VISUALSTYLE
  5
67E3
102
{ACAD_XDICTIONARY
360
7EB8
102
}
102
{ACAD_REACTORS
330
67D7
102
}
330
67D7
100
AcDbVisualStyle
  2
Brighten
 70
    12
 71
     2
 72
     2
 73
     0
 90
        0
 40
-0.6
 41
-30.0
 62
     5
 63
     7
421
 16777215
 74
     1
 91
        4
 64
     7
 65
   257
 75
     1
175
     1
 42
1.0
 92
        8
 66
     7
 43
1.0
 76
     1
 77
     6
 78
     2
 67
     7
 79
     5
170
     0
171
     0
290
     0
174
     0
 93
        1
 44
50.0
173
     0
291
     1
 45
0.0
1001
ACAD
1000
AcDbSavedByObjectVersion
1070
     0
  0
VISUALSTYLE
  5
67E7
102
{ACAD_XDICTIONARY
360
7EC0
102
}
102
{ACAD_REACTORS
330
67D7
102
}
330
67D7
100
AcDbVisualStyle
  2
ColorChange
 70
    16
 71
     2
 72
     2
 73
     3
 90
        0
 40
-0.6
 41
-30.0
 62
     5
 63
     8
421
  8421504
 74
     1
 91
        4
 64
     7
 65
   257
 75
     1
175
     1
 42
1.0
 92
        8
 66
     8
424
  8421504
 43
1.0
 76
     1
 77
     6
 78
     2
 67
     7
 79
     5
170
     0
171
     0
290
     0
174
     0
 93
        1
 44
0.0
173
     0
291
     1
 45
0.0
1001
ACAD
1000
AcDbSavedByObjectVersion
1070
     0
  0
VISUALSTYLE
  5
67E0
102
{ACAD_XDICTIONARY
360
7EB2
102
}
102
{ACAD_REACTORS
330
67D7
102
}
330
67D7
100
AcDbVisualStyle
  2
Conceptual
 70
     9
 71
     3
 72
     2
 73
     0
 90
        0
 40
-0.6
 41
-30.0
 62
     5
 63
     7
421
 16777215
 74
     2
 91
        2
 64
     7
 65
   257
 75
     1
175
     1
 42
40.0
 92
        8
 66
     7
 43
1.0
 76
     1
 77
     6
 78
     2
 67
     7
 79
     3
170
     0
171
     0
290
     0
174
     0
 93
        1
 44
0.0
173
     0
291
     0
 45
0.0
1001
ACAD
1000
AcDbSavedByObjectVersion
1070
     0
  0
VISUALSTYLE
  5
67E2
102
{ACAD_XDICTIONARY
360
7EB6
102
}
102
{ACAD_REACTORS
330
67D7
102
}
330
67D7
100
AcDbVisualStyle
  2
Dim
 70
    11
 71
     2
 72
     2
 73
     0
 90
        0
 40
-0.6
 41
-30.0
 62
     5
 63
     7
421
 16777215
 74
     1
 91
        4
 64
     7
 65
   257
 75
     1
175
     1
 42
1.0
 92
        8
 66
     7
 43
1.0
 76
     1
 77
     6
 78
     2
 67
     7
 79
     5
170
     0
171
     0
290
     0
174
     0
 93
        1
 44
-50.0
173
     0
291
     1
 45
0.0
1001
ACAD
1000
AcDbSavedByObjectVersion
1070
     0
  0
VISUALSTYLE
  5
7A5F
102
{ACAD_XDICTIONARY
360
7ED6
102
}
102
{ACAD_REACTORS
330
67D7
102
}
330
67D7
100
AcDbVisualStyle
  2
EdgeColorOff
 70
    22
 71
     2
 72
     2
 73
     0
 90
        0
 40
-0.6
 41
-30.0
 62
     5
 63
     7
421
 16777215
 74
     1
 91
        4
 64
     7
 65
   257
 75
     1
175
     1
 42
1.0
 92
        8
 66
     7
 43
1.0
 76
     1
 77
     6
 78
     2
 67
     7
 79
     5
170
     0
171
     0
290
     0
174
     0
 93
        1
 44
0.0
173
     0
291
     1
 45
0.0
1001
ACAD
1000
AcDbSavedByObjectVersion
1070
     0
  0
VISUALSTYLE
  5
67E6
102
{ACAD_XDICTIONARY
360
7EBE
102
}
102
{ACAD_REACTORS
330
67D7
102
}
330
67D7
100
AcDbVisualStyle
  2
Facepattern
 70
    15
 71
     2
 72
     2
 73
     0
 90
        0
 40
-0.6
 41
-30.0
 62
     5
 63
     7
421
 16777215
 74
     1
 91
        4
 64
     7
 65
   257
 75
     1
175
     1
 42
1.0
 92
        8
 66
     7
 43
1.0
 76
     1
 77
     6
 78
     2
 67
     7
 79
     5
170
     0
171
     0
290
     0
174
     0
 93
        1
 44
0.0
173
     0
291
     1
 45
0.0
1001
ACAD
1000
AcDbSavedByObjectVersion
1070
     0
  0
VISUALSTYLE
  5
67D8
102
{ACAD_XDICTIONARY
360
7EA2
102
}
102
{ACAD_REACTORS
330
67D7
102
}
330
67D7
100
AcDbVisualStyle
  2
Flat
 70
     0
 71
     2
 72
     1
 73
     1
 90
        2
 40
-0.6
 41
30.0
 62
     5
 63
     7
421
 16777215
 74
     0
 91
        4
 64
     7
 65
   257
 75
     1
175
     1
 42
1.0
 92
        8
 66
     7
 43
1.0
 76
     1
 77
     6
 78
     2
 67
     7
 79
     5
170
     0
171
     0
290
     0
174
     0
 93
       13
 44
0.0
173
     0
291
     1
 45
0.0
1001
ACAD
1000
AcDbSavedByObjectVersion
1070
     0
  0
VISUALSTYLE
  5
67D9
102
{ACAD_XDICTIONARY
360
7EA4
102
}
102
{ACAD_REACTORS
330
67D7
102
}
330
67D7
100
AcDbVisualStyle
  2
FlatWithEdges
 70
     1
 71
     2
 72
     1
 73
     1
 90
        2
 40
-0.6
 41
30.0
 62
     5
 63
     7
421
 16777215
 74
     1
 91
        4
 64
     7
 65
   257
 75
     1
175
     1
 42
1.0
 92
        0
 66
   257
 43
1.0
 76
     1
 77
     6
 78
     2
 67
     7
 79
     5
170
     0
171
     0
290
     0
174
     0
 93
       13
 44
0.0
173
     0
291
     1
 45
0.0
1001
ACAD
1000
AcDbSavedByObjectVersion
1070
     0
  0
VISUALSTYLE
  5
67DA
102
{ACAD_XDICTIONARY
360
7EA6
102
}
102
{ACAD_REACTORS
330
67D7
102
}
330
67D7
100
AcDbVisualStyle
  2
Gouraud
 70
     2
 71
     2
 72
     2
 73
     1
 90
        2
 40
-0.6
 41
30.0
 62
     5
 63
     7
421
 16777215
 74
     0
 91
        4
 64
     7
 65
   257
 75
     1
175
     1
 42
1.0
 92
        0
 66
     7
 43
1.0
 76
     1
 77
     6
 78
     2
 67
     7
 79
     5
170
     0
171
     0
290
     0
174
     0
 93
       13
 44
0.0
173
     0
291
     1
 45
0.0
1001
ACAD
1000
AcDbSavedByObjectVersion
1070
     0
  0
VISUALSTYLE
  5
67DB
102
{ACAD_XDICTIONARY
360
7EA8
102
}
102
{ACAD_REACTORS
330
67D7
102
}
330
67D7
100
AcDbVisualStyle
  2
GouraudWithEdges
 70
     3
 71
     2
 72
     2
 73
     1
 90
        2
 40
-0.6
 41
30.0
 62
     5
 63
     7
421
 16777215
 74
     1
 91
        4
 64
     7
 65
   257
 75
     1
175
     1
 42
1.0
 92
        0
 66
   257
 43
1.0
 76
     1
 77
     6
 78
     2
 67
     7
 79
     5
170
     0
171
     0
290
     0
174
     0
 93
       13
 44
0.0
173
     0
291
     1
 45
0.0
1001
ACAD
1000
AcDbSavedByObjectVersion
1070
     0
  0
VISUALSTYLE
  5
7A57
102
{ACAD_XDICTIONARY
360
7EC6
102
}
102
{ACAD_REACTORS
330
67D7
102
}
330
67D7
100
AcDbVisualStyle
  2
Hidden
 70
     6
 71
     1
 72
     2
 73
     2
 90
        0
 40
-0.6
 41
-30.0
 62
     5
 63
     7
421
 16777215
 74
     2
 91
        2
 64
     7
 65
   257
 75
     2
175
     1
 42
40.0
 92
        0
 66
   257
 43
1.0
 76
     1
 77
     6
 78
     2
 67
     7
 79
     3
170
     0
171
     0
290
     0
174
     0
 93
        1
 44
0.0
173
     0
291
     0
 45
0.0
1001
ACAD
1000
AcDbSavedByObjectVersion
1070
     0
  0
VISUALSTYLE
  5
7A5D
102
{ACAD_XDICTIONARY
360
7ED2
102
}
102
{ACAD_REACTORS
330
67D7
102
}
330
67D7
100
AcDbVisualStyle
  2
JitterOff
 70
    20
 71
     2
 72
     2
 73
     0
 90
        0
 40
-0.6
 41
-30.0
 62
     5
 63
     7
421
 16777215
 74
     1
 91
        4
 64
     7
 65
   257
 75
     1
175
     1
 42
1.0
 92
       10
 66
     7
 43
1.0
 76
     1
 77
     6
 78
     2
 67
     7
 79
     5
170
     0
171
     0
290
     0
174
     0
 93
        1
 44
0.0
173
     0
291
     1
 45
0.0
1001
ACAD
1000
AcDbSavedByObjectVersion
1070
     0
  0
VISUALSTYLE
  5
67E5
102
{ACAD_XDICTIONARY
360
7EBC
102
}
102
{ACAD_REACTORS
330
67D7
102
}
330
67D7
100
AcDbVisualStyle
  2
Linepattern
 70
    14
 71
     2
 72
     2
 73
     0
 90
        0
 40
-0.6
 41
-30.0
 62
     5
 63
     7
421
 16777215
 74
     1
 91
        4
 64
     7
 65
   257
 75
     7
175
     7
 42
1.0
 92
        8
 66
     7
 43
1.0
 76
     1
 77
     6
 78
     2
 67
     7
 79
     5
170
     0
171
     0
290
     0
174
     0
 93
        1
 44
0.0
173
     0
291
     1
 45
0.0
1001
ACAD
1000
AcDbSavedByObjectVersion
1070
     0
  0
VISUALSTYLE
  5
7A5E
102
{ACAD_XDICTIONARY
360
7ED4
102
}
102
{ACAD_REACTORS
330
67D7
102
}
330
67D7
100
AcDbVisualStyle
  2
OverhangOff
 70
    21
 71
     2
 72
     2
 73
     0
 90
        0
 40
-0.6
 41
-30.0
 62
     5
 63
     7
421
 16777215
 74
     1
 91
        4
 64
     7
 65
   257
 75
     1
175
     1
 42
1.0
 92
        9
 66
     7
 43
1.0
 76
     1
 77
     6
 78
     2
 67
     7
 79
     5
170
     0
171
     0
290
     0
174
     0
 93
        1
 44
0.0
173
     0
291
     1
 45
0.0
1001
ACAD
1000
AcDbSavedByObjectVersion
1070
     0
  0
VISUALSTYLE
  5
67E1
102
{ACAD_XDICTIONARY
360
7EB4
102
}
102
{ACAD_REACTORS
330
67D7
102
}
330
67D7
100
AcDbVisualStyle
  2
Realistic
 70
     8
 71
     2
 72
     2
 73
     0
 90
        0
 40
-0.6
 41
-30.0
 62
     5
 63
     7
421
 16777215
 74
     1
 91
        0
 64
     7
 65
   257
 75
     1
175
     1
 42
1.0
 92
        8
 66
     8
424
  7895160
 43
1.0
 76
     1
 77
     6
 78
     2
 67
     7
 79
     5
170
     0
171
     0
290
     0
174
     0
 93
       13
 44
0.0
173
     0
291
     0
 45
0.0
1001
ACAD
1000
AcDbSavedByObjectVersion
1070
     0
  0
VISUALSTYLE
  5
7A5C
102
{ACAD_XDICTIONARY
360
7ED0
102
}
102
{ACAD_REACTORS
330
67D7
102
}
330
67D7
100
AcDbVisualStyle
  2
Shaded
 70
    27
 71
     2
 72
     2
 73
     1
 90
        2
 40
-0.6
 41
30.0
 62
     5
 63
     7
421
 16777215
 74
     0
 91
        4
 64
     7
 65
   257
 75
     1
175
     1
 42
1.0
 92
        8
 66
   257
 43
1.0
 76
     1
 77
     6
 78
     2
 67
     8
425
  7895160
 79
     3
170
     0
171
     0
290
     0
174
     0
 93
        5
 44
0.0
173
     0
291
     0
 45
0.0
1001
ACAD
1000
AcDbSavedByObjectVersion
1070
     0
  0
VISUALSTYLE
  5
7A5B
102
{ACAD_XDICTIONARY
360
7ECE
102
}
102
{ACAD_REACTORS
330
67D7
102
}
330
67D7
100
AcDbVisualStyle
  2
Shaded with edges
 70
    26
 71
     2
 72
     2
 73
     1
 90
        2
 40
-0.6
 41
30.0
 62
     5
 63
     7
421
 16777215
 74
     1
 91
       10
 64
     7
 65
   257
 75
     2
175
     1
 42
1.0
 92
        8
 66
   257
 43
1.0
 76
     1
 77
     6
 78
     2
 67
     7
 79
     3
170
     0
171
     0
290
     0
174
     0
 93
        5
 44
0.0
173
     0
291
     0
 45
0.0
1001
ACAD
1000
AcDbSavedByObjectVersion
1070
     0
  0
VISUALSTYLE
  5
7A58
102
{ACAD_XDICTIONARY
360
7EC8
102
}
102
{ACAD_REACTORS
330
67D7
102
}
330
67D7
100
AcDbVisualStyle
  2
Shades of Gray
 70
    23
 71
     2
 72
     2
 73
     3
 90
        0
 40
-0.6
 41
-30.0
 62
     5
 63
     7
421
 16777215
 74
     2
 91
        2
 64
     7
 65
     7
 75
     1
175
     1
 42
40.0
 92
        8
 66
     7
 43
1.0
 76
     1
 77
     6
 78
     2
 67
     7
 79
     3
170
     0
171
     0
290
     0
174
     0
 93
        1
 44
0.0
173
     0
291
     0
 45
0.0
1001
ACAD
1000
AcDbSavedByObjectVersion
1070
     0
  0
VISUALSTYLE
  5
7A59
102
{ACAD_XDICTIONARY
360
7ECA
102
}
102
{ACAD_REACTORS
330
67D7
102
}
330
67D7
100
AcDbVisualStyle
  2
Sketchy
 70
    24
 71
     1
 72
     2
 73
     2
 90
        0
 40
-0.6
 41
-30.0
 62
     5
 63
     7
421
 16777215
 74
     2
 91
        2
 64
     7
 65
     7
 75
     1
175
     1
 42
40.0
 92
       11
 66
     7
 43
1.0
 76
     1
 77
     6
 78
     2
 67
     7
 79
     6
170
     0
171
     0
290
     0
174
     0
 93
        1
 44
0.0
173
     0
291
     0
 45
0.0
1001
ACAD
1000
AcDbSavedByObjectVersion
1070
     0
  0
VISUALSTYLE
  5
67E4
102
{ACAD_XDICTIONARY
360
7EBA
102
}
102
{ACAD_REACTORS
330
67D7
102
}
330
67D7
100
AcDbVisualStyle
  2
Thicken
 70
    13
 71
     2
 72
     2
 73
     0
 90
        0
 40
-0.6
 41
-30.0
 62
     5
 63
     7
421
 16777215
 74
     1
 91
        4
 64
     7
 65
   257
 75
     1
175
     1
 42
1.0
 92
       12
 66
     7
 43
1.0
 76
     1
 77
     6
 78
     2
 67
     7
 79
     5
170
     0
171
     0
290
     0
174
     0
 93
        1
 44
0.0
173
     0
291
     1
 45
0.0
1001
ACAD
1000
AcDbSavedByObjectVersion
1070
     0
  0
VISUALSTYLE
  5
7A56
102
{ACAD_XDICTIONARY
360
7EC4
102
}
102
{ACAD_REACTORS
330
67D7
102
}
330
67D7
100
AcDbVisualStyle
  2
Wireframe
 70
     5
 71
     0
 72
     2
 73
     0
 90
        0
 40
-0.6
 41
-30.0
 62
     5
 63
     7
421
 16777215
 74
     1
 91
        4
 64
     7
 65
   257
 75
     1
175
     1
 42
1.0
 92
        0
 66
   257
 43
1.0
 76
     1
 77
     6
 78
     2
 67
     7
 79
     3
170
     0
171
     0
290
     0
174
     0
 93
        1
 44
0.0
173
     0
291
     0
 45
0.0
1001
ACAD
1000
AcDbSavedByObjectVersion
1070
     0
  0
VISUALSTYLE
  5
7A5A
102
{ACAD_XDICTIONARY
360
7ECC
102
}
102
{ACAD_REACTORS
330
67D7
102
}
330
67D7
100
AcDbVisualStyle
  2
X-Ray
 70
    25
 71
     2
 72
     2
 73
     1
 90
        1
 40
0.5
 41
-30.0
 62
     5
 63
     7
421
 16777215
 74
     1
 91
        0
 64
     7
 65
   257
 75
     1
175
     1
 42
1.0
 92
        8
 66
     7
 43
1.0
 76
     1
 77
     6
 78
     2
 67
     7
 79
     3
170
     0
171
     0
290
     0
174
     0
 93
       13
 44
0.0
173
     0
291
     0
 45
0.0
1001
ACAD
1000
AcDbSavedByObjectVersion
1070
     0
  0
DICTIONARYVAR
  5
6B05
102
{ACAD_REACTORS
330
C2
102
}
330
C2
100
DictionaryVariables
280
     0
  1
1:1
  0
DICTIONARYVAR
  5
6B04
102
{ACAD_REACTORS
330
C2
102
}
330
C2
100
DictionaryVariables
280
     0
  1
STANDARD
  0
DICTIONARYVAR
  5
2347
102
{ACAD_REACTORS
330
C2
102
}
330
C2
100
DictionaryVariables
280
     0
  1
STANDARD
  0
DICTIONARYVAR
  5
7AD8
102
{ACAD_REACTORS
330
C2
102
}
330
C2
100
DictionaryVariables
280
     0
  1
Metric50
  0
DICTIONARYVAR
  5
7AD9
102
{ACAD_REACTORS
330
C2
102
}
330
C2
100
DictionaryVariables
280
     0
  1
Metric50
  0
DICTIONARYVAR
  5
C3
102
{ACAD_REACTORS
330
C2
102
}
330
C2
100
DictionaryVariables
280
     0
  1
112
  0
DICTIONARY
  5
7E9D
102
{ACAD_REACTORS
330
7E9B
102
}
330
7E9B
100
AcDbDictionary
281
     1
  0
DICTIONARY
  5
7E9C
102
{ACAD_REACTORS
330
7E9B
102
}
330
7E9B
100
AcDbDictionary
281
     1
  3
8796087813728
350
7E96
  3
8796087813744
350
7E97
  3
8796087813760
350
7E98
  3
8796087813776
350
7E99
  3
8796087813792
350
7E9A
  0
XRECORD
  5
7C16
102
{ACAD_REACTORS
330
7C14
102
}
330
7C14
100
AcDbXrecord
280
     1
330
26E2
330
6F20
  0
XRECORD
  5
5436
102
{ACAD_REACTORS
330
5434
102
}
330
5434
100
AcDbXrecord
280
     1
  1
1stFloor
  1
*F1
  1
*
  1
*
 70
     0
  1
*
  1
*
1001
ACAD
1000
( NAME== "*F1" )
  0
XRECORD
  5
5466
102
{ACAD_REACTORS
330
5434
102
}
330
5434
100
AcDbXrecord
280
     1
  1
2ndFloor
  1
*F2
  1
*
  1
*
 70
     0
  1
*
  1
*
1001
ACAD
1000
( NAME== "*F2" )
  0
XRECORD
  5
548E
102
{ACAD_REACTORS
330
5434
102
}
330
5434
100
AcDbXrecord
280
     1
  1
3D
  1
3D *
  1
*
  1
*
 70
     0
  1
*
  1
*
1001
ACAD
1000
( NAME== "3D *" )
  0
XRECORD
  5
5448
102
{ACAD_REACTORS
330
5434
102
}
330
5434
100
AcDbXrecord
280
     1
  1
a00
  1
a00*
  1
*
  1
*
 70
     0
  1
*
  1
*
1001
ACAD
1000
( NAME== "a00*" )
  0
XRECORD
  5
5468
102
{ACAD_REACTORS
330
5434
102
}
330
5434
100
AcDbXrecord
280
     1
  1
All levels
  1
F* *
  1
*
  1
*
 70
     0
  1
*
  1
*
1001
ACAD
1000
( NAME== "F* *" )
  0
XRECORD
  5
546C
102
{ACAD_REACTORS
330
5434
102
}
330
5434
100
AcDbXrecord
280
     1
  1
cd
  1
cd_*
  1
*
  1
*
 70
     0
  1
*
  1
*
1001
ACAD
1000
( NAME== "cd_*" )
  0
XRECORD
  5
549E
102
{ACAD_REACTORS
330
5434
102
}
330
5434
100
AcDbXrecord
280
     1
  1
cd-ht
  1
??_*
  1
*
  1
*
 70
     0
  1
*
  1
*
1001
ACAD
1000
( NAME== "??_*" )
  0
XRECORD
  5
546E
102
{ACAD_REACTORS
330
5434
102
}
330
5434
100
AcDbXrecord
280
     1
  1
ceiling plan
  1
*
  1
*
  1
*
 70
     0
  1
*
  1
*
1001
ACAD
1000
NAME=="*"
  0
XRECORD
  5
5486
102
{ACAD_REACTORS
330
5434
102
}
330
5434
100
AcDbXrecord
280
     1
  1
Combo
  1
*Fc
  1
*
  1
*
 70
     0
  1
*
  1
*
1001
ACAD
1000
( NAME== "*Fc" )
  0
XRECORD
  5
5472
102
{ACAD_REACTORS
330
5434
102
}
330
5434
100
AcDbXrecord
280
     1
  1
Construction
  1
Fst_*,Gnd_*
  1
*
  1
*
 70
     0
  1
*
  1
*
1001
ACAD
1000
( NAME== "Fst_*" or NAME== "Gnd_*" )
  0
XRECORD
  5
543E
102
{ACAD_REACTORS
330
5434
102
}
330
5434
100
AcDbXrecord
280
     1
  1
DASHDOT
  1
*
  1
*
  1
DASHDOT
 70
     0
  1
*
  1
*
1001
ACAD
1000
( LINETYPE== "DASHDOT" )
  0
XRECORD
  5
5458
102
{ACAD_REACTORS
330
5434
102
}
330
5434
100
AcDbXrecord
280
     1
  1
Elevations
  1
E-*
  1
*
  1
*
 70
     0
  1
*
  1
*
1001
ACAD
1000
( NAME== "E-*" )
  0
XRECORD
  5
5474
102
{ACAD_REACTORS
330
5434
102
}
330
5434
100
AcDbXrecord
280
     1
  1
f
  1
*
  1
*
  1
*
 70
    16
  1
*
  1
*
1001
ACAD
1000
VPFROZEN == "TRUE"
  0
XRECORD
  5
5478
102
{ACAD_REACTORS
330
5434
102
}
330
5434
100
AcDbXrecord
280
     1
  1
F000
  1
F000*
  1
*
  1
*
 70
     0
  1
*
  1
*
1001
ACAD
1000
( NAME== "F000*" )
  0
XRECORD
  5
5444
102
{ACAD_REACTORS
330
5434
102
}
330
5434
100
AcDbXrecord
280
     1
  1
F001
  1
F001*
  1
*
  1
*
 70
     0
  1
*
  1
*
1001
ACAD
1000
( NAME== "F001*" )
  0
XRECORD
  5
547A
102
{ACAD_REACTORS
330
5434
102
}
330
5434
100
AcDbXrecord
280
     1
  1
F002
  1
F002*
  1
*
  1
*
 70
     0
  1
*
  1
*
1001
ACAD
1000
( NAME== "F002*" )
  0
XRECORD
  5
5490
102
{ACAD_REACTORS
330
5434
102
}
330
5434
100
AcDbXrecord
280
     1
  1
F100
  1
F100*
  1
*
  1
*
 70
     0
  1
*
  1
*
1001
ACAD
1000
( NAME== "F100*" )
  0
XRECORD
  5
547E
102
{ACAD_REACTORS
330
5434
102
}
330
5434
100
AcDbXrecord
280
     1
  1
F200
  1
F200*
  1
*
  1
*
 70
     0
  1
*
  1
*
1001
ACAD
1000
( NAME== "F200*" )
  0
XRECORD
  5
544E
102
{ACAD_REACTORS
330
5434
102
}
330
5434
100
AcDbXrecord
280
     1
  1
First Floor
  1
Fst*
  1
*
  1
*
 70
     0
  1
*
  1
*
1001
ACAD
1000
( NAME== "Fst*" )
  0
XRECORD
  5
5480
102
{ACAD_REACTORS
330
5434
102
}
330
5434
100
AcDbXrecord
280
     1
  1
Fix
  1
*fix*
  1
*
  1
*
 70
     0
  1
*
  1
*
1001
ACAD
1000
( NAME== "*fix*" )
  0
XRECORD
  5
543C
102
{ACAD_REACTORS
330
5434
102
}
330
5434
100
AcDbXrecord
280
     1
  1
Floor Layers
  1
F*
  1
*
  1
*
 70
     0
  1
*
  1
*
1001
ACAD
1000
( NAME== "F*" )
  0
XRECORD
  5
5454
102
{ACAD_REACTORS
330
5434
102
}
330
5434
100
AcDbXrecord
280
     1
  1
Frez
  1
*Frez
  1
*
  1
*
 70
     0
  1
*
  1
*
1001
ACAD
1000
( NAME== "*Frez" )
  0
XRECORD
  5
5484
102
{ACAD_REACTORS
330
5434
102
}
330
5434
100
AcDbXrecord
280
     1
  1
Gndfloor
  1
*gnd*
  1
*
  1
*
 70
     0
  1
*
  1
*
1001
ACAD
1000
( NAME== "*gnd*" )
  0
XRECORD
  5
5498
102
{ACAD_REACTORS
330
5434
102
}
330
5434
100
AcDbXrecord
280
     1
  1
Ground Floor
  1
Gnd*
  1
*
  1
*
 70
     0
  1
*
  1
*
1001
ACAD
1000
( NAME== "Gnd*" )
  0
XRECORD
  5
5488
102
{ACAD_REACTORS
330
5434
102
}
330
5434
100
AcDbXrecord
280
     1
  1
Groungfloor
  1
Ground*
  1
*
  1
*
 70
     0
  1
*
  1
*
1001
ACAD
1000
( NAME== "Ground*" )
  0
XRECORD
  5
545C
102
{ACAD_REACTORS
330
5434
102
}
330
5434
100
AcDbXrecord
280
     1
  1
HB_X
  1
HB_X*
  1
*
  1
*
 70
     0
  1
*
  1
*
1001
ACAD
1000
( NAME== "HB_X*" )
  0
XRECORD
  5
548A
102
{ACAD_REACTORS
330
5434
102
}
330
5434
100
AcDbXrecord
280
     1
  1
HH
  1
*
  1
*
  1
*
 70
    80
  1
*
  1
*
1001
ACAD
1000
VPFROZEN == "TRUE" and NEWVPFROZEN == "TRUE"
  0
XRECORD
  5
544C
102
{ACAD_REACTORS
330
5434
102
}
330
5434
100
AcDbXrecord
280
     1
  1
Interiors
  1
intel_*
  1
*
  1
*
 70
     0
  1
*
  1
*
1001
ACAD
1000
( NAME== "intel_*" )
  0
XRECORD
  5
5462
102
{ACAD_REACTORS
330
5434
102
}
330
5434
100
AcDbXrecord
280
     1
  1
JAMES
  1
*
  1
*
  1
*
 70
    16
  1
*
  1
*
1001
ACAD
1000
VPFROZEN == "TRUE"
  0
XRECORD
  5
54A0
102
{ACAD_REACTORS
330
5434
102
}
330
5434
100
AcDbXrecord
280
     1
  1
KRB
  1
*KRB*
  1
*
  1
*
 70
     0
  1
*
  1
*
1001
ACAD
1000
( NAME== "*KRB*" )
  0
XRECORD
  5
5492
102
{ACAD_REACTORS
330
5434
102
}
330
5434
100
AcDbXrecord
280
     1
  1
L0-1-2-3
  1
L*
  1
*
  1
*
 70
     0
  1
*
  1
*
1001
ACAD
1000
( NAME== "L*" )
  0
XRECORD
  5
546A
102
{ACAD_REACTORS
330
5434
102
}
330
5434
100
AcDbXrecord
280
     1
  1
LAYERON
  1
*
  1
*
  1
*
 70
    12
  1
*
  1
*
1001
ACAD
1000
FROZEN == "FALSE"
  0
XRECORD
  5
5494
102
{ACAD_REACTORS
330
5434
102
}
330
5434
100
AcDbXrecord
280
     1
  1
Lower
  1
*low*
  1
*
  1
*
 70
     0
  1
*
  1
*
1001
ACAD
1000
( NAME== "*low*" )
  0
XRECORD
  5
5438
102
{ACAD_REACTORS
330
5434
102
}
330
5434
100
AcDbXrecord
280
     1
  1
n
  1
*
  1
*
  1
*
 70
    64
  1
*
  1
*
1001
ACAD
1000
NEWVPFROZEN == "TRUE"
  0
XRECORD
  5
543A
102
{ACAD_REACTORS
330
5434
102
}
330
5434
100
AcDbXrecord
280
     1
  1
on
  1
*
  1
*
  1
*
 70
    13
  1
*
  1
*
1001
ACAD
1000
OFF == "FALSE" and FROZEN == "FALSE"
  0
XRECORD
  5
5446
102
{ACAD_REACTORS
330
5434
102
}
330
5434
100
AcDbXrecord
280
     1
  1
R100
  1
R100*
  1
*
  1
*
 70
     0
  1
*
  1
*
1001
ACAD
1000
( NAME== "R100*" )
  0
XRECORD
  5
549A
102
{ACAD_REACTORS
330
5434
102
}
330
5434
100
AcDbXrecord
280
     1
  1
RC2
  1
*
  1
*
  1
*
 70
    48
  1
*
  1
*
1001
ACAD
1000
VPFROZEN == "FALSE"
  0
XRECORD
  5
5476
102
{ACAD_REACTORS
330
5434
102
}
330
5434
100
AcDbXrecord
280
     1
  1
RC_Ground
  1
*
  1
*
  1
*
 70
    60
  1
*
  1
*
1001
ACAD
1000
FROZEN == "FALSE" and VPFROZEN == "FALSE"
  0
XRECORD
  5
549C
102
{ACAD_REACTORS
330
5434
102
}
330
5434
100
AcDbXrecord
280
     1
  1
RED
  1
*
  1
6
  1
*
 70
     0
  1
*
  1
*
1001
ACAD
1000
( COLOR== "6" )
  0
XRECORD
  5
544A
102
{ACAD_REACTORS
330
5434
102
}
330
5434
100
AcDbXrecord
280
     1
  1
Roof
  1
*Rf
  1
*
  1
*
 70
     0
  1
*
  1
*
1001
ACAD
1000
( NAME== "*Rf" )
  0
XRECORD
  5
5456
102
{ACAD_REACTORS
330
5434
102
}
330
5434
100
AcDbXrecord
280
     1
  1
S000
  1
S000*
  1
*
  1
*
 70
     0
  1
*
  1
*
1001
ACAD
1000
( NAME== "S000*" )
  0
XRECORD
  5
5440
102
{ACAD_REACTORS
330
5434
102
}
330
5434
100
AcDbXrecord
280
     1
  1
Section
  1
Section*
  1
*
  1
*
 70
     0
  1
*
  1
*
1001
ACAD
1000
( NAME== "Section*" )
  0
XRECORD
  5
5482
102
{ACAD_REACTORS
330
5434
102
}
330
5434
100
AcDbXrecord
280
     1
  1
SiteOnly
  1
*S-*
  1
*
  1
*
 70
     0
  1
*
  1
*
1001
ACAD
1000
( NAME== "*S-*" )
  0
XRECORD
  5
5442
102
{ACAD_REACTORS
330
5434
102
}
330
5434
100
AcDbXrecord
280
     1
  1
t
  1
*
  1
*
  1
*
 70
     4
  1
*
  1
*
1001
ACAD
1000
FROZEN == "TRUE"
  0
XRECORD
  5
545A
102
{ACAD_REACTORS
330
5434
102
}
330
5434
100
AcDbXrecord
280
     1
  1
test
  1
*
  1
*
  1
*
 70
     1
  1
*
  1
*
1001
ACAD
1000
OFF == "FALSE"
  0
XRECORD
  5
5464
102
{ACAD_REACTORS
330
5434
102
}
330
5434
100
AcDbXrecord
280
     1
  1
THAW
  1
*
  1
*
  1
*
 70
    12
  1
*
  1
*
1001
ACAD
1000
FROZEN == "FALSE"
  0
XRECORD
  5
5450
102
{ACAD_REACTORS
330
5434
102
}
330
5434
100
AcDbXrecord
280
     1
  1
THL
  1
TP*
  1
*
  1
*
 70
     0
  1
*
  1
*
1001
ACAD
1000
( NAME== "TP*" )
  0
XRECORD
  5
548C
102
{ACAD_REACTORS
330
5434
102
}
330
5434
100
AcDbXrecord
280
     1
  1
TILEEDGE
  1
*
  1
*
  1
*
 70
     0
  1
*
  1
*
1001
ACAD
1000
NAME=="*"
  0
XRECORD
  5
5452
102
{ACAD_REACTORS
330
5434
102
}
330
5434
100
AcDbXrecord
280
     1
  1
TP
  1
TP*
  1
*
  1
*
 70
     0
  1
*
  1
*
1001
ACAD
1000
( NAME== "TP*" )
  0
XRECORD
  5
5470
102
{ACAD_REACTORS
330
5434
102
}
330
5434
100
AcDbXrecord
280
     1
  1
viewports
  1
*
  1
*
  1
*
 70
    16
  1
*
  1
*
1001
ACAD
1000
VPFROZEN == "TRUE"
  0
XRECORD
  5
545E
102
{ACAD_REACTORS
330
5434
102
}
330
5434
100
AcDbXrecord
280
     1
  1
w
  1
*w*
  1
*
  1
*
 70
     0
  1
*
  1
*
1001
ACAD
1000
( NAME== "*w*" )
  0
XRECORD
  5
5496
102
{ACAD_REACTORS
330
5434
102
}
330
5434
100
AcDbXrecord
280
     1
  1
waitakere
  1
wait*
  1
*
  1
*
 70
     0
  1
*
  1
*
1001
ACAD
1000
( NAME== "wait*" )
  0
XRECORD
  5
5460
102
{ACAD_REACTORS
330
5434
102
}
330
5434
100
AcDbXrecord
280
     1
  1
WHITE
  1
*
  1
7
  1
*
 70
     0
  1
*
  1
*
1001
ACAD
1000
( COLOR== "7" )
  0
XRECORD
  5
547C
102
{ACAD_REACTORS
330
5434
102
}
330
5434
100
AcDbXrecord
280
     1
  1
Xref
  1
X_*
  1
*
  1
*
 70
     0
  1
*
  1
*
1001
ACAD
1000
( NAME== "X_*" )
  0
XRECORD
  5
5435
102
{ACAD_REACTORS
330
5433
102
}
330
5433
100
AcDbXrecord
280
     1
  1
AcLyLayerFilter
 90
        1
300
1stFloor
301
( NAME== "*F1" )
  0
XRECORD
  5
5437
102
{ACAD_REACTORS
330
5433
102
}
330
5433
100
AcDbXrecord
280
     1
  1
AcLyLayerFilter
 90
        1
300
n
301
NEWVPFROZEN == "TRUE"
  0
XRECORD
  5
5473
102
{ACAD_REACTORS
330
5433
102
}
330
5433
100
AcDbXrecord
280
     1
  1
AcLyLayerFilter
 90
        1
300
f
301
VPFROZEN == "TRUE"
  0
XRECORD
  5
543B
102
{ACAD_REACTORS
330
5433
102
}
330
5433
100
AcDbXrecord
280
     1
  1
AcLyLayerFilter
 90
        1
300
Floor Layers
301
( NAME== "F*" )
  0
XRECORD
  5
5475
102
{ACAD_REACTORS
330
5433
102
}
330
5433
100
AcDbXrecord
280
     1
  1
AcLyLayerFilter
 90
        1
300
RC_Ground
301
FROZEN == "FALSE" and VPFROZEN == "FALSE"
  0
XRECORD
  5
543F
102
{ACAD_REACTORS
330
5433
102
}
330
5433
100
AcDbXrecord
280
     1
  1
AcLyLayerFilter
 90
        1
300
Section
301
( NAME== "Section*" )
  0
XRECORD
  5
5479
102
{ACAD_REACTORS
330
5433
102
}
330
5433
100
AcDbXrecord
280
     1
  1
AcLyLayerFilter
 90
        1
300
F002
301
( NAME== "F002*" )
  0
XRECORD
  5
5449
102
{ACAD_REACTORS
330
5433
102
}
330
5433
100
AcDbXrecord
280
     1
  1
AcLyLayerFilter
 90
        1
300
Roof
301
( NAME== "*Rf" )
  0
XRECORD
  5
5485
102
{ACAD_REACTORS
330
5433
102
}
330
5433
100
AcDbXrecord
280
     1
  1
AcLyLayerFilter
 90
        1
300
Combo
301
( NAME== "*Fc" )
  0
XRECORD
  5
5447
102
{ACAD_REACTORS
330
5433
102
}
330
5433
100
AcDbXrecord
280
     1
  1
AcLyLayerFilter
 90
        1
300
a00
301
( NAME== "a00*" )
  0
XRECORD
  5
547F
102
{ACAD_REACTORS
330
5433
102
}
330
5433
100
AcDbXrecord
280
     1
  1
AcLyLayerFilter
 90
        1
300
Fix
301
( NAME== "*fix*" )
  0
XRECORD
  5
544B
102
{ACAD_REACTORS
330
5433
102
}
330
5433
100
AcDbXrecord
280
     1
  1
AcLyLayerFilter
 90
        1
300
Interiors
301
( NAME== "intel_*" )
  0
XRECORD
  5
5481
102
{ACAD_REACTORS
330
5433
102
}
330
5433
100
AcDbXrecord
280
     1
  1
AcLyLayerFilter
 90
        1
300
SiteOnly
301
( NAME== "*S-*" )
  0
XRECORD
  5
544F
102
{ACAD_REACTORS
330
5433
102
}
330
5433
100
AcDbXrecord
280
     1
  1
AcLyLayerFilter
 90
        1
300
THL
301
( NAME== "TP*" )
  0
XRECORD
  5
5483
102
{ACAD_REACTORS
330
5433
102
}
330
5433
100
AcDbXrecord
280
     1
  1
AcLyLayerFilter
 90
        1
300
Gndfloor
301
( NAME== "*gnd*" )
  0
XRECORD
  5
5459
102
{ACAD_REACTORS
330
5433
102
}
330
5433
100
AcDbXrecord
280
     1
  1
AcLyLayerFilter
 90
        1
300
test
301
OFF == "FALSE"
  0
XRECORD
  5
548F
102
{ACAD_REACTORS
330
5433
102
}
330
5433
100
AcDbXrecord
280
     1
  1
AcLyLayerFilter
 90
        1
300
F100
301
( NAME== "F100*" )
  0
XRECORD
  5
5457
102
{ACAD_REACTORS
330
5433
102
}
330
5433
100
AcDbXrecord
280
     1
  1
AcLyLayerFilter
 90
        1
300
Elevations
301
( NAME== "E-*" )
  0
XRECORD
  5
5489
102
{ACAD_REACTORS
330
5433
102
}
330
5433
100
AcDbXrecord
280
     1
  1
AcLyLayerFilter
 90
        1
300
HH
301
VPFROZEN == "TRUE" and NEWVPFROZEN == "TRUE"
  0
XRECORD
  5
548B
102
{ACAD_REACTORS
330
5433
102
}
330
5433
100
AcDbXrecord
280
     1
  1
AcLyLayerFilter
 90
        1
300
TILEEDGE
301
NAME=="*"
  0
XRECORD
  5
545D
102
{ACAD_REACTORS
330
5433
102
}
330
5433
100
AcDbXrecord
280
     1
  1
AcLyLayerFilter
 90
        1
300
w
301
( NAME== "*w*" )
  0
XRECORD
  5
548D
102
{ACAD_REACTORS
330
5433
102
}
330
5433
100
AcDbXrecord
280
     1
  1
AcLyLayerFilter
 90
        1
300
3D
301
( NAME== "3D *" )
  0
XRECORD
  5
5467
102
{ACAD_REACTORS
330
5433
102
}
330
5433
100
AcDbXrecord
280
     1
  1
AcLyLayerFilter
 90
        1
300
All levels
301
( NAME== "F* *" )
  0
XRECORD
  5
5497
102
{ACAD_REACTORS
330
5433
102
}
330
5433
100
AcDbXrecord
280
     1
  1
AcLyLayerFilter
 90
        1
300
Ground Floor
301
( NAME== "Gnd*" )
  0
XRECORD
  5
5465
102
{ACAD_REACTORS
330
5433
102
}
330
5433
100
AcDbXrecord
280
     1
  1
AcLyLayerFilter
 90
        1
300
2ndFloor
301
( NAME== "*F2" )
  0
XRECORD
  5
5493
102
{ACAD_REACTORS
330
5433
102
}
330
5433
100
AcDbXrecord
280
     1
  1
AcLyLayerFilter
 90
        1
300
Lower
301
( NAME== "*low*" )
  0
XRECORD
  5
5495
102
{ACAD_REACTORS
330
5433
102
}
330
5433
100
AcDbXrecord
280
     1
  1
AcLyLayerFilter
 90
        1
300
waitakere
301
( NAME== "wait*" )
  0
XRECORD
  5
546B
102
{ACAD_REACTORS
330
5433
102
}
330
5433
100
AcDbXrecord
280
     1
  1
AcLyLayerFilter
 90
        1
300
cd
301
( NAME== "cd_*" )
  0
XRECORD
  5
543D
102
{ACAD_REACTORS
330
5433
102
}
330
5433
100
AcDbXrecord
280
     1
  1
AcLyLayerFilter
 90
        1
300
DASHDOT
301
( LINETYPE== "DASHDOT" )
  0
XRECORD
  5
549F
102
{ACAD_REACTORS
330
5433
102
}
330
5433
100
AcDbXrecord
280
     1
  1
AcLyLayerFilter
 90
        1
300
KRB
301
( NAME== "*KRB*" )
  0
XRECORD
  5
5471
102
{ACAD_REACTORS
330
5433
102
}
330
5433
100
AcDbXrecord
280
     1
  1
AcLyLayerFilter
 90
        1
300
Construction
301
( NAME== "Gnd_*" or NAME== "Fst_*" )
  0
XRECORD
  5
549B
102
{ACAD_REACTORS
330
5433
102
}
330
5433
100
AcDbXrecord
280
     1
  1
AcLyLayerFilter
 90
        1
300
RED
301
( COLOR== "6" )
  0
XRECORD
  5
549D
102
{ACAD_REACTORS
330
5433
102
}
330
5433
100
AcDbXrecord
280
     1
  1
AcLyLayerFilter
 90
        1
300
cd-ht
301
( NAME== "??_*" )
  0
XRECORD
  5
5477
102
{ACAD_REACTORS
330
5433
102
}
330
5433
100
AcDbXrecord
280
     1
  1
AcLyLayerFilter
 90
        1
300
F000
301
( NAME== "F000*" )
  0
XRECORD
  5
544D
102
{ACAD_REACTORS
330
5433
102
}
330
5433
100
AcDbXrecord
280
     1
  1
AcLyLayerFilter
 90
        1
300
First Floor
301
( NAME== "Fst*" )
  0
XRECORD
  5
5445
102
{ACAD_REACTORS
330
5433
102
}
330
5433
100
AcDbXrecord
280
     1
  1
AcLyLayerFilter
 90
        1
300
R100
301
( NAME== "R100*" )
  0
XRECORD
  5
547D
102
{ACAD_REACTORS
330
5433
102
}
330
5433
100
AcDbXrecord
280
     1
  1
AcLyLayerFilter
 90
        1
300
F200
301
( NAME== "F200*" )
  0
XRECORD
  5
5441
102
{ACAD_REACTORS
330
5433
102
}
330
5433
100
AcDbXrecord
280
     1
  1
AcLyLayerFilter
 90
        1
300
t
301
FROZEN == "TRUE"
  0
XRECORD
  5
5443
102
{ACAD_REACTORS
330
5433
102
}
330
5433
100
AcDbXrecord
280
     1
  1
AcLyLayerFilter
 90
        1
300
F001
301
( NAME== "F001*" )
  0
XRECORD
  5
545B
102
{ACAD_REACTORS
330
5433
102
}
330
5433
100
AcDbXrecord
280
     1
  1
AcLyLayerFilter
 90
        1
300
HB_X
301
( NAME== "HB_X*" )
  0
XRECORD
  5
5455
102
{ACAD_REACTORS
330
5433
102
}
330
5433
100
AcDbXrecord
280
     1
  1
AcLyLayerFilter
 90
        1
300
S000
301
( NAME== "S000*" )
  0
XRECORD
  5
5487
102
{ACAD_REACTORS
330
5433
102
}
330
5433
100
AcDbXrecord
280
     1
  1
AcLyLayerFilter
 90
        1
300
Groungfloor
301
( NAME== "Ground*" )
  0
XRECORD
  5
5451
102
{ACAD_REACTORS
330
5433
102
}
330
5433
100
AcDbXrecord
280
     1
  1
AcLyLayerFilter
 90
        1
300
TP
301
( NAME== "TP*" )
  0
XRECORD
  5
5453
102
{ACAD_REACTORS
330
5433
102
}
330
5433
100
AcDbXrecord
280
     1
  1
AcLyLayerFilter
 90
        1
300
Frez
301
( NAME== "*Frez" )
  0
XRECORD
  5
5469
102
{ACAD_REACTORS
330
5433
102
}
330
5433
100
AcDbXrecord
280
     1
  1
AcLyLayerFilter
 90
        1
300
LAYERON
301
FROZEN == "FALSE"
  0
XRECORD
  5
5463
102
{ACAD_REACTORS
330
5433
102
}
330
5433
100
AcDbXrecord
280
     1
  1
AcLyLayerFilter
 90
        1
300
THAW
301
FROZEN == "FALSE"
  0
XRECORD
  5
5491
102
{ACAD_REACTORS
330
5433
102
}
330
5433
100
AcDbXrecord
280
     1
  1
AcLyLayerFilter
 90
        1
300
L0-1-2-3
301
( NAME== "L*" )
  0
XRECORD
  5
545F
102
{ACAD_REACTORS
330
5433
102
}
330
5433
100
AcDbXrecord
280
     1
  1
AcLyLayerFilter
 90
        1
300
WHITE
301
( COLOR== "7" )
  0
XRECORD
  5
5461
102
{ACAD_REACTORS
330
5433
102
}
330
5433
100
AcDbXrecord
280
     1
  1
AcLyLayerFilter
 90
        1
300
JAMES
301
VPFROZEN == "TRUE"
  0
XRECORD
  5
546F
102
{ACAD_REACTORS
330
5433
102
}
330
5433
100
AcDbXrecord
280
     1
  1
AcLyLayerFilter
 90
        1
300
viewports
301
VPFROZEN == "TRUE"
  0
XRECORD
  5
5499
102
{ACAD_REACTORS
330
5433
102
}
330
5433
100
AcDbXrecord
280
     1
  1
AcLyLayerFilter
 90
        1
300
RC2
301
VPFROZEN == "FALSE"
  0
XRECORD
  5
546D
102
{ACAD_REACTORS
330
5433
102
}
330
5433
100
AcDbXrecord
280
     1
  1
AcLyLayerFilter
 90
        1
300
ceiling plan
301
NAME=="*"
  0
XRECORD
  5
5439
102
{ACAD_REACTORS
330
5433
102
}
330
5433
100
AcDbXrecord
280
     1
  1
AcLyLayerFilter
 90
        1
300
on
301
OFF == "FALSE" and FROZEN == "FALSE"
  0
XRECORD
  5
547B
102
{ACAD_REACTORS
330
5433
102
}
330
5433
100
AcDbXrecord
280
     1
  1
AcLyLayerFilter
 90
        1
300
Xref
301
( NAME== "X_*" )
  0
DICTIONARY
  5
6F42
330
6F41
100
AcDbDictionary
280
     1
281
     1
  3
ADSK_XREC_LAYOUTTHUMBNAIL
360
6F43
  0
DICTIONARY
  5
67C8
330
67C7
100
AcDbDictionary
280
     1
281
     1
  3
ACAD_XREC_ROUNDTRIP
360
7EA0
  3
BUMPTILE
360
67CA
  3
DIFFUSETILE
360
67C9
  3
OPACITYTILE
360
67CD
  3
REFLECTIONTILE
360
67CC
  3
REFRACTIONTILE
360
67CE
  3
SPECULARTILE
360
67CB
  0
DICTIONARY
  5
67C0
330
67BF
100
AcDbDictionary
280
     1
281
     1
  3
ACAD_XREC_ROUNDTRIP
360
7E9F
  3
BUMPTILE
360
67C2
  3
DIFFUSETILE
360
67C1
  3
OPACITYTILE
360
67C5
  3
REFLECTIONTILE
360
67C4
  3
REFRACTIONTILE
360
67C6
  3
SPECULARTILE
360
67C3
  0
DICTIONARY
  5
67D0
330
67CF
100
AcDbDictionary
280
     1
281
     1
  3
ACAD_XREC_ROUNDTRIP
360
7EA1
  3
BUMPTILE
360
67D2
  3
DIFFUSETILE
360
67D1
  3
OPACITYTILE
360
67D5
  3
REFLECTIONTILE
360
67D4
  3
REFRACTIONTILE
360
67D6
  3
SPECULARTILE
360
67D3
  0
DICTIONARY
  5
6ABA
330
1AA3
100
AcDbDictionary
280
     1
281
     1
  3
ACAD_ROUNDTRIP_2008_TABLESTYLE_CELLSTYLEMAP
360
7E90
  3
ACAD_XREC_ROUNDTRIP
360
7E9E
  0
DICTIONARY
  5
7EAC
330
67DD
100
AcDbDictionary
280
     1
281
     1
  3
ACAD_XREC_ROUNDTRIP
360
7EAD
  0
DICTIONARY
  5
7EB0
330
67DF
100
AcDbDictionary
280
     1
281
     1
  3
ACAD_XREC_ROUNDTRIP
360
7EB1
  0
DICTIONARY
  5
7EAE
330
67DE
100
AcDbDictionary
280
     1
281
     1
  3
ACAD_XREC_ROUNDTRIP
360
7EAF
  0
DICTIONARY
  5
7EAA
330
67DC
100
AcDbDictionary
280
     1
281
     1
  3
ACAD_XREC_ROUNDTRIP
360
7EAB
  0
DICTIONARY
  5
7EB8
330
67E3
100
AcDbDictionary
280
     1
281
     1
  3
ACAD_XREC_ROUNDTRIP
360
7EB9
  0
DICTIONARY
  5
7EC0
330
67E7
100
AcDbDictionary
280
     1
281
     1
  3
ACAD_XREC_ROUNDTRIP
360
7EC1
  0
DICTIONARY
  5
7EB2
330
67E0
100
AcDbDictionary
280
     1
281
     1
  3
ACAD_XREC_ROUNDTRIP
360
7EB3
  0
DICTIONARY
  5
7EB6
330
67E2
100
AcDbDictionary
280
     1
281
     1
  3
ACAD_XREC_ROUNDTRIP
360
7EB7
  0
DICTIONARY
  5
7ED6
330
7A5F
100
AcDbDictionary
280
     1
281
     1
  3
ACAD_XREC_ROUNDTRIP
360
7ED7
  0
DICTIONARY
  5
7EBE
330
67E6
100
AcDbDictionary
280
     1
281
     1
  3
ACAD_XREC_ROUNDTRIP
360
7EBF
  0
DICTIONARY
  5
7EA2
330
67D8
100
AcDbDictionary
280
     1
281
     1
  3
ACAD_XREC_ROUNDTRIP
360
7EA3
  0
DICTIONARY
  5
7EA4
330
67D9
100
AcDbDictionary
280
     1
281
     1
  3
ACAD_XREC_ROUNDTRIP
360
7EA5
  0
DICTIONARY
  5
7EA6
330
67DA
100
AcDbDictionary
280
     1
281
     1
  3
ACAD_XREC_ROUNDTRIP
360
7EA7
  0
DICTIONARY
  5
7EA8
330
67DB
100
AcDbDictionary
280
     1
281
     1
  3
ACAD_XREC_ROUNDTRIP
360
7EA9
  0
DICTIONARY
  5
7EC6
330
7A57
100
AcDbDictionary
280
     1
281
     1
  3
ACAD_XREC_ROUNDTRIP
360
7EC7
  0
DICTIONARY
  5
7ED2
330
7A5D
100
AcDbDictionary
280
     1
281
     1
  3
ACAD_XREC_ROUNDTRIP
360
7ED3
  0
DICTIONARY
  5
7EBC
330
67E5
100
AcDbDictionary
280
     1
281
     1
  3
ACAD_XREC_ROUNDTRIP
360
7EBD
  0
DICTIONARY
  5
7ED4
330
7A5E
100
AcDbDictionary
280
     1
281
     1
  3
ACAD_XREC_ROUNDTRIP
360
7ED5
  0
DICTIONARY
  5
7EB4
330
67E1
100
AcDbDictionary
280
     1
281
     1
  3
ACAD_XREC_ROUNDTRIP
360
7EB5
  0
DICTIONARY
  5
7ED0
330
7A5C
100
AcDbDictionary
280
     1
281
     1
  3
ACAD_XREC_ROUNDTRIP
360
7ED1
  0
DICTIONARY
  5
7ECE
330
7A5B
100
AcDbDictionary
280
     1
281
     1
  3
ACAD_XREC_ROUNDTRIP
360
7ECF
  0
DICTIONARY
  5
7EC8
330
7A58
100
AcDbDictionary
280
     1
281
     1
  3
ACAD_XREC_ROUNDTRIP
360
7EC9
  0
DICTIONARY
  5
7ECA
330
7A59
100
AcDbDictionary
280
     1
281
     1
  3
ACAD_XREC_ROUNDTRIP
360
7ECB
  0
DICTIONARY
  5
7EBA
330
67E4
100
AcDbDictionary
280
     1
281
     1
  3
ACAD_XREC_ROUNDTRIP
360
7EBB
  0
DICTIONARY
  5
7EC4
330
7A56
100
AcDbDictionary
280
     1
281
     1
  3
ACAD_XREC_ROUNDTRIP
360
7EC5
  0
DICTIONARY
  5
7ECC
330
7A5A
100
AcDbDictionary
280
     1
281
     1
  3
ACAD_XREC_ROUNDTRIP
360
7ECD
  0
XRECORD
  5
7E96
102
{ACAD_REACTORS
330
7E9C
102
}
330
7E9C
100
AcDbXrecord
280
     1
  1
AcDb_Thumbnail_Schema
102
{ATTRRECORD
341
7E97
  2
AcDbDs::TreatedAsObjectData
280
     1
291
     1
102
ATTRRECORD}
102
{ATTRRECORD
341
7E98
  2
AcDbDs::Legacy
280
     1
291
     1
102
ATTRRECORD}
  2
AcDbDs::ID
280
    10
 91
        8
102
{ATTRRECORD
341
7E99
  2
AcDs:Indexable
280
     1
291
     1
102
ATTRRECORD}
102
{ATTRRECORD
341
7E9A
  2
AcDbDs::HandleAttribute
280
     7
282
     1
102
ATTRRECORD}
  2
Thumbnail_Data
280
    15
 91
        0
  0
XRECORD
  5
7E97
102
{ACAD_REACTORS
330
7E9C
102
}
330
7E9C
100
AcDbXrecord
280
     1
  1
AcDbDs::TreatedAsObjectDataSchema
  2
AcDbDs::TreatedAsObjectData
280
     1
 91
        0
  0
XRECORD
  5
7E98
102
{ACAD_REACTORS
330
7E9C
102
}
330
7E9C
100
AcDbXrecord
280
     1
  1
AcDbDs::LegacySchema
  2
AcDbDs::Legacy
280
     1
 91
        0
  0
XRECORD
  5
7E99
102
{ACAD_REACTORS
330
7E9C
102
}
330
7E9C
100
AcDbXrecord
280
     1
  1
AcDbDs::IndexedPropertySchema
  2
AcDs:Indexable
280
     1
 91
        0
  0
XRECORD
  5
7E9A
102
{ACAD_REACTORS
330
7E9C
102
}
330
7E9C
100
AcDbXrecord
280
     1
  1
AcDbDs::HandleAttributeSchema
  2
AcDbDs::HandleAttribute
280
     7
 91
        1
284
     1
  0
XRECORD
  5
6F43
102
{ACAD_REACTORS
330
6F42
102
}
330
6F42
100
AcDbXrecord
280
     1
310
28000000680000008C0000000100080000000000E0380000010000000100000000010000000000004C00390000000052C8C8C8FF000000FF000000FF000000FF000000FF000000FF000000FF000000FF000000FF330000FF660000FF990000FFCC0000FFFF0000FF003300FF333300FF663300FF993300FFCC3300FFFF3300
310
FF006600FF336600FF666600FF996600FFCC6600FFFF6600FF009900FF339900FF669900FF999900FFCC9900FFFF9900FF00CC00FF33CC00FF66CC00FF99CC00FFCCCC00FFFFCC00FF00FF00FF33FF00FF66FF00FF99FF00FFCCFF00FFFFFF00FF000033FF330033FF660033FF990033FFCC0033FFFF0033FF003333FF3333
310
33FF663333FF993333FFCC3333FFFF3333FF006633FF336633FF666633FF996633FFCC6633FFFF6633FF009933FF339933FF669933FF999933FFCC9933FFFF9933FF00CC33FF33CC33FF66CC33FF99CC33FFCCCC33FFFFCC33FF00FF33FF33FF33FF66FF33FF99FF33FFCCFF33FFFFFF33FF000066FF330066FF660066FF99
310
0066FFCC0066FFFF0066FF003366FF333366FF663366FF993366FFCC3366FFFF3366FF006666FF336666FF666666FF996666FFCC6666FFFF6666FF009966FF339966FF669966FF999966FFCC9966FFFF9966FF00CC66FF33CC66FF66CC66FF99CC66FFCCCC66FFFFCC66FF00FF66FF33FF66FF66FF66FF99FF66FFCCFF66FF
310
FFFF66FF000099FF330099FF660099FF990099FFCC0099FFFF0099FF003399FF333399FF663399FF993399FFCC3399FFFF3399FF006699FF336699FF666699FF996699FFCC6699FFFF6699FF009999FF339999FF669999FF999999FFCC9999FFFF9999FF00CC99FF33CC99FF66CC99FF99CC99FFCCCC99FFFFCC99FF00FF99
310
FF33FF99FF66FF99FF99FF99FFCCFF99FFFFFF99FF0000CCFF3300CCFF6600CCFF9900CCFFCC00CCFFFF00CCFF0033CCFF3333CCFF6633CCFF9933CCFFCC33CCFFFF33CCFF0066CCFF3366CCFF6666CCFF9966CCFFCC66CCFFFF66CCFF0099CCFF3399CCFF6699CCFF9999CCFFCC99CCFFFF99CCFF00CCCCFF33CCCCFF66CC
310
CCFF99CCCCFFCCCCCCFFFFCCCCFF00FFCCFF33FFCCFF66FFCCFF99FFCCFFCCFFCCFFFFFFCCFF0000FFFF3300FFFF6600FFFF9900FFFFCC00FFFFFF00FFFF0033FFFF3333FFFF6633FFFF9933FFFFCC33FFFFFF33FFFF0066FFFF3366FFFF6666FFFF9966FFFFCC66FFFFFF66FFFF0099FFFF3399FFFF6699FFFF9999FFFFCC
310
99FFFFFF99FFFF00CCFFFF33CCFFFF66CCFFFF99CCFFFFCCCCFFFFFFCCFFFF00FFFFFF33FFFFFF66FFFFFF99FFFFFFCCFFFFFFFFFFFFFF000000FF0D0D0DFF1A1A1AFF282828FF353535FF434343FF505050FF5D5D5DFF6B6B6BFF787878FF868686FF939393FFA1A1A1FFAEAEAEFFBBBBBBFFC9C9C9FFD6D6D6FFE4E4E4FF
310
F1F1F1FFFFFFFFFF000000FF000000FF000000FF000000FF000000FF000000FF000000FF000000FF000000FF000000FFE1F5F5F5F5F5F5F5F5F5F5F5F5F5F5F5F5F5F5F5F5F5F5F5F5F5F5F5F5F5F5F5F5F5F5F5F5F5F5F5F5F5F5F5F5F5F5F5F5F5F5F5F5F5F5F5F5F5F5F5F5F5F5F5F5F5F5F5F5F5F5F5F5F5F5F5F5F5F5
310
F5F5F5F5F5F5F5F5F5F5F5F5F5F5F5F5F5F5F5000000000000E1F500000000000000000000000000000000000000000000000000000000000000000000000000000000000000000000000000000000000000000000000000000000000000000000000000000000000000000000000000000000000000000000000000000000
310
0000E1F5F5F5F5F5F5F5F5F5000000000000000000F5F5F5F5F5F5F5F5F5F5F5F5F5F5F50000000000000000F5F5F5F5F5F5F5F5F5F5F5F5F5F5F5F50000000000000000F5F5F5F5F5F5F5F5F5F5F5F5F5F5F5000000000000000000F5F5F5F5F5F5F5F5000000000000E1F5F5000000000000000000000000000000000000
310
00000000000000000000000000000000000000000000000000000000000000000000000000000000000000000000000000000000000000000000000000000000000000000000000000000000F5000000000000E1F5F50000000000000000000000000000000000000000000000000000000000000000000000000000000000
310
0000000000000000000000000000000000000000000000000000000000000000000000000000000000000000000000000000000000F5000000000000E1F5F50000F5F5F5F5F5F5F5F5F5F5F5F5F5F5F5F5F5F5F5F5F5F5F5F5F5F5F5F5F5F5F5F5F5F5F5F5F5F5F5F5F5F5F5F5F5F5F5F5F5F5F5F5F5F5F5F5F5F5F5F5F5F5
310
F5F5F5F5F5F5F5F5F5F5F5F5F5F5F5F5F5F5F5F5F5F5F5F5F5F5F5F5F500F5000000000000E1F5F50000F5F5F5F5F5F5F5F5F5F5F5F5F5F5F5F5F5F5F5F5F5F5F5F5F5F5F5F5F5F5F5F5F5F5F5F5F5F5F5F5F5F5F5F5F5F5F5F5F5F5F5F5F5F5F5F5F5F5F5F5F5F5F5F5F5F5F5F5F5F5F5F5F5F5F5F5F5F5F5F5F5F5F5F5F5
310
F5F5F5F5F5F500F5000000000000E1F5F50000F5F50000000000000000000000000000000000000000000000000000F5F5000000000000F5F5F5F5F5F5F5F5F5F5F5F5F5F5F5F5F5F5F5F5F5F5F5F5F5F5F5F5F5F5F5F5F5F5F5F5F5F5F5F5F5F5F500000000000000000000F5F500F5000000000000E1F5F50000F5F50000
310
000000000000000000000000000000000000000000000000F5F5F5F5F5F5F5F5F5F5F5F5F5F5F5F5F5F5F5F5F5F5F5F5F5F5F5F5F5F5F5F5F5F5F5F5F5F5F5F5F5F5F5F5F5F5F5F5F5F5F5F5F5F5F5F5F5F5F5F5F5F5F500F5000000000000E1F5F50000F5F500000000000000000000000000000000000000000000000000
310
00F5F5F5F5F5F5F5F5F5F5F5F5F5F5F5F5F5F5F5F5F5F5F5F5F5F5F5F5F5F5F5F5F5F5F5F5F5F5F5F5F5F5F5F5F5F5F5F5F5F5F5F5F5F5F5F5F5F5F5F5F5F5F500F5000000000000E1F5F50000F5F5F5F5F5F5F5F5F5F5F5F5F5F5F5F5F5F5F5F5F5F5F5F5F5F5F500F5F5F5F500F5F5F5F5F5F5F5F5F50000000000F5F5F5
310
F5F5F50000F5F5F5F50000000000000000F5F5F5F5F5F5F5F500F5F5F5F5F5F5F5F5F5F5000000F5F500F5000000000000E1F5000000F5F5F5F5F5F5F5F5F5F5F5F5F5F5F5F5F5F5F5F5F5F5F5F5F5F5F500F5F5000000F5F5F5F5F5F5F5F5F50000000000F5F5000000000000F5F5F5F50000000000000000F5F500000000
310
000000F5F5F5F5F5F5F5F5F5F5000000F5F50000000000000000E1F5000000F5F50000000000000000000000000000000000000000000000000000F5F5F5F5F5F5F5F5F5F5F5F5F5F5F5F5F5F5F5F5F5F5F5F5F5F5F5F5F5F5F5F5F5F5F5F5F5F5F5F5F5F5F5F5F5F5F5F5F5F5F5F5F5F5F5F5F5F5F5F5F5F5F50000000000
310
000000E1F5000000F5F5F5F5F5F5F5F5F5F5F5F5F5F5F5F5F5F5F5F5F5F5F5F5F5F5F5F5F5F5F5F5F5F5F5F5F5F5F5F5F5F5F5F5F5F5F5F5F5F5F5F5F5F5F5F5F5F5F5F5F5F5F5F5F5F5F5F5F5F5F5F5F5F5F5F5F5F5F5F5F5F5F5F5F5F5F5F5F5F5F50000000000000000E1F5000000F5F5F5F5F5F5F5F5F5F5F5F5F5F5F5
310
F5F5F5F5F5F5F5F5F5F5F5F5F5F5F5000000000000F5F5F5F5F5F5F5F5F5F5F5F5F5F5F5F5F5F5F5F5F5F5F5F5F5F5F5F5F5F50000000000000000000000000000000000000000000000F5F50000000000000000E1F5000000F5F5AFBFE1F4C4F4E1BFF4E1E1F4E1C5F4C59AE1C5F4E1E1F4C5F4E1F5F5000000000000F5F5
310
F5F5F5F5F5F5F5F5F5F5F5F5F5F5F5F5F5F5F5F5F5F5F5F5F5F5F5F50000000000000000000000000000000000000000000000F5F50000000000000000E1F5000000F5F5E1F4A1E1BFE1F4A1E1E1C4E1E1E1F4C5E1E1E1F4C5BFF4C5E1F4F5F5F5F500000000F5F5F5F5F5F5F5F5F5F5F5F5F5F5F5F5F5F5F5F5F5F5F5F5F5
310
F5F5F5F5F50000000000000000000000000000000000000000000000F5F50000000000000000E1F5000000F5F5F4C5D39AC59AC59BC49BC59BC49BC49BC49BC59AC59AE1A1BEA1F5F5F5F500000000000000000000000000000000000000000000000000000000000000000000000000000000000000000000000000000000
310
0000000000F5F50000000000000000E1F5000000F5F5E19AC5C4BFA1C4BFC59AC5C4BFA1C4BFC59AC5C4BFA1C4BFC59AF5F50000000000000000000000000000000000000000000000000000000000000000000000000000000000000000000000000000000000000000000000F5F50000000000000000E1F5000000F5F5F5
310
F5F5F5F5F5F5F5F5F5F5F5F5F5F5F5F5F5F5F5F5F5F5F5F5F5F5F5F5F5F5F5F5F5F5F5F5F5F5F5F5F5F5F5F5F5F5F5F5F5F5F5F5F5F5F5F5F5F5F5F5F5F5F5F5F5F5F5F5F5F5F5F5F5F5F5F5F5F5F5F5F5F5F5F5F5F5F5F50000000000000000E1F5000000F5F5F5F5F5F5F5F5F5F5F5F5F5F5F5F5F5F5F5F5F5F5F5F5F5F5
310
F5F5F5F5F5F5F5F5F5F5F5F5F5F5F5F5F5F5F5F5F5F52F2F2F2F2F2F2F2F2F2F2F2F2F2F2F2F2F2F2F2F2F2F2F2F2F2F2F2F2F2F2F2F2F2F2F2F2F2F2F2FF5F5F50000000000000000E1F5F50000F5F5000000000000000000000000000000000000000000000000000000000000000000000000000000000000000000002F
310
F5F5F5F5F5F5F5F5F5F5F5F5F5F5F5F5F5F5F5F5F5F5F5F5F5F5F5F5F5F5F5F5F5F5F5F5F52F2F00F5F500F5000000000000E1F5F50000F5F5000000000000000000000000000000000000000000000000000000000000000000000000000000000000000000002FF5F5F5F5F5F5F5F5F5F5F5F5F5F5F5F5F5F5F5F5F5F5F5
310
F5F5F5F5F5F5F5F5F5F5F5F5F5F52F2F00F5F500F5000000000000E1F5F50000F5F5000000000000000000000000000000000000000000000000000000000000000000000000000000000000000000002F2F2F2F2F2F2F2F2F2F2F2F2F2F2F2F2F2F2F2F2F2F2F2F2F2F2F2F2F2F2F2F2F2F2F2F2F2F2F2F00F5F500F50000
310
00000000E1F5F50000F5F5000000000000000000000000000000000000000000000000000000000000000000000000000000000000000000000000000000000000000000000000000000000000000000000000000000000000000000000000F50000F5F500F5000000000000E1F5F50000F5F5000000000000000000000000
310
000000000000000000000000000000000000000000000000000000000000000000000000000000000000000000000000000000000000000000000000000000000000000000000000F50000F5F500F5000000000000E1F5F50000F5F50000000000000000000000000000000000000000000000000000000000000000000000
310
00000000000000000000000000000000000000000000000000000000000000000000000000000000000000000000000000F50000F5F500F5000000000000E1F5F50000F5F500000000000000000000000000000000000000000000000000000000000000000000000000000000000000000000000000000000000000000000
310
0000000000000000000000000000000000000000000000000000F50000F5F500F5000000000000E1F5F50000F5F5000000000000000000000000000000000000000000000000000000000000000000000000000000000000000000000000000000000000000000000000000000000000000000000000000000000000000000
310
000000F50000F5F500F5000000000000E1F5F50000F5F5000000000000000000000000000000000000000000000000000000000000000000000000000000000000000000000000000000000000000000000000000000000000000000000000000000000000000000000000F50000F5F500F5000000000000E1F5F50000F5F5
310
000000000000000000000000000000000000000000000000000000000000000000000000000000000000000000000000000000000000000000000000000000000000000000000000000000000000000000000000F50000F5F500F5000000000000E1F5F50000F5F50000000000000000000000000000000000000000000000
310
00000000000000000000000000000000000000000000000000000000000000000000000000000000000000000000000000000000000000000000000000F50000F5F500F5000000000000E1F5F50000F5F500000000000000000000000000000000000000000000000000000000000000000000000000000000000000000000
310
0000000000000000000000000000000000000000000000000000000000000000000000000000F50000F5F500F5000000000000E1F5F50000F5F5000000000000000000000000000000000000000000000000000000000000000000000000000000000000000000000000000000000000000000000000000000000000000000
310
000000000000000000000000000000F50000F5F500F5000000000000E1F5F50000F5F5000000000000000000000000000000000000000000000000000000000000000000000000000000000000000000000000000000000000000000000000000000000000000000000000000000000000000000000000F50000F5F500F500
310
0000000000E1F5F50000F5F5000000000000000000000000000000000000000000000000000000000000000000000000000000000000000000000000000000000000000000000000000000000000000000000000000000000000000000000000F50000F5F500F5000000000000E1F5F50000F5F50000000000000000000000
310
00000000000000000000000000000000000000000000000000000000000000000000000000000000000000000000000000000000000000000000000000000000000000000000000000F50000F5F500F5000000000000E1F5F50000F5F500000000000000000000000000000000000000000000000000000000000000000000
310
0000000000000000000000000000000000000000000000000000000000000000000000000000000000000000000000000000F50000F5F500F5000000000000E1F5000000F5F5000000000000000000000000000000000000000000000000000000000000000000000000000000000000000000000000000000000000000000
310
000000000000000000000000000000000000000000000000000000F50000F5F50000000000000000E1F5000000F5F50000000000000000000000000000000000000000000000000000000000000000000000000000000000000000000000000000000000000000000000000000000000000000000000000000000000000000
310
00000000F50000F5F50000000000000000E1F5000000F5F5000000000000000000000000000000000000000000000000000000000000000000000000000000000000000000000000000000000000000000000000000000000000000000000000000000000000000000000000F50000F5F50000000000000000E1F5000000F5
310
F5000000000000000000000000000000000000000000000000000000000000000000000000000000000000000000000000000000000000000000000000000000000000000000000000000000000000000000000000F50000F5F50000000000000000E1F5000000F5F500000000000000000000000000000000000000000000
310
0000000000000000000000000000000000000000000000000000000000000000000000000000000000000000000000000000000000000000000000000000F50000F5F50000000000000000E1F5000000F5F5000000000000000000000000000000000000000000000000000000000000000000000000000000000000000000
310
000000000000000000000000000000000000000000000000000000000000000000000000000000F50000F5F50000000000000000E1F5000000F5F50000000000F5F5F5F5F5F5F5F5F5F5F500000000000000000000000000000000000000000000000000000000000000000000000000000000000000000000000000000000
310
00000000000000000000000000000000F50000F5F50000000000000000E1F5000000F5F50000000000F5F5F5F5F5F5F5F5F5F5F50000000000000000000000000000000000000000000000000000000000000000000000000000000000000000000000000000000000000000000000000000000000000000F50000F5F50000
310
000000000000E1F5000000F5F50000000000F5F5F5F5F5F5F5F5F5F5F5F5F5F5F5F5F5F5F5F5F5F5F5F5F5F5F5F5F5F5F5F50000000000000000000000000000000000000000000000000000000000000000000000000000000000000000000000F50000F5F50000000000000000E1F5000000F5F500000000000000000000
310
00000000000000002D000000000000000000000000000000000000F5F5000000000000000000000000000000000000000000000000000000000000000000000000000000000000000000F50000F5F50000000000000000E1F5F50000F5F50000000000F5F5F5F5F5F5F5F5F5F5F5F5F5F5F5F5F5F5F5F5F5F5F5F5F5F5F5DC
310
DC00DCDCDC00F5DCDC00DC00DCDCDC00DCDCDC00DCDCDC00DCDC00DCDC00000000000000000000000000000000000000000000F50000F5F500F5000000000000E1F5F50000F5F50000000000000000000000000000000000002DDC00DCDCDC00DCDCDC00DCDCDC00DCDCDC00DCDCDCF5DCDC00DC00DCDCDC00DCDCDC00DCDC
310
DC00DCDCDC00DC000000000000000000000000000000000000000000F50000F5F500F5000000000000E1F5F50000F5F50000000000000000000000000000000000002D00DCDCDC00DC00DC00DC00DC00DC00DC00DC00DCDCDCF5DCDC00DCDCDC00DC00DC00DC00DC00DC00DC00DC0000000000000000000000000000000000
310
0000000000F50000F5F500F5000000000000E1F5F50000F5F50000000000000000000000000000000000002DDCDCDCDCDC00DC00DC00DC00DC00DC00DC00DC00DC00DCF5DCDCDCDCDCDCDCDC00DC00DC00DC00DC00DC00DC000000000000000000000000000000000000000000F50000F5F500F5000000000000E1F5F50000
310
F5F50000000000000000000000000000000000002DDCDC00DC00DC00DC00DC00DC00DC00DC00DC00DC00DCDCF500DCDC00DCDCDC00DC00DC00DC00DC00DC00DCDC000000000000000000000000000000000000000000F50000F5F500F5000000000000E1F5F50000F5F5000000000000000000000000000000000000DCDC00
310
DC00DC00DC00DC00DC00DC00DC00DC00DCDCDCDCDCDCF5DCDCDCDCDCDCDCDCDCDCDCDCDCDCDC00DC00DC000000000000000000000000000000000000000000F50000F5F500F5000000000000E1F5F50000F5F5000000000000000000000000000000000000DC00DCDCDC00DC00DC00DC00DC00DC00DC00DC00DCDCDCDCDCF5
310
DCDCDCDCDCDCDCDCDCDCDCDCDCDC00DC00DC00000000000000000000000000000000000000000000F50000F5F500F5000000000000E1F5F50000F5F5000000000000000000000000000000000000DCDCDCDCDCDC00DC00DC00DC00DC00DC00DC00DCDCDCDC2828F5282828282828282828282828DCDCDC00DC00DC00000000
310
0000000000000000000000000000000000F50000F5F500F5000000000000E1F5F50000F5F5000000000000000000000000000000000000DCDCDC00DC00DC00DC00DC00DC00DC00DC00DC00DCDCDC28DC00F50000DC00DC0000DCDCDC28DCDC00DC00DCDC000000000000000000000000000000000000000000F50000F5F500
310
F5000000000000E1F5F50000F5F5000000000000000000000000000000000000DCDC00DC00DC00DC00DC00DC00DC00DC00DC00DCDCDCDC2800DCF5DCDCDCDCDCDCDC00DCDC28DCDCDC00DC00DC000000000000000000000000000000000000000000F50000F5F500F5000000000000E1F5F50000F5F5000000000000000000
310
000000000000000000DC00DCDCDC00DC00DC00DC00DC00DC00DC00DC00DCDCDC280000F52D2D2D2D2D2D2DBE00DC28DCDC00DC00DC00000000000000000000000000000000000000000000F50000F5F500F5000000000000E1F5F50000F5F5000000000000000000000000000000000000DCDC00DCDCDC00DC00DC00DC00DC
310
00DC00DC00DCDCDCDC28002DBEF5DCDCDC00DC00BE2D0028DCDCDC00DC00DC000000000000000000000000000000000000000000F50000F5F500F5000000000000E1F5F50000F5F5000000000000000000000000000000000000DCDCDCDC00DCDCDCDCDCDCDCDCDCDC00DCDCDCDCDCDCDC28DC2D2DF5000000DCDC002D2D00
310
28DCDC00DCDCDCDC000000000000000000000000000000000000000000F50000F5F500F5000000000000E1F5F50000F5F5000000000000000000000000000000000000DCDCDCDCDCDCDCDCDCDCDCDCDCDCDCDCDCDCDCDCDCDCDC28DC2D2DDCF5DCDCDC00002D2D0028DCDCDC00DCDC00000000000000000000000000000000
310
000000000000F50000F5F500F5000000000000E1F5F50000F5F5000000000000000000000000000000000000DCDC00DC0000DCDC00DC0000DCDCDCDC0000DCDCDCDCDC28002D2D00F5F500DCDC002D2D0028DCDC00DCDC00DC000000000000000000000000000000000000000000F50000F5F500F5000000000000E1F5F500
310
00F5F5000000000000000000000000000000000000DCDCDCDCDC0000DCDCDC000000DCDCDC000000DCDCDCDC28DC00DCDCDCF5F500DC002D2DDC28DCDCDCDCDCDCDC0000F5F5F5F5F5F5F5F5F5F5F5F5F5F5F5F5F5F500F50000F5F500F5000000000000E1F5F50000F5F5000000000000000000000000000000000000DCDC
310
DCDCDC0000DCDCDC000000DCDCDC000000DCDCDCDC28DC0000DCF5F5F5F5F5F5F5F5F5DCDCDC00DCDCDC000000F5F5F5F5F5F5F5F5F5F5F5F5F5F5F5F5F5F500F50000F5F500F5000000000000E1F5000000F5F5000000000000000000000000000000000000DCDCDCDCDCDCDCDCDCDCDCDCDCDCDCDCDCDCDCDCDCDC2896DC
310
DCDCDCF5F500F5F5002DF5F5F5DCDCDCDC00DCDC0000F5F5F5F5F5F5F5F5F5F5F5F5F5F5F5F5F5F5F5F50000F5F50000000000000000E1F5000000F5F5000000000000000000000000000000000000DCDCDC0000DCDCDCDC0000DCDCDCDC0000DCDCDCDC2896DCDCDCDCDCF500DCF5F5DCBE2DDCF5DCDCF5F5F5F5F5F5F5F5
310
F5F5F5F5F5F5F5F5F5F5F5F5F5F5F5F5F5F5F50000F5F50000000000000000E1F5000000F5F5000000000000000000000000000000000000DCDCDCDCDCDCDCDCDCDCDCDCDCDCDCDCDCDCDCDC28960000DCDCDC00F5DC0000DC00BE0000F5DCF5DCDC00DCDC000000000000000000000000000000000000000000F50000F5F5
310
0000000000000000E1F5000000F5F50000000000000000000000000000000000002DDCDCDCDCDCDCDCDCDCDCDCDCDCDCDCDCDCDC28960000DC000000DCF5DCBEED2D2D00DC00F5F5DCDC00F5DC00000000000000000000000000000000000000000000F50000F5F50000000000000000E1F5000000F5F50000000000000000
310
00000000000000000000969696969696969696969696969696969696969600DC00DC00DCDC00F5DCED2D2D00DCF5F5F5DCDCF5F5F5F5F50000F5F5F5F5F5F5F5F5F5F5F5F5F5F5F500000000F50000F5F50000000000000000E1F5000000F5F500000000000000000000000000000000000096DCDCDCDCDCDCDCDCDCDCDCDC
310
DCDCDC00289600DCDCDCDC00DC00DCF5DC2D2DDCF5F5DC00F5DCDCF5F5F500DCF5F5F5F5F5F5F5F5F5F5F5F5F5F5F5F5F500000000F50000F5F50000000000000000E1F5000000F5F50000000000000000000000000000000000009600DC00DC00DC00DC00DCDC00DC00DC28960000DCDCDC00DCDCDC00F52DEDF5F5DCDC00
310
DCF5DCDCF5DCF5DC00000000000000000000000000000000000000000000F50000F5F50000000000000000E1F5000000F5F500000000000000000000000000000000000096DCDCDCDCDCDCDCDCDCDCDCDCDCDCDC96DCDC00DCDCDCDCDCDC2D2DF5DCF5F5DC0000DC00DCF5F5F5F5F5F5F5F5F5F5F5F5F5F5F5F5F5F5F5F5F5
310
F5F5F5F5F50000F50000F5F50000000000000000E1F5000000F5F50000000000000000000000000000000000DC96DCDCDCDCDCDCDCDCDCDCDCDCDCDC96DC00DCDCDCDCDCDC002D2D00F5DCEDEDDC00DC00DC28F5292929F5F5F5F5F5F5F5F5F5F5F5F5F5F5F5F5F5F5F5F5F5F50000F50000F5F50000000000000000E1F500
310
0000F5F5000000000000000000000000000000000000969696969696969696969696969696EDEDEDEDEDEDEDEDEDEDEDEDEDDC2828282828282828F5F5F5F5F5F50000000000000000000000000000000000000000000000F50000F5F50000000000000000E1F5F50000F5F50000000000000000000000000000000000002D
310
00DCDCDCDC0000DCDCDCDC0000DC0000DCDCDCDC002D2DDC00DCDC282828282828F5282828000000F5F50000000000000000000000000000000000000000000000F50000F5F500F5000000000000E1F5F50000F5F5000000000000000000000000000000002D2D2D2D2D2DBE2D2D2D2D2D2D2D2D2D2D2D2D2D2D2D2D2D2D2D
310
2D2D00DC28F5BEF5DCDCDCF5DC2800000000F5F5F5F5F5F5F5F5F5F5F5F5F5F5F5F5F500000000000000F50000F5F500F5000000000000E1F5F50000F5F500000000000000000000000000000000002D2DDCDCDCBEBEDCDC000000BEBE00DCDC00DCBE00DC0000DC00BEDC0028F5BEF5DCDCDCDCF528000000F5F500000000
310
00000000000000000000000000000000000000F50000F5F500F5000000000000E1F5F50000F5F50000000000000000000000000000000000002D00000000DCDC00DCDC00DCDC00DC0000DC0000DCDCDCDC0000DCDC28F5BEF5DCDCDCDCF52800000000F50000000000000000000000000000000000000000000000F50000F5
310
F500F5000000000000E1F5F50000F5F5000000000000000000000000000000000000282828282828282828282828282828282828F5F5F5F5F5F52828282828F5BEF5DCDCDCDCF528F5F5F5F5F50000000000000000000000000000000000000000000000F50000F5F500F5000000000000E1F5F50000F5F500000000000000
310
00000000000000000000002D0000000000000000000000000000000000F5F500F52D282828282828F5BEF5DCDCDCDCDCF500000000000000000000000000000000000000000000000000000000F50000F5F500F5000000000000E1F5F50000F5F50000000000000000000000000000000000002D0000000000000000000000
310
000000000000F5F5F5000028DCDCDCDCF5F5BEF5DCDCDCDCDCF5000000000000000000F5F5F5F5F50000000000000000000000000000F50000F5F500F5000000000000E1F5F50000F5F50000000000000000000000000000000000002D0000000000000000000000000000000000F50000000028DCDCDCDCF5F5BEF5DCDCDC
310
DCDC28F50000000000000000F5F5F5F5F50000000000000000000000000000F50000F5F500F5000000000000E1F5F50000F5F50000000000000000000000000000000000002D000000000000000000000000000000F5F5F50000000028DCF5DCDCF5F5BEF5DCDCDCDCDC28F50000000000000000F5F5F5F5F5F5F5F5F5F5F5
310
F5F5F5F5F5000000F50000F5F500F5000000000000E1F5F50000F5F50000000000F5F5F5F5F5F5F5F5F5F5F5F5F5F5F5000000000000000000000000F5F5F5F5F50000000028DCF5DCDCF5F5BEF5DCDCDCDCDC28F50000000000000000F5F5F5F5F5F5F5F5F5F5F5F5F5F5F5F5000000F50000F5F500F5000000000000E1F5
310
F50000F5F50000000000F5F5F5F5F5F5F5F5F5F5F5F5F5F5F5000000000000F5F5F5F5F5F500000000F50000000028DCF5DCDCF5F5BEF5DCDCDCDCDC2800F500000000000000F5F5F5F5F5F5F5F5F5F5F5F5F5F5F5F5F5F5F5F50000F5F500F5000000000000E1F5F50000F5F50000000000F5F5F5F5F5F5F5F5F5F5F5F5F5
310
F5F5F5F5F5F5F5F500000000000000000000F50000000028DCF5DCDCF5F5BEF5DCDCDCDCDC2800F500000000000000F5F5F5F5F5F5F5F5F5F5F5F5F5F5F5F5F5F5F5F50000F5F500F5000000000000E1F5F50000F5F50000000000F5F5F5F5F5F5F5F5F5F5F5F5F5F5F5F5F5F5F5F5F500000000000000000000F5F5000000
310
28F5DCDCDCF5F5BEF5DCDCDCDCDC280000F5000000000000F5F5F5F5F5F5F5F5F5F5F5F5F5F5F5F5F5F5F5F50000F5F500F5000000000000E1F5F50000F5F5000000000000000000000000000000000000000000000000000000000000000000000000F5F500000028F5DCDCDCF5F5BEF5DCDCDCDCDC280000F5F500000000
310
0000000000000000000000000000000000000000F50000F5F500F5000000000000E1F5F50000F5F5000000000000000000000000000000000000000000000000000000000000000000000000F5F5F5F5F5F5F5F5F5F5F5F5BEF5F5F5F5F5F5F500000000F5F5F5F5F5F5F5F5F5F5F5F5F5F5F5000000000000000000F50000
310
F5F500F5000000000000E1F5F50000F5F50000000000F5F5F5F5F5F5F5F5F5F5F5F5F5F5F5F5F5F5F5F5F5F5000000000000000000000000000028F5DCDCDCDCF5BEF5DCDCDCDCDCF500000000000000000000000000000000000000000000000000000000F50000F5F500F5000000000000E1F5F50000F5F50000000000F5
310
F5F5F5F5F5F5F5F5F5F5F5F5F5F5F5F5F5F5F5F5F50000F5F5F5000000000000000000F5DCDCDCDCDCF5BEF5DCDCDCDCDCF500000000000000000000000000000000000000000000000000000000F50000F5F500F5000000000000E1F5000000F5F50000000000F5F5F5F5F5F5F5F5F5F5F5F5F5F5F5F5F5F5F5F5F5F5F5F5
310
F5F5F5F5F5F5F50000F5F5F528DCDCDCDCDCF5BEF5DCDCDCDCDCF500000000000000000000000000000000000000000000000000000000F50000F5F50000000000000000E1F5000000F5F50000000000F5F5F5F5F5F5F5F5F5F5F5F5F5F5F5F5F5F5F5F5F5F5F5F5F5F5F5F5F5F5F5F5F500000028DCDCDCDCDCF5BEF5DCDC
310
DCDCDCF500000000000000000000000000000000000000000000000000000000F50000F5F50000000000000000E1F5000000F5F5000000000000000000000000000000000000000000000000000000000000000000000000000000000028DCDCDCDCDCF5BEF5DCDCDCDCDCF500000000000000000000000000000000000000
310
000000000000000000F50000F5F50000000000000000E1F5000000F5F5000000000000000000000000000000000000000000000000000000000000000000000000000000000028DCDCDCDCDCF5BEF5DCDCDCDCDCF500000000000000000000000000000000000000000000000000000000F50000F5F50000000000000000E1
310
F5000000F5F5000000000000000000000000000000000000000000000000000000000000000000000000000000000028DCDCDCDCDCF5BEF5DCDCDCDCDCF5F5000000000000000000000000000000000000000000000000000000F50000F5F50000000000000000E1F5000000F5F50000000000000000000000000000000000
310
00000000000000000000000000000000000000000000000028DCDCDCDCDCF5BEF5DCDCDCDCDCF500F50000000000000000000000000000000000000000000000000000F50000F5F50000000000000000E1F5000000F5F500000000000000000000000000000000000000000000000000000000000000000000000000000000
310
0028F5F5F5F5F5F5BEF5F5F5F5F5F5F500F50000000000000000000000000000000000000000000000000000F50000F5F50000000000000000E1F5000000F5F5000000000000000000000000000000000000000000000000000000000000000000000000000000000028DCDCDCF5F5F5F5F5DCDCDCDCDCF50000F500000000
310
000000000000000000000000000000000000000000F50000F5F50000000000000000E1F5000000F5F50000000000000000000000000000000000000000000000000000000000000000000000000000000000DCDCDCDCF5DCF5BEF5F5DCDCDCDCF50000F5000000000000F5F5F5F5F5F5F5F5F5F5F5F5F5F50000000000F500
310
00F5F50000000000000000E1F5000000F5F50000000000000000000000000000000000000000000000000000000000000000000000000000000000DCDCDCF5DCDCF5BEF5F5DCDCDCDCF5000000F50000000000F5F5F5F5F5F5F5F5F5F5F5F5F5F50000000000F50000F5F50000000000000000E1F5F50000F5F50000000000
310
000000000000000000000000000000000000000000000000000000000000000000000000F5DCDCF5DCDCF5BEF5DCF5F5DCDCF5000000F5F500000000F5F5F5F5F5F5F5F5F5F5F5F5F5F5F500000000F50000F5F500F5000000000000E1F5F50000F5F500000000000000000000000000000000000000000000000000000000
310
000000000000000000002D2DF5F52D2DF52D2D2DBEF5DCDCDCF5DCF52D2D000000F5F5F5F5F5F5F5F5F5F5F5F5F5F5F5F5F5F5F500000000F50000F5F500F5000000000000E1F5F50000F5F50000000000F5F5F5F5F5F5F5F5F5F5F5000000000000000000000000000000000000000000000000F5F50000F500000000DCDC
310
000000F5F500000000000000000000000000000000000000000000000000000000F50000F5F500F5000000000000E1F5F50000F5F50000000000F5F5F5F5F5F5F5F5F5F5F5000000000000000000000000000000000000F5F5F5000000F5F50000F500000000000000000000F5000000000000000000000000000000000000
310
00000000000000000000F50000F5F500F5000000000000E1F5F50000F5F50000000000F5F5F5F5F5F5F5F5F5F5F5F5F5F5F5F5F5F5F5F5F5F5F5F5F5F5F5F5F5F5F5F50000F500F5F5F5F5F5F5F5F5F5F5F5F5F5F5F5000000000000000000F5F5F5F5F5F5F5F5F5F5F5F5F5F5F5F5F5F500F50000F5F500F5000000000000
310
E1F5F50000F5F50000000000F5F5F5F5F5F5F5F5F5F5F5F5F5F5F5F5F5F5F5F5F5F5F5F5F5F5F5F5F5F5F5F5F5F5F500F50000F50000F5F5F50000000000F5F50000000000000000F5F5F5F5F5F5F5F5F5F5F5F5F5F5F5F5F5F500F50000F5F500F5000000000000E1F5F50000F5F500000000000000000000000000000000
310
00000000000000000000000000000000000000000000000000000000F5000000000000000000000000F5F5000000000000F5F5F5F5F5F5F5F5F5F5F5F5F5F5F5F5F5F5F5F50000F5F500F5000000000000E1F5F50000F5F5000000000000000000000000000000000000000000000000000000000000000000000000000000
310
0000000000F50000000000000000000000000000F50000000000F5F5F5F5F5F5F5F5F5F5F5F5F5F5F5F5F5F5F5F50000F5F500F5000000000000E1F5F50000F5F500000000000000000000000000000000000000000000000000000000000000000000000000000000000000F500000000000000000000000000000000F5F5
310
F50000F5F5F5F5F5F5F5F5F5F5F5F5F5F5F5F5000000F50000F5F500F5000000000000E1F5F50000F5F5000000000000000000000000F5F5F500000000000000000000000000000000000000000000000000000000F500000000000000000000000000000000000000F5F5F5F5F5F5F5F5F5F5F5F5F5F5F5F5F5F5000000F5
310
0000F5F500F5000000000000E1F5F50000F5F50000000000F5F5F5F5F5F5F5F5F5F5F5F5F5F5F5F5F5F5F5F5F5F5F5F50000000000000000000000000000F500000000000000000000000000000000000000000000000000000000000000000000000000000000F50000F5F500F5000000000000E1F5F50000F5F500000000
310
00F5F5F5F5F5F5F5F5F5F5F5F5F5F5F5F5F5F5F5F5F5F5F5F500000000000000000000000000F50000000000000000000000000000000000000000000000000000000000000000000000000000000000F50000F5F500F5000000000000E1F5F50000F5F50000000000F5F5F5F5F5F5F5F5F5F5F5F5F5F5F5F5F5F5F5F5F5F5
310
F5F5F5000000000000000000000000F50000000000000000000000000000000000000000000000000000000000000000000000000000000000F50000F5F500F5000000000000E1F5F50000F5F50000000000F5F5F5F5F5F5F5F5F5F5F5F5F5F5F5F5F5F5F5F5F5F5F5F5F50000000000000000000000F50000000000000000
310
00000000000000000000000000000000000000000000000000000000000000000000F50000F5F500F5000000000000E1F5F50000F5F50000000000F5F5F5F5F5F5F5F5F5F5F5F5F5F5F5F5F5F5F5F5F5F5F5F5F5F5F5F5F5000000000000F5F500000000000000000000000000000000000000000000000000000000000000
310
0000000000000000000000F50000F5F500F5000000000000E1F5F50000F5F5000000000000000000000000000000000000000000000000000000000000000000000000F5F5F5F50000000000000000000000000000000000000000000000000000000000000000000000000000000000000000F50000F5F500F50000000000
310
00E1F5F50000F5F5000000000000000000000000000000000000000000000000000000000000000000000000000000000000000000000000000000000000000000000000000000000000000000000000000000000000000000000000F50000F5F500F5000000000000E1F5000000F5F5000000000000000000000000000000
310
000000000000000000000000000000000000000000000000000000000000000000000000000000000000000000000000000000000000000000000000000000000000000000F50000F5F50000000000000000E1F5000000F5F50000000000000000000000000000000000000000000000000000000000000000000000000000
310
00000000000000000000000000000000000000000000000000000000000000000000000000000000000000000000F50000F5F50000000000000000E1F5000000F5F500000000000000000000000000000000000000000000000000000000000000000000000000000000000000000000000000000000000000000000000000
310
0000000000000000000000000000000000000000000000F50000F5F50000000000000000E1F5000000F5F5000000000000000000000000000000000000000000000000000000000000000000000000000000000000000000000000000000000000000000000000000000000000000000000000000000000000000000000000
310
F50000F5F50000000000000000E1F5000000F5F5000000000000000000000000000000000000000000000000000000000000000000000000000000000000000000000000000000000000000000000000000000000000000000000000000000000000000000000000F50000F5F50000000000000000E1F5000000F5F5000000
310
000000000000000000000000000000000000000000000000000000000000000000000000000000000000000000000000000000000000000000000000000000000000000000000000000000000000000000F50000F5F50000000000000000E1F5000000F5F50000000000000000000000000000000000000000000000000000
310
00000000000000000000000000000000000000000000000000000000000000000000000000000000000000000000000000000000000000000000F50000F5F50000000000000000E1F5000000F5F500000000000000000000000000000000000000000000000000000000000000000000000000000000000000000000000000
310
0000000000000000000000000000000000000000000000000000000000000000000000F50000F5F50000000000000000E1F5000000F5F5000000000000000000000000000000000000000000000000000000000000000000000000000000000000000000000000000000000000000000000000000000000000000000000000
310
000000000000000000000000F50000F5F50000000000000000E1F5000000F5F5000000000000000000000000000000000000000000000000000000000000000000000000000000000000000000000000000000000000000000000000000000000000000000000000000000000000000000000000F50000F5F5000000000000
310
0000E1F5F50000F5F5000000000000000000000000000000000000000000000000000000000000000000000000000000000000000000000000000000000000000000000000000000000000000000000000000000000000000000000000F50000F5F500F5000000000000E1F5F50000F5F50000000000000000000000000000
310
00000000000000000000000000000000000000000000000000000000000000000000000000000000000000000000000000000000000000000000000000000000000000000000F50000F5F500F5000000000000E1F5F50000F5F5F5F5F5F5F5F5F5F5F5F5F5F5F5F5F5F5F5F5F5F5F5F5F5F5F5F5F5F5F5F5F5F5F5F5F5F5F5
310
F5F5F5F5F5F5F5F5F5F5F5F5F5F5F5F5F5F5F5F5F5F5F5F5F5F5F5F5F5F5F5F5F5F5F5F5F5F5F5F5F5F5F5F5F5F5F5F50000F5F500F5000000000000E1F5F50000F5F5000000000000000000000000000000000000000000000000000000000000000000000000000000000000000000000000000000000000000000000000
310
000000000000000000000000000000000000000000000000000000F5F500F5000000000000E1F5F50000F5F50000000000000000000000000000000000000000000000000000000000000000000000000000000000000000000000000000000000000000000000000000000000000000000000000000000000000000000000
310
00000000F5F500F5000000000000E1F5F50000F5F5F5F5F5F5F5F5F5F5F5F5F5F5F5F5F5F5F5F5F5F5F5F5F5F5F5F5F5F5F5F5F5F5F5F5F5F5F5F5F5F5F5F5F5F5F5F5F5F5F5F5F5F5F5F5F5F5F5F5F5F5F5F5F5F5F5F5F5F5F5F5F5F5F5F5F5F5F5F5F5F5F5F5F5F5F5F5F5F5F500F5000000000000E1F5F50000F5F5F5F5
310
F5F5F5F5F5F5F5F5F5F5F5F5F5F5F5F5F5F5F5F5F5F5F5F5F5F5F5F5F5F5F5F5F5F5F5F5F5F5F5F5F5F5F5F5F5F5F5F5F5F5F5F5F5F5F5F5F5F5F5F5F5F5F5F5F5F5F5F5F5F5F5F5F5F5F5F5F5F5F5F5F5F5F5F5F5F50000F5000000000000E1F5F50000000000000000000000000000000000000000000000000000000000
310
0000000000000000000000000000000000000000000000000000000000000000000000000000000000000000000000000000000000000000000000000000000000F5000000000000E1F5F5F5F5F5F5F5F5F5000000000000000000F5F5F5F5F5F5F5F5F5F5F5F5F5F5F50000000000000000F5F5F5F5F5F5F5F5F5F5F5F5F5
310
F5F5F50000000000000000F5F5F5F5F5F5F5F5F5F5F5F5F5F5F5000000000000000000F5F5F5F5F5F5F5F5000000000000E1F500000000000000000000000000000000000000000000000000000000000000000000000000000000000000000000000000000000000000000000000000000000000000000000000000000000
310
0000000000000000000000000000000000000000000000000000E1F5F5F5F5F5F5F5F5F5F5F5F5F5F5F5F5F5F5F5F5F5F5F5F5F5F5F5F5F5F5F5F5F5F5F5F5F5F5F5F5F5F5F5F5F5F5F5F5F5F5F5F5F5F5F5F5F5F5F5F5F5F5F5F5F5F5F5F5F5F5F5F5F5F5F5F5F5F5F5F5F5F5F5F5F5F5F5F5F5F5F5F5F5F5F5F5F5000000
310
000000
  0
XRECORD
  5
7EA0
102
{ACAD_REACTORS
330
67C8
102
}
330
67C8
100
AcDbXrecord
280
     1
102
MATERIAL
148
0.0
149
0.0
149
0.0
 93
        0
 94
      127
282
     0
 72
     0
 77
     0
171
     0
175
     0
179
     0
273
     0
  0
XRECORD
  5
67CA
102
{ACAD_REACTORS
330
67C8
102
}
330
67C8
100
AcDbXrecord
280
     1
270
     1
271
     1
  0
XRECORD
  5
67C9
102
{ACAD_REACTORS
330
67C8
102
}
330
67C8
100
AcDbXrecord
280
     1
270
     1
271
     1
  0
XRECORD
  5
67CD
102
{ACAD_REACTORS
330
67C8
102
}
330
67C8
100
AcDbXrecord
280
     1
270
     1
271
     1
  0
XRECORD
  5
67CC
102
{ACAD_REACTORS
330
67C8
102
}
330
67C8
100
AcDbXrecord
280
     1
270
     1
271
     1
  0
XRECORD
  5
67CE
102
{ACAD_REACTORS
330
67C8
102
}
330
67C8
100
AcDbXrecord
280
     1
270
     1
271
     1
  0
XRECORD
  5
67CB
102
{ACAD_REACTORS
330
67C8
102
}
330
67C8
100
AcDbXrecord
280
     1
270
     1
271
     1
  0
XRECORD
  5
7E9F
102
{ACAD_REACTORS
330
67C0
102
}
330
67C0
100
AcDbXrecord
280
     1
102
MATERIAL
148
0.0
149
0.0
149
0.0
 93
        0
 94
      127
282
     0
 72
     0
 77
     0
171
     0
175
     0
179
     0
273
     0
  0
XRECORD
  5
67C2
102
{ACAD_REACTORS
330
67C0
102
}
330
67C0
100
AcDbXrecord
280
     1
270
     1
271
     1
  0
XRECORD
  5
67C1
102
{ACAD_REACTORS
330
67C0
102
}
330
67C0
100
AcDbXrecord
280
     1
270
     1
271
     1
  0
XRECORD
  5
67C5
102
{ACAD_REACTORS
330
67C0
102
}
330
67C0
100
AcDbXrecord
280
     1
270
     1
271
     1
  0
XRECORD
  5
67C4
102
{ACAD_REACTORS
330
67C0
102
}
330
67C0
100
AcDbXrecord
280
     1
270
     1
271
     1
  0
XRECORD
  5
67C6
102
{ACAD_REACTORS
330
67C0
102
}
330
67C0
100
AcDbXrecord
280
     1
270
     1
271
     1
  0
XRECORD
  5
67C3
102
{ACAD_REACTORS
330
67C0
102
}
330
67C0
100
AcDbXrecord
280
     1
270
     1
271
     1
  0
XRECORD
  5
7EA1
102
{ACAD_REACTORS
330
67D0
102
}
330
67D0
100
AcDbXrecord
280
     1
102
MATERIAL
148
0.0
149
0.0
149
0.0
 93
        0
 94
      127
282
     0
 72
     0
 77
     0
171
     0
175
     0
179
     0
273
     0
  0
XRECORD
  5
67D2
102
{ACAD_REACTORS
330
67D0
102
}
330
67D0
100
AcDbXrecord
280
     1
270
     1
271
     1
  0
XRECORD
  5
67D1
102
{ACAD_REACTORS
330
67D0
102
}
330
67D0
100
AcDbXrecord
280
     1
270
     1
271
     1
  0
XRECORD
  5
67D5
102
{ACAD_REACTORS
330
67D0
102
}
330
67D0
100
AcDbXrecord
280
     1
270
     1
271
     1
  0
XRECORD
  5
67D4
102
{ACAD_REACTORS
330
67D0
102
}
330
67D0
100
AcDbXrecord
280
     1
270
     1
271
     1
  0
XRECORD
  5
67D6
102
{ACAD_REACTORS
330
67D0
102
}
330
67D0
100
AcDbXrecord
280
     1
270
     1
271
     1
  0
XRECORD
  5
67D3
102
{ACAD_REACTORS
330
67D0
102
}
330
67D0
100
AcDbXrecord
280
     1
270
     1
271
     1
  0
CELLSTYLEMAP
  5
7E90
102
{ACAD_REACTORS
330
6ABA
102
}
330
6ABA
100
AcDbCellStyleMap
 90
        3
300
CELLSTYLE
  1
TABLEFORMAT_BEGIN
 90
        5
170
     1
 91
        0
 92
    32768
 62
   257
 93
        1
300
CONTENTFORMAT
  1
CONTENTFORMAT_BEGIN
 90
        0
 91
        0
 92
        4
 93
        0
300

 40
0.0
140
1.0
 94
        5
 62
     0
340
11
144
6.0
309
CONTENTFORMAT_END
171
     1
301
MARGIN
  1
CELLMARGIN_BEGIN
 40
1.5
 40
1.5
 40
1.5
 40
1.5
 40
0.18
 40
0.18
309
CELLMARGIN_END
 94
        6
 95
        1
302
GRIDFORMAT
  1
GRIDFORMAT_BEGIN
 90
        0
 91
        1
 62
     0
 92
       -2
340
0
 93
        0
 40
0.045
309
GRIDFORMAT_END
 95
        2
302
GRIDFORMAT
  1
GRIDFORMAT_BEGIN
 90
        0
 91
        1
 62
     0
 92
       -2
340
0
 93
        0
 40
0.045
309
GRIDFORMAT_END
 95
        4
302
GRIDFORMAT
  1
GRIDFORMAT_BEGIN
 90
        0
 91
        1
 62
     0
 92
       -2
340
0
 93
        0
 40
0.045
309
GRIDFORMAT_END
 95
        8
302
GRIDFORMAT
  1
GRIDFORMAT_BEGIN
 90
        0
 91
        1
 62
     0
 92
       -2
340
0
 93
        0
 40
0.045
309
GRIDFORMAT_END
 95
       16
302
GRIDFORMAT
  1
GRIDFORMAT_BEGIN
 90
        0
 91
        1
 62
     0
 92
       -2
340
0
 93
        0
 40
0.045
309
GRIDFORMAT_END
 95
       32
302
GRIDFORMAT
  1
GRIDFORMAT_BEGIN
 90
        0
 91
        1
 62
     0
 92
       -2
340
0
 93
        0
 40
0.045
309
GRIDFORMAT_END
309
TABLEFORMAT_END
  1
CELLSTYLE_BEGIN
 90
        1
 91
        1
300
_TITLE
309
CELLSTYLE_END
300
CELLSTYLE
  1
TABLEFORMAT_BEGIN
 90
        5
170
     1
 91
        0
 92
        0
 62
   257
 93
        1
300
CONTENTFORMAT
  1
CONTENTFORMAT_BEGIN
 90
        0
 91
        0
 92
        4
 93
        0
300

 40
0.0
140
1.0
 94
        5
 62
     0
340
11
144
4.5
309
CONTENTFORMAT_END
171
     1
301
MARGIN
  1
CELLMARGIN_BEGIN
 40
1.5
 40
1.5
 40
1.5
 40
1.5
 40
0.18
 40
0.18
309
CELLMARGIN_END
 94
        6
 95
        1
302
GRIDFORMAT
  1
GRIDFORMAT_BEGIN
 90
        0
 91
        1
 62
     0
 92
       -2
340
0
 93
        0
 40
0.045
309
GRIDFORMAT_END
 95
        2
302
GRIDFORMAT
  1
GRIDFORMAT_BEGIN
 90
        0
 91
        1
 62
     0
 92
       -2
340
0
 93
        0
 40
0.045
309
GRIDFORMAT_END
 95
        4
302
GRIDFORMAT
  1
GRIDFORMAT_BEGIN
 90
        0
 91
        1
 62
     0
 92
       -2
340
0
 93
        0
 40
0.045
309
GRIDFORMAT_END
 95
        8
302
GRIDFORMAT
  1
GRIDFORMAT_BEGIN
 90
        0
 91
        1
 62
     0
 92
       -2
340
0
 93
        0
 40
0.045
309
GRIDFORMAT_END
 95
       16
302
GRIDFORMAT
  1
GRIDFORMAT_BEGIN
 90
        0
 91
        1
 62
     0
 92
       -2
340
0
 93
        0
 40
0.045
309
GRIDFORMAT_END
 95
       32
302
GRIDFORMAT
  1
GRIDFORMAT_BEGIN
 90
        0
 91
        1
 62
     0
 92
       -2
340
0
 93
        0
 40
0.045
309
GRIDFORMAT_END
309
TABLEFORMAT_END
  1
CELLSTYLE_BEGIN
 90
        2
 91
        1
300
_HEADER
309
CELLSTYLE_END
300
CELLSTYLE
  1
TABLEFORMAT_BEGIN
 90
        5
170
     1
 91
        0
 92
        0
 62
   257
 93
        1
300
CONTENTFORMAT
  1
CONTENTFORMAT_BEGIN
 90
        0
 91
        0
 92
        4
 93
        0
300

 40
0.0
140
1.0
 94
        2
 62
     0
340
11
144
4.5
309
CONTENTFORMAT_END
171
     1
301
MARGIN
  1
CELLMARGIN_BEGIN
 40
1.5
 40
1.5
 40
1.5
 40
1.5
 40
0.18
 40
0.18
309
CELLMARGIN_END
 94
        6
 95
        1
302
GRIDFORMAT
  1
GRIDFORMAT_BEGIN
 90
        0
 91
        1
 62
     0
 92
       -2
340
0
 93
        0
 40
0.045
309
GRIDFORMAT_END
 95
        2
302
GRIDFORMAT
  1
GRIDFORMAT_BEGIN
 90
        0
 91
        1
 62
     0
 92
       -2
340
0
 93
        0
 40
0.045
309
GRIDFORMAT_END
 95
        4
302
GRIDFORMAT
  1
GRIDFORMAT_BEGIN
 90
        0
 91
        1
 62
     0
 92
       -2
340
0
 93
        0
 40
0.045
309
GRIDFORMAT_END
 95
        8
302
GRIDFORMAT
  1
GRIDFORMAT_BEGIN
 90
        0
 91
        1
 62
     0
 92
       -2
340
0
 93
        0
 40
0.045
309
GRIDFORMAT_END
 95
       16
302
GRIDFORMAT
  1
GRIDFORMAT_BEGIN
 90
        0
 91
        1
 62
     0
 92
       -2
340
0
 93
        0
 40
0.045
309
GRIDFORMAT_END
 95
       32
302
GRIDFORMAT
  1
GRIDFORMAT_BEGIN
 90
        0
 91
        1
 62
     0
 92
       -2
340
0
 93
        0
 40
0.045
309
GRIDFORMAT_END
309
TABLEFORMAT_END
  1
CELLSTYLE_BEGIN
 90
        3
 91
        2
300
_DATA
309
CELLSTYLE_END
  0
XRECORD
  5
7E9E
102
{ACAD_REACTORS
330
6ABA
102
}
330
6ABA
100
AcDbXrecord
280
     1
102
ACAD_ROUNDTRIP_PRE2007_TABLESTYLE
 90
        4
 91
        0
  1

 92
        4
 93
        0
  2

 94
        4
 95
        0
  3

  0
XRECORD
  5
7EAD
102
{ACAD_REACTORS
330
7EAC
102
}
330
7EAC
100
AcDbXrecord
280
     1
102
RTVSPost2010Prop28
280
     1
102
RTVSPost2010PropOp28
 70
     1
102
RTVSPost2010Prop29
280
     1
102
RTVSPost2010PropOp29
 70
     1
102
RTVSPost2010Prop30
280
     0
102
RTVSPost2010PropOp30
 70
     1
102
RTVSPost2010Prop31
280
     0
102
RTVSPost2010PropOp31
 70
     1
102
RTVSPost2010Prop32
280
     0
102
RTVSPost2010PropOp32
 70
     1
102
RTVSPost2010Prop33
280
     0
102
RTVSPost2010PropOp33
 70
     1
102
RTVSPost2010Prop34
280
     0
102
RTVSPost2010PropOp34
 70
     1
102
RTVSPost2010Prop35
280
     0
102
RTVSPost2010PropOp35
 70
     1
102
RTVSPost2010Prop36
280
     0
102
RTVSPost2010PropOp36
 70
     1
102
RTVSPost2010Prop37
 90
       50
102
RTVSPost2010PropOp37
 70
     1
102
RTVSPost2010Prop38
140
0.0
102
RTVSPost2010PropOp38
 70
     1
102
RTVSPost2010Prop39
140
1.0
102
RTVSPost2010PropOp39
 70
     1
102
RTVSPost2010Prop40
 90
        0
102
RTVSPost2010PropOp40
 70
     1
102
RTVSPost2010Prop41ColorIndex
 90
       18
102
RTVSPost2010Prop41ColorRGB
 90
        0
102
RTVSPost2010PropOp41
 70
     1
102
RTVSPost2010Prop42
 90
       50
102
RTVSPost2010PropOp42
 70
     1
102
RTVSPost2010Prop43
 90
        3
102
RTVSPost2010PropOp43
 70
     1
102
RTVSPost2010Prop44ColorIndex
 90
        5
102
RTVSPost2010Prop44ColorRGB
 90
      255
102
RTVSPost2010PropOp44
 70
     1
102
RTVSPost2010Prop45
280
     0
102
RTVSPost2010PropOp45
 70
     1
102
RTVSPost2010Prop46
 90
       50
102
RTVSPost2010PropOp46
 70
     1
102
RTVSPost2010Prop47
 90
       50
102
RTVSPost2010PropOp47
 70
     1
102
RTVSPost2010Prop48
 90
       50
102
RTVSPost2010PropOp48
 70
     1
102
RTVSPost2010Prop49
280
     0
102
RTVSPost2010PropOp49
 70
     1
102
RTVSPost2010Prop50
 90
       50
102
RTVSPost2010PropOp50
 70
     1
102
RTVSPost2010Prop51ColorIndex
 90
      256
102
RTVSPost2010Prop51ColorRGB
 90
-16777216
102
RTVSPost2010PropOp51
 70
     0
102
RTVSPost2010Prop52
140
1.0
102
RTVSPost2010PropOp52
 70
     0
102
RTVSPost2010Prop53
 90
        2
102
RTVSPost2010PropOp53
 70
     1
102
RTVSPost2010Prop54
  1
strokes_ogs.tif
102
RTVSPost2010PropOp54
 70
     1
102
RTVSPost2010Prop55
280
     0
102
RTVSPost2010PropOp55
 70
     1
102
RTVSPost2010Prop56
140
1.0
102
RTVSPost2010PropOp56
 70
     1
102
RTVSPost2010Prop57
140
1.0
102
RTVSPost2010PropOp57
 70
     1
102
RTVSPropertyOp0
 70
     1
102
RTVSPropertyOp1
 70
     1
102
RTVSPropertyOp2
 70
     1
102
RTVSPropertyOp3
 70
     1
102
RTVSPropertyOp4
 70
     1
102
RTVSPropertyOp5
 70
     1
102
RTVSPropertyOp6
 70
     1
102
RTVSPropertyOp7
 70
     1
102
RTVSPropertyOp8
 70
     1
102
RTVSPropertyOp9
 70
     1
102
RTVSPropertyOp10
 70
     1
102
RTVSPropertyOp11
 70
     1
102
RTVSPropertyOp12
 70
     1
102
RTVSPropertyOp13
 70
     1
102
RTVSPropertyOp14
 70
     1
102
RTVSPropertyOp15
 70
     1
102
RTVSPropertyOp16
 70
     1
102
RTVSPropertyOp17
 70
     1
102
RTVSPropertyOp18
 70
     1
102
RTVSPropertyOp19
 70
     1
102
RTVSPropertyOp20
 70
     1
102
RTVSPropertyOp21
 70
     1
102
RTVSPropertyOp22
 70
     1
102
RTVSPropertyOp23
 70
     1
102
RTVSPropertyOp24
 70
     1
102
RTVSPropertyOp25
 70
     1
102
RTVSPropertyOp26
 70
     1
102
RTVSPropertyOp27
 70
     1
102
RTVSPropertyOp28
 70
     1
102
RTVSPropertyOp29
 70
     1
102
RTVSPropertyOp30
 70
     1
102
RTVSPropertyOp31
 70
     1
102
RTVSPropertyOp32
 70
     1
102
RTVSPropertyOp33
 70
     1
102
RTVSPropertyOp34
 70
     1
102
RTVSPropertyOp35
 70
     1
102
RTVSPropertyOp36
 70
     1
102
RTVSPropertyOp37
 70
     1
102
RTVSPropertyOp38
 70
     1
102
RTVSPropertyOp39
 70
     1
102
RTVSPropertyOp40
 70
     1
102
RTVSPropertyOp41
 70
     1
102
RTVSPropertyOp42
 70
     1
102
RTVSPropertyOp43
 70
     1
102
RTVSPropertyOp44
 70
     1
102
RTVSPropertyOp45
 70
     1
102
RTVSPropertyOp46
 70
     1
102
RTVSPropertyOp47
 70
     1
102
RTVSPropertyOp48
 70
     1
102
RTVSPropertyOp49
 70
     1
102
RTVSPropertyOp50
 70
     1
102
RTVSPropertyOp51
 70
     0
102
RTVSPropertyOp52
 70
     0
102
RTVSPropertyOp53
 70
     1
102
RTVSPropertyOp54
 70
     1
102
RTVSPropertyOp55
 70
     1
102
RTVSPropertyOp56
 70
     1
102
RTVSPropertyOp57
 70
     1
102
RTVSPropertyOp58
 70
     1
102
RTVSPropertyOp59
 70
     1
102
RTVSPropertyOp60
 70
     1
102
RTVSPropertyOp61
 70
     1
102
RTVSPropertyOp62
 70
     1
  0
XRECORD
  5
7EB1
102
{ACAD_REACTORS
330
7EB0
102
}
330
7EB0
100
AcDbXrecord
280
     1
102
RTVSPost2010Prop28
280
     0
102
RTVSPost2010PropOp28
 70
     1
102
RTVSPost2010Prop29
280
     1
102
RTVSPost2010PropOp29
 70
     1
102
RTVSPost2010Prop30
280
     1
102
RTVSPost2010PropOp30
 70
     1
102
RTVSPost2010Prop31
280
     0
102
RTVSPost2010PropOp31
 70
     1
102
RTVSPost2010Prop32
280
     0
102
RTVSPost2010PropOp32
 70
     1
102
RTVSPost2010Prop33
280
     0
102
RTVSPost2010PropOp33
 70
     1
102
RTVSPost2010Prop34
280
     0
102
RTVSPost2010PropOp34
 70
     1
102
RTVSPost2010Prop35
280
     0
102
RTVSPost2010PropOp35
 70
     1
102
RTVSPost2010Prop36
280
     0
102
RTVSPost2010PropOp36
 70
     1
102
RTVSPost2010Prop37
 90
       50
102
RTVSPost2010PropOp37
 70
     1
102
RTVSPost2010Prop38
140
0.0
102
RTVSPost2010PropOp38
 70
     1
102
RTVSPost2010Prop39
140
1.0
102
RTVSPost2010PropOp39
 70
     1
102
RTVSPost2010Prop40
 90
        0
102
RTVSPost2010PropOp40
 70
     1
102
RTVSPost2010Prop41ColorIndex
 90
       18
102
RTVSPost2010Prop41ColorRGB
 90
        0
102
RTVSPost2010PropOp41
 70
     1
102
RTVSPost2010Prop42
 90
       50
102
RTVSPost2010PropOp42
 70
     1
102
RTVSPost2010Prop43
 90
        3
102
RTVSPost2010PropOp43
 70
     1
102
RTVSPost2010Prop44ColorIndex
 90
        5
102
RTVSPost2010Prop44ColorRGB
 90
      255
102
RTVSPost2010PropOp44
 70
     1
102
RTVSPost2010Prop45
280
     0
102
RTVSPost2010PropOp45
 70
     1
102
RTVSPost2010Prop46
 90
       50
102
RTVSPost2010PropOp46
 70
     1
102
RTVSPost2010Prop47
 90
       50
102
RTVSPost2010PropOp47
 70
     1
102
RTVSPost2010Prop48
 90
       50
102
RTVSPost2010PropOp48
 70
     1
102
RTVSPost2010Prop49
280
     0
102
RTVSPost2010PropOp49
 70
     1
102
RTVSPost2010Prop50
 90
       50
102
RTVSPost2010PropOp50
 70
     1
102
RTVSPost2010Prop51ColorIndex
 90
      256
102
RTVSPost2010Prop51ColorRGB
 90
-16777216
102
RTVSPost2010PropOp51
 70
     0
102
RTVSPost2010Prop52
140
1.0
102
RTVSPost2010PropOp52
 70
     0
102
RTVSPost2010Prop53
 90
        2
102
RTVSPost2010PropOp53
 70
     1
102
RTVSPost2010Prop54
  1
strokes_ogs.tif
102
RTVSPost2010PropOp54
 70
     1
102
RTVSPost2010Prop55
280
     0
102
RTVSPost2010PropOp55
 70
     1
102
RTVSPost2010Prop56
140
1.0
102
RTVSPost2010PropOp56
 70
     1
102
RTVSPost2010Prop57
140
1.0
102
RTVSPost2010PropOp57
 70
     1
102
RTVSPropertyOp0
 70
     1
102
RTVSPropertyOp1
 70
     1
102
RTVSPropertyOp2
 70
     1
102
RTVSPropertyOp3
 70
     1
102
RTVSPropertyOp4
 70
     1
102
RTVSPropertyOp5
 70
     1
102
RTVSPropertyOp6
 70
     1
102
RTVSPropertyOp7
 70
     1
102
RTVSPropertyOp8
 70
     1
102
RTVSPropertyOp9
 70
     1
102
RTVSPropertyOp10
 70
     1
102
RTVSPropertyOp11
 70
     1
102
RTVSPropertyOp12
 70
     1
102
RTVSPropertyOp13
 70
     1
102
RTVSPropertyOp14
 70
     1
102
RTVSPropertyOp15
 70
     1
102
RTVSPropertyOp16
 70
     1
102
RTVSPropertyOp17
 70
     1
102
RTVSPropertyOp18
 70
     1
102
RTVSPropertyOp19
 70
     1
102
RTVSPropertyOp20
 70
     1
102
RTVSPropertyOp21
 70
     1
102
RTVSPropertyOp22
 70
     1
102
RTVSPropertyOp23
 70
     1
102
RTVSPropertyOp24
 70
     1
102
RTVSPropertyOp25
 70
     1
102
RTVSPropertyOp26
 70
     1
102
RTVSPropertyOp27
 70
     1
102
RTVSPropertyOp28
 70
     1
102
RTVSPropertyOp29
 70
     1
102
RTVSPropertyOp30
 70
     1
102
RTVSPropertyOp31
 70
     1
102
RTVSPropertyOp32
 70
     1
102
RTVSPropertyOp33
 70
     1
102
RTVSPropertyOp34
 70
     1
102
RTVSPropertyOp35
 70
     1
102
RTVSPropertyOp36
 70
     1
102
RTVSPropertyOp37
 70
     1
102
RTVSPropertyOp38
 70
     1
102
RTVSPropertyOp39
 70
     1
102
RTVSPropertyOp40
 70
     1
102
RTVSPropertyOp41
 70
     1
102
RTVSPropertyOp42
 70
     1
102
RTVSPropertyOp43
 70
     1
102
RTVSPropertyOp44
 70
     1
102
RTVSPropertyOp45
 70
     1
102
RTVSPropertyOp46
 70
     1
102
RTVSPropertyOp47
 70
     1
102
RTVSPropertyOp48
 70
     1
102
RTVSPropertyOp49
 70
     1
102
RTVSPropertyOp50
 70
     1
102
RTVSPropertyOp51
 70
     0
102
RTVSPropertyOp52
 70
     0
102
RTVSPropertyOp53
 70
     1
102
RTVSPropertyOp54
 70
     1
102
RTVSPropertyOp55
 70
     1
102
RTVSPropertyOp56
 70
     1
102
RTVSPropertyOp57
 70
     1
102
RTVSPropertyOp58
 70
     1
102
RTVSPropertyOp59
 70
     1
102
RTVSPropertyOp60
 70
     1
102
RTVSPropertyOp61
 70
     1
102
RTVSPropertyOp62
 70
     1
  0
XRECORD
  5
7EAF
102
{ACAD_REACTORS
330
7EAE
102
}
330
7EAE
100
AcDbXrecord
280
     1
102
RTVSPost2010Prop28
280
     0
102
RTVSPost2010PropOp28
 70
     1
102
RTVSPost2010Prop29
280
     1
102
RTVSPost2010PropOp29
 70
     1
102
RTVSPost2010Prop30
280
     1
102
RTVSPost2010PropOp30
 70
     1
102
RTVSPost2010Prop31
280
     0
102
RTVSPost2010PropOp31
 70
     1
102
RTVSPost2010Prop32
280
     0
102
RTVSPost2010PropOp32
 70
     1
102
RTVSPost2010Prop33
280
     0
102
RTVSPost2010PropOp33
 70
     1
102
RTVSPost2010Prop34
280
     0
102
RTVSPost2010PropOp34
 70
     1
102
RTVSPost2010Prop35
280
     0
102
RTVSPost2010PropOp35
 70
     1
102
RTVSPost2010Prop36
280
     0
102
RTVSPost2010PropOp36
 70
     1
102
RTVSPost2010Prop37
 90
       50
102
RTVSPost2010PropOp37
 70
     1
102
RTVSPost2010Prop38
140
0.0
102
RTVSPost2010PropOp38
 70
     1
102
RTVSPost2010Prop39
140
1.0
102
RTVSPost2010PropOp39
 70
     1
102
RTVSPost2010Prop40
 90
        0
102
RTVSPost2010PropOp40
 70
     1
102
RTVSPost2010Prop41ColorIndex
 90
       18
102
RTVSPost2010Prop41ColorRGB
 90
        0
102
RTVSPost2010PropOp41
 70
     1
102
RTVSPost2010Prop42
 90
       50
102
RTVSPost2010PropOp42
 70
     1
102
RTVSPost2010Prop43
 90
        3
102
RTVSPost2010PropOp43
 70
     1
102
RTVSPost2010Prop44ColorIndex
 90
        5
102
RTVSPost2010Prop44ColorRGB
 90
      255
102
RTVSPost2010PropOp44
 70
     1
102
RTVSPost2010Prop45
280
     0
102
RTVSPost2010PropOp45
 70
     1
102
RTVSPost2010Prop46
 90
       50
102
RTVSPost2010PropOp46
 70
     1
102
RTVSPost2010Prop47
 90
       50
102
RTVSPost2010PropOp47
 70
     1
102
RTVSPost2010Prop48
 90
       50
102
RTVSPost2010PropOp48
 70
     1
102
RTVSPost2010Prop49
280
     0
102
RTVSPost2010PropOp49
 70
     1
102
RTVSPost2010Prop50
 90
       50
102
RTVSPost2010PropOp50
 70
     1
102
RTVSPost2010Prop51ColorIndex
 90
      256
102
RTVSPost2010Prop51ColorRGB
 90
-16777216
102
RTVSPost2010PropOp51
 70
     0
102
RTVSPost2010Prop52
140
1.0
102
RTVSPost2010PropOp52
 70
     0
102
RTVSPost2010Prop53
 90
        2
102
RTVSPost2010PropOp53
 70
     1
102
RTVSPost2010Prop54
  1
strokes_ogs.tif
102
RTVSPost2010PropOp54
 70
     1
102
RTVSPost2010Prop55
280
     0
102
RTVSPost2010PropOp55
 70
     1
102
RTVSPost2010Prop56
140
1.0
102
RTVSPost2010PropOp56
 70
     1
102
RTVSPost2010Prop57
140
1.0
102
RTVSPost2010PropOp57
 70
     1
102
RTVSPropertyOp0
 70
     1
102
RTVSPropertyOp1
 70
     1
102
RTVSPropertyOp2
 70
     1
102
RTVSPropertyOp3
 70
     1
102
RTVSPropertyOp4
 70
     1
102
RTVSPropertyOp5
 70
     1
102
RTVSPropertyOp6
 70
     1
102
RTVSPropertyOp7
 70
     1
102
RTVSPropertyOp8
 70
     1
102
RTVSPropertyOp9
 70
     1
102
RTVSPropertyOp10
 70
     1
102
RTVSPropertyOp11
 70
     1
102
RTVSPropertyOp12
 70
     1
102
RTVSPropertyOp13
 70
     1
102
RTVSPropertyOp14
 70
     1
102
RTVSPropertyOp15
 70
     1
102
RTVSPropertyOp16
 70
     1
102
RTVSPropertyOp17
 70
     1
102
RTVSPropertyOp18
 70
     1
102
RTVSPropertyOp19
 70
     1
102
RTVSPropertyOp20
 70
     1
102
RTVSPropertyOp21
 70
     1
102
RTVSPropertyOp22
 70
     1
102
RTVSPropertyOp23
 70
     1
102
RTVSPropertyOp24
 70
     1
102
RTVSPropertyOp25
 70
     1
102
RTVSPropertyOp26
 70
     1
102
RTVSPropertyOp27
 70
     1
102
RTVSPropertyOp28
 70
     1
102
RTVSPropertyOp29
 70
     1
102
RTVSPropertyOp30
 70
     1
102
RTVSPropertyOp31
 70
     1
102
RTVSPropertyOp32
 70
     1
102
RTVSPropertyOp33
 70
     1
102
RTVSPropertyOp34
 70
     1
102
RTVSPropertyOp35
 70
     1
102
RTVSPropertyOp36
 70
     1
102
RTVSPropertyOp37
 70
     1
102
RTVSPropertyOp38
 70
     1
102
RTVSPropertyOp39
 70
     1
102
RTVSPropertyOp40
 70
     1
102
RTVSPropertyOp41
 70
     1
102
RTVSPropertyOp42
 70
     1
102
RTVSPropertyOp43
 70
     1
102
RTVSPropertyOp44
 70
     1
102
RTVSPropertyOp45
 70
     1
102
RTVSPropertyOp46
 70
     1
102
RTVSPropertyOp47
 70
     1
102
RTVSPropertyOp48
 70
     1
102
RTVSPropertyOp49
 70
     1
102
RTVSPropertyOp50
 70
     1
102
RTVSPropertyOp51
 70
     0
102
RTVSPropertyOp52
 70
     0
102
RTVSPropertyOp53
 70
     1
102
RTVSPropertyOp54
 70
     1
102
RTVSPropertyOp55
 70
     1
102
RTVSPropertyOp56
 70
     1
102
RTVSPropertyOp57
 70
     1
102
RTVSPropertyOp58
 70
     1
102
RTVSPropertyOp59
 70
     1
102
RTVSPropertyOp60
 70
     1
102
RTVSPropertyOp61
 70
     1
102
RTVSPropertyOp62
 70
     1
  0
XRECORD
  5
7EAB
102
{ACAD_REACTORS
330
7EAA
102
}
330
7EAA
100
AcDbXrecord
280
     1
102
RTVSPost2010Prop28
280
     0
102
RTVSPost2010PropOp28
 70
     1
102
RTVSPost2010Prop29
280
     1
102
RTVSPost2010PropOp29
 70
     1
102
RTVSPost2010Prop30
280
     1
102
RTVSPost2010PropOp30
 70
     1
102
RTVSPost2010Prop31
280
     0
102
RTVSPost2010PropOp31
 70
     1
102
RTVSPost2010Prop32
280
     0
102
RTVSPost2010PropOp32
 70
     1
102
RTVSPost2010Prop33
280
     0
102
RTVSPost2010PropOp33
 70
     1
102
RTVSPost2010Prop34
280
     0
102
RTVSPost2010PropOp34
 70
     1
102
RTVSPost2010Prop35
280
     0
102
RTVSPost2010PropOp35
 70
     1
102
RTVSPost2010Prop36
280
     0
102
RTVSPost2010PropOp36
 70
     1
102
RTVSPost2010Prop37
 90
       50
102
RTVSPost2010PropOp37
 70
     1
102
RTVSPost2010Prop38
140
0.0
102
RTVSPost2010PropOp38
 70
     1
102
RTVSPost2010Prop39
140
1.0
102
RTVSPost2010PropOp39
 70
     1
102
RTVSPost2010Prop40
 90
        0
102
RTVSPost2010PropOp40
 70
     1
102
RTVSPost2010Prop41ColorIndex
 90
       18
102
RTVSPost2010Prop41ColorRGB
 90
        0
102
RTVSPost2010PropOp41
 70
     1
102
RTVSPost2010Prop42
 90
       50
102
RTVSPost2010PropOp42
 70
     1
102
RTVSPost2010Prop43
 90
        3
102
RTVSPost2010PropOp43
 70
     1
102
RTVSPost2010Prop44ColorIndex
 90
        5
102
RTVSPost2010Prop44ColorRGB
 90
      255
102
RTVSPost2010PropOp44
 70
     1
102
RTVSPost2010Prop45
280
     0
102
RTVSPost2010PropOp45
 70
     1
102
RTVSPost2010Prop46
 90
       50
102
RTVSPost2010PropOp46
 70
     1
102
RTVSPost2010Prop47
 90
       50
102
RTVSPost2010PropOp47
 70
     1
102
RTVSPost2010Prop48
 90
       50
102
RTVSPost2010PropOp48
 70
     1
102
RTVSPost2010Prop49
280
     0
102
RTVSPost2010PropOp49
 70
     1
102
RTVSPost2010Prop50
 90
       50
102
RTVSPost2010PropOp50
 70
     1
102
RTVSPost2010Prop51ColorIndex
 90
      256
102
RTVSPost2010Prop51ColorRGB
 90
-16777216
102
RTVSPost2010PropOp51
 70
     0
102
RTVSPost2010Prop52
140
1.0
102
RTVSPost2010PropOp52
 70
     0
102
RTVSPost2010Prop53
 90
        2
102
RTVSPost2010PropOp53
 70
     1
102
RTVSPost2010Prop54
  1
strokes_ogs.tif
102
RTVSPost2010PropOp54
 70
     1
102
RTVSPost2010Prop55
280
     0
102
RTVSPost2010PropOp55
 70
     1
102
RTVSPost2010Prop56
140
1.0
102
RTVSPost2010PropOp56
 70
     1
102
RTVSPost2010Prop57
140
1.0
102
RTVSPost2010PropOp57
 70
     1
102
RTVSPropertyOp0
 70
     1
102
RTVSPropertyOp1
 70
     1
102
RTVSPropertyOp2
 70
     1
102
RTVSPropertyOp3
 70
     1
102
RTVSPropertyOp4
 70
     1
102
RTVSPropertyOp5
 70
     1
102
RTVSPropertyOp6
 70
     1
102
RTVSPropertyOp7
 70
     1
102
RTVSPropertyOp8
 70
     1
102
RTVSPropertyOp9
 70
     1
102
RTVSPropertyOp10
 70
     1
102
RTVSPropertyOp11
 70
     1
102
RTVSPropertyOp12
 70
     1
102
RTVSPropertyOp13
 70
     1
102
RTVSPropertyOp14
 70
     1
102
RTVSPropertyOp15
 70
     1
102
RTVSPropertyOp16
 70
     1
102
RTVSPropertyOp17
 70
     1
102
RTVSPropertyOp18
 70
     1
102
RTVSPropertyOp19
 70
     1
102
RTVSPropertyOp20
 70
     1
102
RTVSPropertyOp21
 70
     1
102
RTVSPropertyOp22
 70
     1
102
RTVSPropertyOp23
 70
     1
102
RTVSPropertyOp24
 70
     1
102
RTVSPropertyOp25
 70
     1
102
RTVSPropertyOp26
 70
     1
102
RTVSPropertyOp27
 70
     1
102
RTVSPropertyOp28
 70
     1
102
RTVSPropertyOp29
 70
     1
102
RTVSPropertyOp30
 70
     1
102
RTVSPropertyOp31
 70
     1
102
RTVSPropertyOp32
 70
     1
102
RTVSPropertyOp33
 70
     1
102
RTVSPropertyOp34
 70
     1
102
RTVSPropertyOp35
 70
     1
102
RTVSPropertyOp36
 70
     1
102
RTVSPropertyOp37
 70
     1
102
RTVSPropertyOp38
 70
     1
102
RTVSPropertyOp39
 70
     1
102
RTVSPropertyOp40
 70
     1
102
RTVSPropertyOp41
 70
     1
102
RTVSPropertyOp42
 70
     1
102
RTVSPropertyOp43
 70
     1
102
RTVSPropertyOp44
 70
     1
102
RTVSPropertyOp45
 70
     1
102
RTVSPropertyOp46
 70
     1
102
RTVSPropertyOp47
 70
     1
102
RTVSPropertyOp48
 70
     1
102
RTVSPropertyOp49
 70
     1
102
RTVSPropertyOp50
 70
     1
102
RTVSPropertyOp51
 70
     0
102
RTVSPropertyOp52
 70
     0
102
RTVSPropertyOp53
 70
     1
102
RTVSPropertyOp54
 70
     1
102
RTVSPropertyOp55
 70
     1
102
RTVSPropertyOp56
 70
     1
102
RTVSPropertyOp57
 70
     1
102
RTVSPropertyOp58
 70
     1
102
RTVSPropertyOp59
 70
     1
102
RTVSPropertyOp60
 70
     1
102
RTVSPropertyOp61
 70
     1
102
RTVSPropertyOp62
 70
     1
  0
XRECORD
  5
7EB9
102
{ACAD_REACTORS
330
7EB8
102
}
330
7EB8
100
AcDbXrecord
280
     1
102
RTVSPost2010Prop28
280
     0
102
RTVSPost2010PropOp28
 70
     1
102
RTVSPost2010Prop29
280
     1
102
RTVSPost2010PropOp29
 70
     1
102
RTVSPost2010Prop30
280
     1
102
RTVSPost2010PropOp30
 70
     1
102
RTVSPost2010Prop31
280
     0
102
RTVSPost2010PropOp31
 70
     1
102
RTVSPost2010Prop32
280
     0
102
RTVSPost2010PropOp32
 70
     1
102
RTVSPost2010Prop33
280
     0
102
RTVSPost2010PropOp33
 70
     1
102
RTVSPost2010Prop34
280
     0
102
RTVSPost2010PropOp34
 70
     1
102
RTVSPost2010Prop35
280
     0
102
RTVSPost2010PropOp35
 70
     1
102
RTVSPost2010Prop36
280
     0
102
RTVSPost2010PropOp36
 70
     1
102
RTVSPost2010Prop37
 90
       50
102
RTVSPost2010PropOp37
 70
     1
102
RTVSPost2010Prop38
140
0.0
102
RTVSPost2010PropOp38
 70
     1
102
RTVSPost2010Prop39
140
1.0
102
RTVSPost2010PropOp39
 70
     1
102
RTVSPost2010Prop40
 90
        0
102
RTVSPost2010PropOp40
 70
     1
102
RTVSPost2010Prop41ColorIndex
 90
       18
102
RTVSPost2010Prop41ColorRGB
 90
        0
102
RTVSPost2010PropOp41
 70
     1
102
RTVSPost2010Prop42
 90
       50
102
RTVSPost2010PropOp42
 70
     1
102
RTVSPost2010Prop43
 90
        3
102
RTVSPost2010PropOp43
 70
     1
102
RTVSPost2010Prop44ColorIndex
 90
        5
102
RTVSPost2010Prop44ColorRGB
 90
      255
102
RTVSPost2010PropOp44
 70
     1
102
RTVSPost2010Prop45
280
     0
102
RTVSPost2010PropOp45
 70
     1
102
RTVSPost2010Prop46
 90
       50
102
RTVSPost2010PropOp46
 70
     1
102
RTVSPost2010Prop47
 90
       50
102
RTVSPost2010PropOp47
 70
     1
102
RTVSPost2010Prop48
 90
       50
102
RTVSPost2010PropOp48
 70
     1
102
RTVSPost2010Prop49
280
     0
102
RTVSPost2010PropOp49
 70
     1
102
RTVSPost2010Prop50
 90
       50
102
RTVSPost2010PropOp50
 70
     1
102
RTVSPost2010Prop51ColorIndex
 90
      256
102
RTVSPost2010Prop51ColorRGB
 90
-16777216
102
RTVSPost2010PropOp51
 70
     0
102
RTVSPost2010Prop52
140
1.0
102
RTVSPost2010PropOp52
 70
     0
102
RTVSPost2010Prop53
 90
        2
102
RTVSPost2010PropOp53
 70
     1
102
RTVSPost2010Prop54
  1
strokes_ogs.tif
102
RTVSPost2010PropOp54
 70
     1
102
RTVSPost2010Prop55
280
     0
102
RTVSPost2010PropOp55
 70
     1
102
RTVSPost2010Prop56
140
1.0
102
RTVSPost2010PropOp56
 70
     1
102
RTVSPost2010Prop57
140
1.0
102
RTVSPost2010PropOp57
 70
     1
102
RTVSPropertyOp0
 70
     1
102
RTVSPropertyOp1
 70
     1
102
RTVSPropertyOp2
 70
     1
102
RTVSPropertyOp3
 70
     1
102
RTVSPropertyOp4
 70
     1
102
RTVSPropertyOp5
 70
     1
102
RTVSPropertyOp6
 70
     1
102
RTVSPropertyOp7
 70
     1
102
RTVSPropertyOp8
 70
     1
102
RTVSPropertyOp9
 70
     1
102
RTVSPropertyOp10
 70
     1
102
RTVSPropertyOp11
 70
     1
102
RTVSPropertyOp12
 70
     1
102
RTVSPropertyOp13
 70
     1
102
RTVSPropertyOp14
 70
     1
102
RTVSPropertyOp15
 70
     1
102
RTVSPropertyOp16
 70
     1
102
RTVSPropertyOp17
 70
     1
102
RTVSPropertyOp18
 70
     1
102
RTVSPropertyOp19
 70
     1
102
RTVSPropertyOp20
 70
     1
102
RTVSPropertyOp21
 70
     1
102
RTVSPropertyOp22
 70
     1
102
RTVSPropertyOp23
 70
     1
102
RTVSPropertyOp24
 70
     1
102
RTVSPropertyOp25
 70
     1
102
RTVSPropertyOp26
 70
     1
102
RTVSPropertyOp27
 70
     1
102
RTVSPropertyOp28
 70
     1
102
RTVSPropertyOp29
 70
     1
102
RTVSPropertyOp30
 70
     1
102
RTVSPropertyOp31
 70
     1
102
RTVSPropertyOp32
 70
     1
102
RTVSPropertyOp33
 70
     1
102
RTVSPropertyOp34
 70
     1
102
RTVSPropertyOp35
 70
     1
102
RTVSPropertyOp36
 70
     1
102
RTVSPropertyOp37
 70
     1
102
RTVSPropertyOp38
 70
     1
102
RTVSPropertyOp39
 70
     1
102
RTVSPropertyOp40
 70
     1
102
RTVSPropertyOp41
 70
     1
102
RTVSPropertyOp42
 70
     1
102
RTVSPropertyOp43
 70
     1
102
RTVSPropertyOp44
 70
     1
102
RTVSPropertyOp45
 70
     1
102
RTVSPropertyOp46
 70
     1
102
RTVSPropertyOp47
 70
     1
102
RTVSPropertyOp48
 70
     1
102
RTVSPropertyOp49
 70
     1
102
RTVSPropertyOp50
 70
     1
102
RTVSPropertyOp51
 70
     0
102
RTVSPropertyOp52
 70
     0
102
RTVSPropertyOp53
 70
     1
102
RTVSPropertyOp54
 70
     1
102
RTVSPropertyOp55
 70
     1
102
RTVSPropertyOp56
 70
     1
102
RTVSPropertyOp57
 70
     1
102
RTVSPropertyOp58
 70
     1
102
RTVSPropertyOp59
 70
     1
102
RTVSPropertyOp60
 70
     1
102
RTVSPropertyOp61
 70
     1
102
RTVSPropertyOp62
 70
     1
  0
XRECORD
  5
7EC1
102
{ACAD_REACTORS
330
7EC0
102
}
330
7EC0
100
AcDbXrecord
280
     1
102
RTVSPost2010Prop28
280
     0
102
RTVSPost2010PropOp28
 70
     1
102
RTVSPost2010Prop29
280
     1
102
RTVSPost2010PropOp29
 70
     1
102
RTVSPost2010Prop30
280
     1
102
RTVSPost2010PropOp30
 70
     1
102
RTVSPost2010Prop31
280
     0
102
RTVSPost2010PropOp31
 70
     1
102
RTVSPost2010Prop32
280
     0
102
RTVSPost2010PropOp32
 70
     1
102
RTVSPost2010Prop33
280
     0
102
RTVSPost2010PropOp33
 70
     1
102
RTVSPost2010Prop34
280
     0
102
RTVSPost2010PropOp34
 70
     1
102
RTVSPost2010Prop35
280
     0
102
RTVSPost2010PropOp35
 70
     1
102
RTVSPost2010Prop36
280
     0
102
RTVSPost2010PropOp36
 70
     1
102
RTVSPost2010Prop37
 90
       50
102
RTVSPost2010PropOp37
 70
     1
102
RTVSPost2010Prop38
140
0.0
102
RTVSPost2010PropOp38
 70
     1
102
RTVSPost2010Prop39
140
1.0
102
RTVSPost2010PropOp39
 70
     1
102
RTVSPost2010Prop40
 90
        0
102
RTVSPost2010PropOp40
 70
     1
102
RTVSPost2010Prop41ColorIndex
 90
       18
102
RTVSPost2010Prop41ColorRGB
 90
        0
102
RTVSPost2010PropOp41
 70
     1
102
RTVSPost2010Prop42
 90
       50
102
RTVSPost2010PropOp42
 70
     1
102
RTVSPost2010Prop43
 90
        3
102
RTVSPost2010PropOp43
 70
     1
102
RTVSPost2010Prop44ColorIndex
 90
        5
102
RTVSPost2010Prop44ColorRGB
 90
      255
102
RTVSPost2010PropOp44
 70
     1
102
RTVSPost2010Prop45
280
     0
102
RTVSPost2010PropOp45
 70
     1
102
RTVSPost2010Prop46
 90
       50
102
RTVSPost2010PropOp46
 70
     1
102
RTVSPost2010Prop47
 90
       50
102
RTVSPost2010PropOp47
 70
     1
102
RTVSPost2010Prop48
 90
       50
102
RTVSPost2010PropOp48
 70
     1
102
RTVSPost2010Prop49
280
     0
102
RTVSPost2010PropOp49
 70
     1
102
RTVSPost2010Prop50
 90
       50
102
RTVSPost2010PropOp50
 70
     1
102
RTVSPost2010Prop51ColorIndex
 90
      256
102
RTVSPost2010Prop51ColorRGB
 90
-16777216
102
RTVSPost2010PropOp51
 70
     0
102
RTVSPost2010Prop52
140
1.0
102
RTVSPost2010PropOp52
 70
     0
102
RTVSPost2010Prop53
 90
        2
102
RTVSPost2010PropOp53
 70
     1
102
RTVSPost2010Prop54
  1
strokes_ogs.tif
102
RTVSPost2010PropOp54
 70
     1
102
RTVSPost2010Prop55
280
     0
102
RTVSPost2010PropOp55
 70
     1
102
RTVSPost2010Prop56
140
1.0
102
RTVSPost2010PropOp56
 70
     1
102
RTVSPost2010Prop57
140
1.0
102
RTVSPost2010PropOp57
 70
     1
102
RTVSPropertyOp0
 70
     1
102
RTVSPropertyOp1
 70
     1
102
RTVSPropertyOp2
 70
     1
102
RTVSPropertyOp3
 70
     1
102
RTVSPropertyOp4
 70
     1
102
RTVSPropertyOp5
 70
     1
102
RTVSPropertyOp6
 70
     1
102
RTVSPropertyOp7
 70
     1
102
RTVSPropertyOp8
 70
     1
102
RTVSPropertyOp9
 70
     1
102
RTVSPropertyOp10
 70
     1
102
RTVSPropertyOp11
 70
     1
102
RTVSPropertyOp12
 70
     1
102
RTVSPropertyOp13
 70
     1
102
RTVSPropertyOp14
 70
     1
102
RTVSPropertyOp15
 70
     1
102
RTVSPropertyOp16
 70
     1
102
RTVSPropertyOp17
 70
     1
102
RTVSPropertyOp18
 70
     1
102
RTVSPropertyOp19
 70
     1
102
RTVSPropertyOp20
 70
     1
102
RTVSPropertyOp21
 70
     1
102
RTVSPropertyOp22
 70
     1
102
RTVSPropertyOp23
 70
     1
102
RTVSPropertyOp24
 70
     1
102
RTVSPropertyOp25
 70
     1
102
RTVSPropertyOp26
 70
     1
102
RTVSPropertyOp27
 70
     1
102
RTVSPropertyOp28
 70
     1
102
RTVSPropertyOp29
 70
     1
102
RTVSPropertyOp30
 70
     1
102
RTVSPropertyOp31
 70
     1
102
RTVSPropertyOp32
 70
     1
102
RTVSPropertyOp33
 70
     1
102
RTVSPropertyOp34
 70
     1
102
RTVSPropertyOp35
 70
     1
102
RTVSPropertyOp36
 70
     1
102
RTVSPropertyOp37
 70
     1
102
RTVSPropertyOp38
 70
     1
102
RTVSPropertyOp39
 70
     1
102
RTVSPropertyOp40
 70
     1
102
RTVSPropertyOp41
 70
     1
102
RTVSPropertyOp42
 70
     1
102
RTVSPropertyOp43
 70
     1
102
RTVSPropertyOp44
 70
     1
102
RTVSPropertyOp45
 70
     1
102
RTVSPropertyOp46
 70
     1
102
RTVSPropertyOp47
 70
     1
102
RTVSPropertyOp48
 70
     1
102
RTVSPropertyOp49
 70
     1
102
RTVSPropertyOp50
 70
     1
102
RTVSPropertyOp51
 70
     0
102
RTVSPropertyOp52
 70
     0
102
RTVSPropertyOp53
 70
     1
102
RTVSPropertyOp54
 70
     1
102
RTVSPropertyOp55
 70
     1
102
RTVSPropertyOp56
 70
     1
102
RTVSPropertyOp57
 70
     1
102
RTVSPropertyOp58
 70
     1
102
RTVSPropertyOp59
 70
     1
102
RTVSPropertyOp60
 70
     1
102
RTVSPropertyOp61
 70
     1
102
RTVSPropertyOp62
 70
     1
  0
XRECORD
  5
7EB3
102
{ACAD_REACTORS
330
7EB2
102
}
330
7EB2
100
AcDbXrecord
280
     1
102
RTVSPost2010Prop28
280
     0
102
RTVSPost2010PropOp28
 70
     1
102
RTVSPost2010Prop29
280
     1
102
RTVSPost2010PropOp29
 70
     1
102
RTVSPost2010Prop30
280
     1
102
RTVSPost2010PropOp30
 70
     1
102
RTVSPost2010Prop31
280
     0
102
RTVSPost2010PropOp31
 70
     1
102
RTVSPost2010Prop32
280
     0
102
RTVSPost2010PropOp32
 70
     1
102
RTVSPost2010Prop33
280
     0
102
RTVSPost2010PropOp33
 70
     1
102
RTVSPost2010Prop34
280
     0
102
RTVSPost2010PropOp34
 70
     1
102
RTVSPost2010Prop35
280
     0
102
RTVSPost2010PropOp35
 70
     1
102
RTVSPost2010Prop36
280
     0
102
RTVSPost2010PropOp36
 70
     1
102
RTVSPost2010Prop37
 90
       50
102
RTVSPost2010PropOp37
 70
     1
102
RTVSPost2010Prop38
140
0.0
102
RTVSPost2010PropOp38
 70
     1
102
RTVSPost2010Prop39
140
1.0
102
RTVSPost2010PropOp39
 70
     1
102
RTVSPost2010Prop40
 90
        0
102
RTVSPost2010PropOp40
 70
     1
102
RTVSPost2010Prop41ColorIndex
 90
       18
102
RTVSPost2010Prop41ColorRGB
 90
        0
102
RTVSPost2010PropOp41
 70
     1
102
RTVSPost2010Prop42
 90
       50
102
RTVSPost2010PropOp42
 70
     1
102
RTVSPost2010Prop43
 90
        3
102
RTVSPost2010PropOp43
 70
     1
102
RTVSPost2010Prop44ColorIndex
 90
        5
102
RTVSPost2010Prop44ColorRGB
 90
      255
102
RTVSPost2010PropOp44
 70
     1
102
RTVSPost2010Prop45
280
     0
102
RTVSPost2010PropOp45
 70
     1
102
RTVSPost2010Prop46
 90
       50
102
RTVSPost2010PropOp46
 70
     1
102
RTVSPost2010Prop47
 90
       50
102
RTVSPost2010PropOp47
 70
     1
102
RTVSPost2010Prop48
 90
       50
102
RTVSPost2010PropOp48
 70
     1
102
RTVSPost2010Prop49
280
     0
102
RTVSPost2010PropOp49
 70
     1
102
RTVSPost2010Prop50
 90
       50
102
RTVSPost2010PropOp50
 70
     1
102
RTVSPost2010Prop51ColorIndex
 90
      256
102
RTVSPost2010Prop51ColorRGB
 90
-16777216
102
RTVSPost2010PropOp51
 70
     0
102
RTVSPost2010Prop52
140
1.0
102
RTVSPost2010PropOp52
 70
     0
102
RTVSPost2010Prop53
 90
        2
102
RTVSPost2010PropOp53
 70
     1
102
RTVSPost2010Prop54
  1
strokes_ogs.tif
102
RTVSPost2010PropOp54
 70
     1
102
RTVSPost2010Prop55
280
     0
102
RTVSPost2010PropOp55
 70
     1
102
RTVSPost2010Prop56
140
1.0
102
RTVSPost2010PropOp56
 70
     1
102
RTVSPost2010Prop57
140
1.0
102
RTVSPost2010PropOp57
 70
     1
102
RTVSPropertyOp0
 70
     1
102
RTVSPropertyOp1
 70
     1
102
RTVSPropertyOp2
 70
     1
102
RTVSPropertyOp3
 70
     1
102
RTVSPropertyOp4
 70
     1
102
RTVSPropertyOp5
 70
     1
102
RTVSPropertyOp6
 70
     1
102
RTVSPropertyOp7
 70
     1
102
RTVSPropertyOp8
 70
     1
102
RTVSPropertyOp9
 70
     1
102
RTVSPropertyOp10
 70
     1
102
RTVSPropertyOp11
 70
     1
102
RTVSPropertyOp12
 70
     1
102
RTVSPropertyOp13
 70
     1
102
RTVSPropertyOp14
 70
     1
102
RTVSPropertyOp15
 70
     1
102
RTVSPropertyOp16
 70
     1
102
RTVSPropertyOp17
 70
     1
102
RTVSPropertyOp18
 70
     1
102
RTVSPropertyOp19
 70
     1
102
RTVSPropertyOp20
 70
     1
102
RTVSPropertyOp21
 70
     1
102
RTVSPropertyOp22
 70
     1
102
RTVSPropertyOp23
 70
     1
102
RTVSPropertyOp24
 70
     1
102
RTVSPropertyOp25
 70
     1
102
RTVSPropertyOp26
 70
     1
102
RTVSPropertyOp27
 70
     1
102
RTVSPropertyOp28
 70
     1
102
RTVSPropertyOp29
 70
     1
102
RTVSPropertyOp30
 70
     1
102
RTVSPropertyOp31
 70
     1
102
RTVSPropertyOp32
 70
     1
102
RTVSPropertyOp33
 70
     1
102
RTVSPropertyOp34
 70
     1
102
RTVSPropertyOp35
 70
     1
102
RTVSPropertyOp36
 70
     1
102
RTVSPropertyOp37
 70
     1
102
RTVSPropertyOp38
 70
     1
102
RTVSPropertyOp39
 70
     1
102
RTVSPropertyOp40
 70
     1
102
RTVSPropertyOp41
 70
     1
102
RTVSPropertyOp42
 70
     1
102
RTVSPropertyOp43
 70
     1
102
RTVSPropertyOp44
 70
     1
102
RTVSPropertyOp45
 70
     1
102
RTVSPropertyOp46
 70
     1
102
RTVSPropertyOp47
 70
     1
102
RTVSPropertyOp48
 70
     1
102
RTVSPropertyOp49
 70
     1
102
RTVSPropertyOp50
 70
     1
102
RTVSPropertyOp51
 70
     0
102
RTVSPropertyOp52
 70
     0
102
RTVSPropertyOp53
 70
     1
102
RTVSPropertyOp54
 70
     1
102
RTVSPropertyOp55
 70
     1
102
RTVSPropertyOp56
 70
     1
102
RTVSPropertyOp57
 70
     1
102
RTVSPropertyOp58
 70
     1
102
RTVSPropertyOp59
 70
     1
102
RTVSPropertyOp60
 70
     1
102
RTVSPropertyOp61
 70
     1
102
RTVSPropertyOp62
 70
     1
  0
XRECORD
  5
7EB7
102
{ACAD_REACTORS
330
7EB6
102
}
330
7EB6
100
AcDbXrecord
280
     1
102
RTVSPost2010Prop28
280
     0
102
RTVSPost2010PropOp28
 70
     1
102
RTVSPost2010Prop29
280
     1
102
RTVSPost2010PropOp29
 70
     1
102
RTVSPost2010Prop30
280
     1
102
RTVSPost2010PropOp30
 70
     1
102
RTVSPost2010Prop31
280
     0
102
RTVSPost2010PropOp31
 70
     1
102
RTVSPost2010Prop32
280
     0
102
RTVSPost2010PropOp32
 70
     1
102
RTVSPost2010Prop33
280
     0
102
RTVSPost2010PropOp33
 70
     1
102
RTVSPost2010Prop34
280
     0
102
RTVSPost2010PropOp34
 70
     1
102
RTVSPost2010Prop35
280
     0
102
RTVSPost2010PropOp35
 70
     1
102
RTVSPost2010Prop36
280
     0
102
RTVSPost2010PropOp36
 70
     1
102
RTVSPost2010Prop37
 90
       50
102
RTVSPost2010PropOp37
 70
     1
102
RTVSPost2010Prop38
140
0.0
102
RTVSPost2010PropOp38
 70
     1
102
RTVSPost2010Prop39
140
1.0
102
RTVSPost2010PropOp39
 70
     1
102
RTVSPost2010Prop40
 90
        0
102
RTVSPost2010PropOp40
 70
     1
102
RTVSPost2010Prop41ColorIndex
 90
       18
102
RTVSPost2010Prop41ColorRGB
 90
        0
102
RTVSPost2010PropOp41
 70
     1
102
RTVSPost2010Prop42
 90
       50
102
RTVSPost2010PropOp42
 70
     1
102
RTVSPost2010Prop43
 90
        3
102
RTVSPost2010PropOp43
 70
     1
102
RTVSPost2010Prop44ColorIndex
 90
        5
102
RTVSPost2010Prop44ColorRGB
 90
      255
102
RTVSPost2010PropOp44
 70
     1
102
RTVSPost2010Prop45
280
     0
102
RTVSPost2010PropOp45
 70
     1
102
RTVSPost2010Prop46
 90
       50
102
RTVSPost2010PropOp46
 70
     1
102
RTVSPost2010Prop47
 90
       50
102
RTVSPost2010PropOp47
 70
     1
102
RTVSPost2010Prop48
 90
       50
102
RTVSPost2010PropOp48
 70
     1
102
RTVSPost2010Prop49
280
     0
102
RTVSPost2010PropOp49
 70
     1
102
RTVSPost2010Prop50
 90
       50
102
RTVSPost2010PropOp50
 70
     1
102
RTVSPost2010Prop51ColorIndex
 90
      256
102
RTVSPost2010Prop51ColorRGB
 90
-16777216
102
RTVSPost2010PropOp51
 70
     0
102
RTVSPost2010Prop52
140
1.0
102
RTVSPost2010PropOp52
 70
     0
102
RTVSPost2010Prop53
 90
        2
102
RTVSPost2010PropOp53
 70
     1
102
RTVSPost2010Prop54
  1
strokes_ogs.tif
102
RTVSPost2010PropOp54
 70
     1
102
RTVSPost2010Prop55
280
     0
102
RTVSPost2010PropOp55
 70
     1
102
RTVSPost2010Prop56
140
1.0
102
RTVSPost2010PropOp56
 70
     1
102
RTVSPost2010Prop57
140
1.0
102
RTVSPost2010PropOp57
 70
     1
102
RTVSPropertyOp0
 70
     1
102
RTVSPropertyOp1
 70
     1
102
RTVSPropertyOp2
 70
     1
102
RTVSPropertyOp3
 70
     1
102
RTVSPropertyOp4
 70
     1
102
RTVSPropertyOp5
 70
     1
102
RTVSPropertyOp6
 70
     1
102
RTVSPropertyOp7
 70
     1
102
RTVSPropertyOp8
 70
     1
102
RTVSPropertyOp9
 70
     1
102
RTVSPropertyOp10
 70
     1
102
RTVSPropertyOp11
 70
     1
102
RTVSPropertyOp12
 70
     1
102
RTVSPropertyOp13
 70
     1
102
RTVSPropertyOp14
 70
     1
102
RTVSPropertyOp15
 70
     1
102
RTVSPropertyOp16
 70
     1
102
RTVSPropertyOp17
 70
     1
102
RTVSPropertyOp18
 70
     1
102
RTVSPropertyOp19
 70
     1
102
RTVSPropertyOp20
 70
     1
102
RTVSPropertyOp21
 70
     1
102
RTVSPropertyOp22
 70
     1
102
RTVSPropertyOp23
 70
     1
102
RTVSPropertyOp24
 70
     1
102
RTVSPropertyOp25
 70
     1
102
RTVSPropertyOp26
 70
     1
102
RTVSPropertyOp27
 70
     1
102
RTVSPropertyOp28
 70
     1
102
RTVSPropertyOp29
 70
     1
102
RTVSPropertyOp30
 70
     1
102
RTVSPropertyOp31
 70
     1
102
RTVSPropertyOp32
 70
     1
102
RTVSPropertyOp33
 70
     1
102
RTVSPropertyOp34
 70
     1
102
RTVSPropertyOp35
 70
     1
102
RTVSPropertyOp36
 70
     1
102
RTVSPropertyOp37
 70
     1
102
RTVSPropertyOp38
 70
     1
102
RTVSPropertyOp39
 70
     1
102
RTVSPropertyOp40
 70
     1
102
RTVSPropertyOp41
 70
     1
102
RTVSPropertyOp42
 70
     1
102
RTVSPropertyOp43
 70
     1
102
RTVSPropertyOp44
 70
     1
102
RTVSPropertyOp45
 70
     1
102
RTVSPropertyOp46
 70
     1
102
RTVSPropertyOp47
 70
     1
102
RTVSPropertyOp48
 70
     1
102
RTVSPropertyOp49
 70
     1
102
RTVSPropertyOp50
 70
     1
102
RTVSPropertyOp51
 70
     0
102
RTVSPropertyOp52
 70
     0
102
RTVSPropertyOp53
 70
     1
102
RTVSPropertyOp54
 70
     1
102
RTVSPropertyOp55
 70
     1
102
RTVSPropertyOp56
 70
     1
102
RTVSPropertyOp57
 70
     1
102
RTVSPropertyOp58
 70
     1
102
RTVSPropertyOp59
 70
     1
102
RTVSPropertyOp60
 70
     1
102
RTVSPropertyOp61
 70
     1
102
RTVSPropertyOp62
 70
     1
  0
XRECORD
  5
7ED7
102
{ACAD_REACTORS
330
7ED6
102
}
330
7ED6
100
AcDbXrecord
280
     1
102
RTVSPost2010Prop28
280
     0
102
RTVSPost2010PropOp28
 70
     0
102
RTVSPost2010Prop29
280
     1
102
RTVSPost2010PropOp29
 70
     0
102
RTVSPost2010Prop30
280
     1
102
RTVSPost2010PropOp30
 70
     0
102
RTVSPost2010Prop31
280
     0
102
RTVSPost2010PropOp31
 70
     0
102
RTVSPost2010Prop32
280
     0
102
RTVSPost2010PropOp32
 70
     0
102
RTVSPost2010Prop33
280
     0
102
RTVSPost2010PropOp33
 70
     0
102
RTVSPost2010Prop34
280
     0
102
RTVSPost2010PropOp34
 70
     0
102
RTVSPost2010Prop35
280
     0
102
RTVSPost2010PropOp35
 70
     0
102
RTVSPost2010Prop36
280
     0
102
RTVSPost2010PropOp36
 70
     0
102
RTVSPost2010Prop37
 90
       50
102
RTVSPost2010PropOp37
 70
     0
102
RTVSPost2010Prop38
140
0.0
102
RTVSPost2010PropOp38
 70
     0
102
RTVSPost2010Prop39
140
1.0
102
RTVSPost2010PropOp39
 70
     0
102
RTVSPost2010Prop40
 90
        0
102
RTVSPost2010PropOp40
 70
     0
102
RTVSPost2010Prop41ColorIndex
 90
       18
102
RTVSPost2010Prop41ColorRGB
 90
        0
102
RTVSPost2010PropOp41
 70
     0
102
RTVSPost2010Prop42
 90
       50
102
RTVSPost2010PropOp42
 70
     0
102
RTVSPost2010Prop43
 90
        3
102
RTVSPost2010PropOp43
 70
     0
102
RTVSPost2010Prop44ColorIndex
 90
        5
102
RTVSPost2010Prop44ColorRGB
 90
      255
102
RTVSPost2010PropOp44
 70
     0
102
RTVSPost2010Prop45
280
     0
102
RTVSPost2010PropOp45
 70
     0
102
RTVSPost2010Prop46
 90
       50
102
RTVSPost2010PropOp46
 70
     0
102
RTVSPost2010Prop47
 90
       50
102
RTVSPost2010PropOp47
 70
     0
102
RTVSPost2010Prop48
 90
       50
102
RTVSPost2010PropOp48
 70
     0
102
RTVSPost2010Prop49
280
     0
102
RTVSPost2010PropOp49
 70
     0
102
RTVSPost2010Prop50
 90
       50
102
RTVSPost2010PropOp50
 70
     0
102
RTVSPost2010Prop51ColorIndex
 90
      256
102
RTVSPost2010Prop51ColorRGB
 90
-16777216
102
RTVSPost2010PropOp51
 70
     0
102
RTVSPost2010Prop52
140
1.0
102
RTVSPost2010PropOp52
 70
     0
102
RTVSPost2010Prop53
 90
        2
102
RTVSPost2010PropOp53
 70
     0
102
RTVSPost2010Prop54
  1
strokes_ogs.tif
102
RTVSPost2010PropOp54
 70
     0
102
RTVSPost2010Prop55
280
     0
102
RTVSPost2010PropOp55
 70
     0
102
RTVSPost2010Prop56
140
1.0
102
RTVSPost2010PropOp56
 70
     0
102
RTVSPost2010Prop57
140
1.0
102
RTVSPost2010PropOp57
 70
     0
102
RTVSPropertyOp0
 70
     0
102
RTVSPropertyOp1
 70
     0
102
RTVSPropertyOp2
 70
     0
102
RTVSPropertyOp3
 70
     0
102
RTVSPropertyOp4
 70
     0
102
RTVSPropertyOp5
 70
     0
102
RTVSPropertyOp6
 70
     0
102
RTVSPropertyOp7
 70
     0
102
RTVSPropertyOp8
 70
     0
102
RTVSPropertyOp9
 70
     0
102
RTVSPropertyOp10
 70
     0
102
RTVSPropertyOp11
 70
     0
102
RTVSPropertyOp12
 70
     0
102
RTVSPropertyOp13
 70
     0
102
RTVSPropertyOp14
 70
     2
102
RTVSPropertyOp15
 70
     0
102
RTVSPropertyOp16
 70
     0
102
RTVSPropertyOp17
 70
     0
102
RTVSPropertyOp18
 70
     0
102
RTVSPropertyOp19
 70
     0
102
RTVSPropertyOp20
 70
     0
102
RTVSPropertyOp21
 70
     0
102
RTVSPropertyOp22
 70
     0
102
RTVSPropertyOp23
 70
     0
102
RTVSPropertyOp24
 70
     0
102
RTVSPropertyOp25
 70
     0
102
RTVSPropertyOp26
 70
     0
102
RTVSPropertyOp27
 70
     0
102
RTVSPropertyOp28
 70
     0
102
RTVSPropertyOp29
 70
     0
102
RTVSPropertyOp30
 70
     0
102
RTVSPropertyOp31
 70
     0
102
RTVSPropertyOp32
 70
     0
102
RTVSPropertyOp33
 70
     0
102
RTVSPropertyOp34
 70
     0
102
RTVSPropertyOp35
 70
     0
102
RTVSPropertyOp36
 70
     0
102
RTVSPropertyOp37
 70
     0
102
RTVSPropertyOp38
 70
     0
102
RTVSPropertyOp39
 70
     0
102
RTVSPropertyOp40
 70
     0
102
RTVSPropertyOp41
 70
     0
102
RTVSPropertyOp42
 70
     0
102
RTVSPropertyOp43
 70
     0
102
RTVSPropertyOp44
 70
     0
102
RTVSPropertyOp45
 70
     0
102
RTVSPropertyOp46
 70
     0
102
RTVSPropertyOp47
 70
     0
102
RTVSPropertyOp48
 70
     0
102
RTVSPropertyOp49
 70
     0
102
RTVSPropertyOp50
 70
     0
102
RTVSPropertyOp51
 70
     0
102
RTVSPropertyOp52
 70
     0
102
RTVSPropertyOp53
 70
     0
102
RTVSPropertyOp54
 70
     0
102
RTVSPropertyOp55
 70
     0
102
RTVSPropertyOp56
 70
     0
102
RTVSPropertyOp57
 70
     0
102
RTVSPropertyOp58
 70
     0
102
RTVSPropertyOp59
 70
     0
102
RTVSPropertyOp60
 70
     0
102
RTVSPropertyOp61
 70
     0
102
RTVSPropertyOp62
 70
     0
  0
XRECORD
  5
7EBF
102
{ACAD_REACTORS
330
7EBE
102
}
330
7EBE
100
AcDbXrecord
280
     1
102
RTVSPost2010Prop28
280
     0
102
RTVSPost2010PropOp28
 70
     1
102
RTVSPost2010Prop29
280
     1
102
RTVSPost2010PropOp29
 70
     1
102
RTVSPost2010Prop30
280
     1
102
RTVSPost2010PropOp30
 70
     1
102
RTVSPost2010Prop31
280
     0
102
RTVSPost2010PropOp31
 70
     1
102
RTVSPost2010Prop32
280
     0
102
RTVSPost2010PropOp32
 70
     1
102
RTVSPost2010Prop33
280
     0
102
RTVSPost2010PropOp33
 70
     1
102
RTVSPost2010Prop34
280
     0
102
RTVSPost2010PropOp34
 70
     1
102
RTVSPost2010Prop35
280
     0
102
RTVSPost2010PropOp35
 70
     1
102
RTVSPost2010Prop36
280
     0
102
RTVSPost2010PropOp36
 70
     1
102
RTVSPost2010Prop37
 90
       50
102
RTVSPost2010PropOp37
 70
     1
102
RTVSPost2010Prop38
140
0.0
102
RTVSPost2010PropOp38
 70
     1
102
RTVSPost2010Prop39
140
1.0
102
RTVSPost2010PropOp39
 70
     1
102
RTVSPost2010Prop40
 90
        0
102
RTVSPost2010PropOp40
 70
     1
102
RTVSPost2010Prop41ColorIndex
 90
       18
102
RTVSPost2010Prop41ColorRGB
 90
        0
102
RTVSPost2010PropOp41
 70
     1
102
RTVSPost2010Prop42
 90
       50
102
RTVSPost2010PropOp42
 70
     1
102
RTVSPost2010Prop43
 90
        3
102
RTVSPost2010PropOp43
 70
     1
102
RTVSPost2010Prop44ColorIndex
 90
        5
102
RTVSPost2010Prop44ColorRGB
 90
      255
102
RTVSPost2010PropOp44
 70
     1
102
RTVSPost2010Prop45
280
     0
102
RTVSPost2010PropOp45
 70
     1
102
RTVSPost2010Prop46
 90
       50
102
RTVSPost2010PropOp46
 70
     1
102
RTVSPost2010Prop47
 90
       50
102
RTVSPost2010PropOp47
 70
     1
102
RTVSPost2010Prop48
 90
       50
102
RTVSPost2010PropOp48
 70
     1
102
RTVSPost2010Prop49
280
     0
102
RTVSPost2010PropOp49
 70
     1
102
RTVSPost2010Prop50
 90
       50
102
RTVSPost2010PropOp50
 70
     1
102
RTVSPost2010Prop51ColorIndex
 90
      256
102
RTVSPost2010Prop51ColorRGB
 90
-16777216
102
RTVSPost2010PropOp51
 70
     0
102
RTVSPost2010Prop52
140
1.0
102
RTVSPost2010PropOp52
 70
     0
102
RTVSPost2010Prop53
 90
        2
102
RTVSPost2010PropOp53
 70
     1
102
RTVSPost2010Prop54
  1
strokes_ogs.tif
102
RTVSPost2010PropOp54
 70
     1
102
RTVSPost2010Prop55
280
     0
102
RTVSPost2010PropOp55
 70
     1
102
RTVSPost2010Prop56
140
1.0
102
RTVSPost2010PropOp56
 70
     1
102
RTVSPost2010Prop57
140
1.0
102
RTVSPost2010PropOp57
 70
     1
102
RTVSPropertyOp0
 70
     1
102
RTVSPropertyOp1
 70
     1
102
RTVSPropertyOp2
 70
     1
102
RTVSPropertyOp3
 70
     1
102
RTVSPropertyOp4
 70
     1
102
RTVSPropertyOp5
 70
     1
102
RTVSPropertyOp6
 70
     1
102
RTVSPropertyOp7
 70
     1
102
RTVSPropertyOp8
 70
     1
102
RTVSPropertyOp9
 70
     1
102
RTVSPropertyOp10
 70
     1
102
RTVSPropertyOp11
 70
     1
102
RTVSPropertyOp12
 70
     1
102
RTVSPropertyOp13
 70
     1
102
RTVSPropertyOp14
 70
     1
102
RTVSPropertyOp15
 70
     1
102
RTVSPropertyOp16
 70
     1
102
RTVSPropertyOp17
 70
     1
102
RTVSPropertyOp18
 70
     1
102
RTVSPropertyOp19
 70
     1
102
RTVSPropertyOp20
 70
     1
102
RTVSPropertyOp21
 70
     1
102
RTVSPropertyOp22
 70
     1
102
RTVSPropertyOp23
 70
     1
102
RTVSPropertyOp24
 70
     1
102
RTVSPropertyOp25
 70
     1
102
RTVSPropertyOp26
 70
     1
102
RTVSPropertyOp27
 70
     1
102
RTVSPropertyOp28
 70
     1
102
RTVSPropertyOp29
 70
     1
102
RTVSPropertyOp30
 70
     1
102
RTVSPropertyOp31
 70
     1
102
RTVSPropertyOp32
 70
     1
102
RTVSPropertyOp33
 70
     1
102
RTVSPropertyOp34
 70
     1
102
RTVSPropertyOp35
 70
     1
102
RTVSPropertyOp36
 70
     1
102
RTVSPropertyOp37
 70
     1
102
RTVSPropertyOp38
 70
     1
102
RTVSPropertyOp39
 70
     1
102
RTVSPropertyOp40
 70
     1
102
RTVSPropertyOp41
 70
     1
102
RTVSPropertyOp42
 70
     1
102
RTVSPropertyOp43
 70
     1
102
RTVSPropertyOp44
 70
     1
102
RTVSPropertyOp45
 70
     1
102
RTVSPropertyOp46
 70
     1
102
RTVSPropertyOp47
 70
     1
102
RTVSPropertyOp48
 70
     1
102
RTVSPropertyOp49
 70
     1
102
RTVSPropertyOp50
 70
     1
102
RTVSPropertyOp51
 70
     0
102
RTVSPropertyOp52
 70
     0
102
RTVSPropertyOp53
 70
     1
102
RTVSPropertyOp54
 70
     1
102
RTVSPropertyOp55
 70
     1
102
RTVSPropertyOp56
 70
     1
102
RTVSPropertyOp57
 70
     1
102
RTVSPropertyOp58
 70
     1
102
RTVSPropertyOp59
 70
     1
102
RTVSPropertyOp60
 70
     1
102
RTVSPropertyOp61
 70
     1
102
RTVSPropertyOp62
 70
     1
  0
XRECORD
  5
7EA3
102
{ACAD_REACTORS
330
7EA2
102
}
330
7EA2
100
AcDbXrecord
280
     1
102
RTVSPost2010Prop28
280
     0
102
RTVSPost2010PropOp28
 70
     1
102
RTVSPost2010Prop29
280
     1
102
RTVSPost2010PropOp29
 70
     1
102
RTVSPost2010Prop30
280
     1
102
RTVSPost2010PropOp30
 70
     1
102
RTVSPost2010Prop31
280
     0
102
RTVSPost2010PropOp31
 70
     1
102
RTVSPost2010Prop32
280
     0
102
RTVSPost2010PropOp32
 70
     1
102
RTVSPost2010Prop33
280
     0
102
RTVSPost2010PropOp33
 70
     1
102
RTVSPost2010Prop34
280
     0
102
RTVSPost2010PropOp34
 70
     1
102
RTVSPost2010Prop35
280
     0
102
RTVSPost2010PropOp35
 70
     1
102
RTVSPost2010Prop36
280
     0
102
RTVSPost2010PropOp36
 70
     1
102
RTVSPost2010Prop37
 90
       50
102
RTVSPost2010PropOp37
 70
     1
102
RTVSPost2010Prop38
140
0.0
102
RTVSPost2010PropOp38
 70
     1
102
RTVSPost2010Prop39
140
1.0
102
RTVSPost2010PropOp39
 70
     1
102
RTVSPost2010Prop40
 90
        0
102
RTVSPost2010PropOp40
 70
     1
102
RTVSPost2010Prop41ColorIndex
 90
       18
102
RTVSPost2010Prop41ColorRGB
 90
        0
102
RTVSPost2010PropOp41
 70
     1
102
RTVSPost2010Prop42
 90
       50
102
RTVSPost2010PropOp42
 70
     1
102
RTVSPost2010Prop43
 90
        3
102
RTVSPost2010PropOp43
 70
     1
102
RTVSPost2010Prop44ColorIndex
 90
        5
102
RTVSPost2010Prop44ColorRGB
 90
      255
102
RTVSPost2010PropOp44
 70
     1
102
RTVSPost2010Prop45
280
     0
102
RTVSPost2010PropOp45
 70
     1
102
RTVSPost2010Prop46
 90
       50
102
RTVSPost2010PropOp46
 70
     1
102
RTVSPost2010Prop47
 90
       50
102
RTVSPost2010PropOp47
 70
     1
102
RTVSPost2010Prop48
 90
       50
102
RTVSPost2010PropOp48
 70
     1
102
RTVSPost2010Prop49
280
     0
102
RTVSPost2010PropOp49
 70
     1
102
RTVSPost2010Prop50
 90
       50
102
RTVSPost2010PropOp50
 70
     1
102
RTVSPost2010Prop51ColorIndex
 90
      256
102
RTVSPost2010Prop51ColorRGB
 90
-16777216
102
RTVSPost2010PropOp51
 70
     0
102
RTVSPost2010Prop52
140
1.0
102
RTVSPost2010PropOp52
 70
     0
102
RTVSPost2010Prop53
 90
        2
102
RTVSPost2010PropOp53
 70
     1
102
RTVSPost2010Prop54
  1
strokes_ogs.tif
102
RTVSPost2010PropOp54
 70
     1
102
RTVSPost2010Prop55
280
     0
102
RTVSPost2010PropOp55
 70
     1
102
RTVSPost2010Prop56
140
1.0
102
RTVSPost2010PropOp56
 70
     1
102
RTVSPost2010Prop57
140
1.0
102
RTVSPost2010PropOp57
 70
     1
102
RTVSPropertyOp0
 70
     1
102
RTVSPropertyOp1
 70
     1
102
RTVSPropertyOp2
 70
     1
102
RTVSPropertyOp3
 70
     1
102
RTVSPropertyOp4
 70
     1
102
RTVSPropertyOp5
 70
     1
102
RTVSPropertyOp6
 70
     1
102
RTVSPropertyOp7
 70
     1
102
RTVSPropertyOp8
 70
     1
102
RTVSPropertyOp9
 70
     1
102
RTVSPropertyOp10
 70
     1
102
RTVSPropertyOp11
 70
     1
102
RTVSPropertyOp12
 70
     1
102
RTVSPropertyOp13
 70
     1
102
RTVSPropertyOp14
 70
     1
102
RTVSPropertyOp15
 70
     1
102
RTVSPropertyOp16
 70
     1
102
RTVSPropertyOp17
 70
     1
102
RTVSPropertyOp18
 70
     1
102
RTVSPropertyOp19
 70
     1
102
RTVSPropertyOp20
 70
     1
102
RTVSPropertyOp21
 70
     1
102
RTVSPropertyOp22
 70
     1
102
RTVSPropertyOp23
 70
     1
102
RTVSPropertyOp24
 70
     1
102
RTVSPropertyOp25
 70
     1
102
RTVSPropertyOp26
 70
     1
102
RTVSPropertyOp27
 70
     1
102
RTVSPropertyOp28
 70
     1
102
RTVSPropertyOp29
 70
     1
102
RTVSPropertyOp30
 70
     1
102
RTVSPropertyOp31
 70
     1
102
RTVSPropertyOp32
 70
     1
102
RTVSPropertyOp33
 70
     1
102
RTVSPropertyOp34
 70
     1
102
RTVSPropertyOp35
 70
     1
102
RTVSPropertyOp36
 70
     1
102
RTVSPropertyOp37
 70
     1
102
RTVSPropertyOp38
 70
     1
102
RTVSPropertyOp39
 70
     1
102
RTVSPropertyOp40
 70
     1
102
RTVSPropertyOp41
 70
     1
102
RTVSPropertyOp42
 70
     1
102
RTVSPropertyOp43
 70
     1
102
RTVSPropertyOp44
 70
     1
102
RTVSPropertyOp45
 70
     1
102
RTVSPropertyOp46
 70
     1
102
RTVSPropertyOp47
 70
     1
102
RTVSPropertyOp48
 70
     1
102
RTVSPropertyOp49
 70
     1
102
RTVSPropertyOp50
 70
     1
102
RTVSPropertyOp51
 70
     0
102
RTVSPropertyOp52
 70
     0
102
RTVSPropertyOp53
 70
     1
102
RTVSPropertyOp54
 70
     1
102
RTVSPropertyOp55
 70
     1
102
RTVSPropertyOp56
 70
     1
102
RTVSPropertyOp57
 70
     1
102
RTVSPropertyOp58
 70
     1
102
RTVSPropertyOp59
 70
     1
102
RTVSPropertyOp60
 70
     1
102
RTVSPropertyOp61
 70
     1
102
RTVSPropertyOp62
 70
     1
  0
XRECORD
  5
7EA5
102
{ACAD_REACTORS
330
7EA4
102
}
330
7EA4
100
AcDbXrecord
280
     1
102
RTVSPost2010Prop28
280
     0
102
RTVSPost2010PropOp28
 70
     1
102
RTVSPost2010Prop29
280
     1
102
RTVSPost2010PropOp29
 70
     1
102
RTVSPost2010Prop30
280
     1
102
RTVSPost2010PropOp30
 70
     1
102
RTVSPost2010Prop31
280
     0
102
RTVSPost2010PropOp31
 70
     1
102
RTVSPost2010Prop32
280
     0
102
RTVSPost2010PropOp32
 70
     1
102
RTVSPost2010Prop33
280
     0
102
RTVSPost2010PropOp33
 70
     1
102
RTVSPost2010Prop34
280
     0
102
RTVSPost2010PropOp34
 70
     1
102
RTVSPost2010Prop35
280
     0
102
RTVSPost2010PropOp35
 70
     1
102
RTVSPost2010Prop36
280
     0
102
RTVSPost2010PropOp36
 70
     1
102
RTVSPost2010Prop37
 90
       50
102
RTVSPost2010PropOp37
 70
     1
102
RTVSPost2010Prop38
140
0.0
102
RTVSPost2010PropOp38
 70
     1
102
RTVSPost2010Prop39
140
1.0
102
RTVSPost2010PropOp39
 70
     1
102
RTVSPost2010Prop40
 90
        0
102
RTVSPost2010PropOp40
 70
     1
102
RTVSPost2010Prop41ColorIndex
 90
       18
102
RTVSPost2010Prop41ColorRGB
 90
        0
102
RTVSPost2010PropOp41
 70
     1
102
RTVSPost2010Prop42
 90
       50
102
RTVSPost2010PropOp42
 70
     1
102
RTVSPost2010Prop43
 90
        3
102
RTVSPost2010PropOp43
 70
     1
102
RTVSPost2010Prop44ColorIndex
 90
        5
102
RTVSPost2010Prop44ColorRGB
 90
      255
102
RTVSPost2010PropOp44
 70
     1
102
RTVSPost2010Prop45
280
     0
102
RTVSPost2010PropOp45
 70
     1
102
RTVSPost2010Prop46
 90
       50
102
RTVSPost2010PropOp46
 70
     1
102
RTVSPost2010Prop47
 90
       50
102
RTVSPost2010PropOp47
 70
     1
102
RTVSPost2010Prop48
 90
       50
102
RTVSPost2010PropOp48
 70
     1
102
RTVSPost2010Prop49
280
     0
102
RTVSPost2010PropOp49
 70
     1
102
RTVSPost2010Prop50
 90
       50
102
RTVSPost2010PropOp50
 70
     1
102
RTVSPost2010Prop51ColorIndex
 90
      256
102
RTVSPost2010Prop51ColorRGB
 90
-16777216
102
RTVSPost2010PropOp51
 70
     0
102
RTVSPost2010Prop52
140
1.0
102
RTVSPost2010PropOp52
 70
     0
102
RTVSPost2010Prop53
 90
        2
102
RTVSPost2010PropOp53
 70
     1
102
RTVSPost2010Prop54
  1
strokes_ogs.tif
102
RTVSPost2010PropOp54
 70
     1
102
RTVSPost2010Prop55
280
     0
102
RTVSPost2010PropOp55
 70
     1
102
RTVSPost2010Prop56
140
1.0
102
RTVSPost2010PropOp56
 70
     1
102
RTVSPost2010Prop57
140
1.0
102
RTVSPost2010PropOp57
 70
     1
102
RTVSPropertyOp0
 70
     1
102
RTVSPropertyOp1
 70
     1
102
RTVSPropertyOp2
 70
     1
102
RTVSPropertyOp3
 70
     1
102
RTVSPropertyOp4
 70
     1
102
RTVSPropertyOp5
 70
     1
102
RTVSPropertyOp6
 70
     1
102
RTVSPropertyOp7
 70
     1
102
RTVSPropertyOp8
 70
     1
102
RTVSPropertyOp9
 70
     1
102
RTVSPropertyOp10
 70
     1
102
RTVSPropertyOp11
 70
     1
102
RTVSPropertyOp12
 70
     1
102
RTVSPropertyOp13
 70
     1
102
RTVSPropertyOp14
 70
     1
102
RTVSPropertyOp15
 70
     1
102
RTVSPropertyOp16
 70
     1
102
RTVSPropertyOp17
 70
     1
102
RTVSPropertyOp18
 70
     1
102
RTVSPropertyOp19
 70
     1
102
RTVSPropertyOp20
 70
     1
102
RTVSPropertyOp21
 70
     1
102
RTVSPropertyOp22
 70
     1
102
RTVSPropertyOp23
 70
     1
102
RTVSPropertyOp24
 70
     1
102
RTVSPropertyOp25
 70
     1
102
RTVSPropertyOp26
 70
     1
102
RTVSPropertyOp27
 70
     1
102
RTVSPropertyOp28
 70
     1
102
RTVSPropertyOp29
 70
     1
102
RTVSPropertyOp30
 70
     1
102
RTVSPropertyOp31
 70
     1
102
RTVSPropertyOp32
 70
     1
102
RTVSPropertyOp33
 70
     1
102
RTVSPropertyOp34
 70
     1
102
RTVSPropertyOp35
 70
     1
102
RTVSPropertyOp36
 70
     1
102
RTVSPropertyOp37
 70
     1
102
RTVSPropertyOp38
 70
     1
102
RTVSPropertyOp39
 70
     1
102
RTVSPropertyOp40
 70
     1
102
RTVSPropertyOp41
 70
     1
102
RTVSPropertyOp42
 70
     1
102
RTVSPropertyOp43
 70
     1
102
RTVSPropertyOp44
 70
     1
102
RTVSPropertyOp45
 70
     1
102
RTVSPropertyOp46
 70
     1
102
RTVSPropertyOp47
 70
     1
102
RTVSPropertyOp48
 70
     1
102
RTVSPropertyOp49
 70
     1
102
RTVSPropertyOp50
 70
     1
102
RTVSPropertyOp51
 70
     0
102
RTVSPropertyOp52
 70
     0
102
RTVSPropertyOp53
 70
     1
102
RTVSPropertyOp54
 70
     1
102
RTVSPropertyOp55
 70
     1
102
RTVSPropertyOp56
 70
     1
102
RTVSPropertyOp57
 70
     1
102
RTVSPropertyOp58
 70
     1
102
RTVSPropertyOp59
 70
     1
102
RTVSPropertyOp60
 70
     1
102
RTVSPropertyOp61
 70
     1
102
RTVSPropertyOp62
 70
     1
  0
XRECORD
  5
7EA7
102
{ACAD_REACTORS
330
7EA6
102
}
330
7EA6
100
AcDbXrecord
280
     1
102
RTVSPost2010Prop28
280
     0
102
RTVSPost2010PropOp28
 70
     1
102
RTVSPost2010Prop29
280
     1
102
RTVSPost2010PropOp29
 70
     1
102
RTVSPost2010Prop30
280
     1
102
RTVSPost2010PropOp30
 70
     1
102
RTVSPost2010Prop31
280
     0
102
RTVSPost2010PropOp31
 70
     1
102
RTVSPost2010Prop32
280
     0
102
RTVSPost2010PropOp32
 70
     1
102
RTVSPost2010Prop33
280
     0
102
RTVSPost2010PropOp33
 70
     1
102
RTVSPost2010Prop34
280
     0
102
RTVSPost2010PropOp34
 70
     1
102
RTVSPost2010Prop35
280
     0
102
RTVSPost2010PropOp35
 70
     1
102
RTVSPost2010Prop36
280
     0
102
RTVSPost2010PropOp36
 70
     1
102
RTVSPost2010Prop37
 90
       50
102
RTVSPost2010PropOp37
 70
     1
102
RTVSPost2010Prop38
140
0.0
102
RTVSPost2010PropOp38
 70
     1
102
RTVSPost2010Prop39
140
1.0
102
RTVSPost2010PropOp39
 70
     1
102
RTVSPost2010Prop40
 90
        0
102
RTVSPost2010PropOp40
 70
     1
102
RTVSPost2010Prop41ColorIndex
 90
       18
102
RTVSPost2010Prop41ColorRGB
 90
        0
102
RTVSPost2010PropOp41
 70
     1
102
RTVSPost2010Prop42
 90
       50
102
RTVSPost2010PropOp42
 70
     1
102
RTVSPost2010Prop43
 90
        3
102
RTVSPost2010PropOp43
 70
     1
102
RTVSPost2010Prop44ColorIndex
 90
        5
102
RTVSPost2010Prop44ColorRGB
 90
      255
102
RTVSPost2010PropOp44
 70
     1
102
RTVSPost2010Prop45
280
     0
102
RTVSPost2010PropOp45
 70
     1
102
RTVSPost2010Prop46
 90
       50
102
RTVSPost2010PropOp46
 70
     1
102
RTVSPost2010Prop47
 90
       50
102
RTVSPost2010PropOp47
 70
     1
102
RTVSPost2010Prop48
 90
       50
102
RTVSPost2010PropOp48
 70
     1
102
RTVSPost2010Prop49
280
     0
102
RTVSPost2010PropOp49
 70
     1
102
RTVSPost2010Prop50
 90
       50
102
RTVSPost2010PropOp50
 70
     1
102
RTVSPost2010Prop51ColorIndex
 90
      256
102
RTVSPost2010Prop51ColorRGB
 90
-16777216
102
RTVSPost2010PropOp51
 70
     0
102
RTVSPost2010Prop52
140
1.0
102
RTVSPost2010PropOp52
 70
     0
102
RTVSPost2010Prop53
 90
        2
102
RTVSPost2010PropOp53
 70
     1
102
RTVSPost2010Prop54
  1
strokes_ogs.tif
102
RTVSPost2010PropOp54
 70
     1
102
RTVSPost2010Prop55
280
     0
102
RTVSPost2010PropOp55
 70
     1
102
RTVSPost2010Prop56
140
1.0
102
RTVSPost2010PropOp56
 70
     1
102
RTVSPost2010Prop57
140
1.0
102
RTVSPost2010PropOp57
 70
     1
102
RTVSPropertyOp0
 70
     1
102
RTVSPropertyOp1
 70
     1
102
RTVSPropertyOp2
 70
     1
102
RTVSPropertyOp3
 70
     1
102
RTVSPropertyOp4
 70
     1
102
RTVSPropertyOp5
 70
     1
102
RTVSPropertyOp6
 70
     1
102
RTVSPropertyOp7
 70
     1
102
RTVSPropertyOp8
 70
     1
102
RTVSPropertyOp9
 70
     1
102
RTVSPropertyOp10
 70
     1
102
RTVSPropertyOp11
 70
     1
102
RTVSPropertyOp12
 70
     1
102
RTVSPropertyOp13
 70
     1
102
RTVSPropertyOp14
 70
     1
102
RTVSPropertyOp15
 70
     1
102
RTVSPropertyOp16
 70
     1
102
RTVSPropertyOp17
 70
     1
102
RTVSPropertyOp18
 70
     1
102
RTVSPropertyOp19
 70
     1
102
RTVSPropertyOp20
 70
     1
102
RTVSPropertyOp21
 70
     1
102
RTVSPropertyOp22
 70
     1
102
RTVSPropertyOp23
 70
     1
102
RTVSPropertyOp24
 70
     1
102
RTVSPropertyOp25
 70
     1
102
RTVSPropertyOp26
 70
     1
102
RTVSPropertyOp27
 70
     1
102
RTVSPropertyOp28
 70
     1
102
RTVSPropertyOp29
 70
     1
102
RTVSPropertyOp30
 70
     1
102
RTVSPropertyOp31
 70
     1
102
RTVSPropertyOp32
 70
     1
102
RTVSPropertyOp33
 70
     1
102
RTVSPropertyOp34
 70
     1
102
RTVSPropertyOp35
 70
     1
102
RTVSPropertyOp36
 70
     1
102
RTVSPropertyOp37
 70
     1
102
RTVSPropertyOp38
 70
     1
102
RTVSPropertyOp39
 70
     1
102
RTVSPropertyOp40
 70
     1
102
RTVSPropertyOp41
 70
     1
102
RTVSPropertyOp42
 70
     1
102
RTVSPropertyOp43
 70
     1
102
RTVSPropertyOp44
 70
     1
102
RTVSPropertyOp45
 70
     1
102
RTVSPropertyOp46
 70
     1
102
RTVSPropertyOp47
 70
     1
102
RTVSPropertyOp48
 70
     1
102
RTVSPropertyOp49
 70
     1
102
RTVSPropertyOp50
 70
     1
102
RTVSPropertyOp51
 70
     0
102
RTVSPropertyOp52
 70
     0
102
RTVSPropertyOp53
 70
     1
102
RTVSPropertyOp54
 70
     1
102
RTVSPropertyOp55
 70
     1
102
RTVSPropertyOp56
 70
     1
102
RTVSPropertyOp57
 70
     1
102
RTVSPropertyOp58
 70
     1
102
RTVSPropertyOp59
 70
     1
102
RTVSPropertyOp60
 70
     1
102
RTVSPropertyOp61
 70
     1
102
RTVSPropertyOp62
 70
     1
  0
XRECORD
  5
7EA9
102
{ACAD_REACTORS
330
7EA8
102
}
330
7EA8
100
AcDbXrecord
280
     1
102
RTVSPost2010Prop28
280
     0
102
RTVSPost2010PropOp28
 70
     1
102
RTVSPost2010Prop29
280
     1
102
RTVSPost2010PropOp29
 70
     1
102
RTVSPost2010Prop30
280
     1
102
RTVSPost2010PropOp30
 70
     1
102
RTVSPost2010Prop31
280
     0
102
RTVSPost2010PropOp31
 70
     1
102
RTVSPost2010Prop32
280
     0
102
RTVSPost2010PropOp32
 70
     1
102
RTVSPost2010Prop33
280
     0
102
RTVSPost2010PropOp33
 70
     1
102
RTVSPost2010Prop34
280
     0
102
RTVSPost2010PropOp34
 70
     1
102
RTVSPost2010Prop35
280
     0
102
RTVSPost2010PropOp35
 70
     1
102
RTVSPost2010Prop36
280
     0
102
RTVSPost2010PropOp36
 70
     1
102
RTVSPost2010Prop37
 90
       50
102
RTVSPost2010PropOp37
 70
     1
102
RTVSPost2010Prop38
140
0.0
102
RTVSPost2010PropOp38
 70
     1
102
RTVSPost2010Prop39
140
1.0
102
RTVSPost2010PropOp39
 70
     1
102
RTVSPost2010Prop40
 90
        0
102
RTVSPost2010PropOp40
 70
     1
102
RTVSPost2010Prop41ColorIndex
 90
       18
102
RTVSPost2010Prop41ColorRGB
 90
        0
102
RTVSPost2010PropOp41
 70
     1
102
RTVSPost2010Prop42
 90
       50
102
RTVSPost2010PropOp42
 70
     1
102
RTVSPost2010Prop43
 90
        3
102
RTVSPost2010PropOp43
 70
     1
102
RTVSPost2010Prop44ColorIndex
 90
        5
102
RTVSPost2010Prop44ColorRGB
 90
      255
102
RTVSPost2010PropOp44
 70
     1
102
RTVSPost2010Prop45
280
     0
102
RTVSPost2010PropOp45
 70
     1
102
RTVSPost2010Prop46
 90
       50
102
RTVSPost2010PropOp46
 70
     1
102
RTVSPost2010Prop47
 90
       50
102
RTVSPost2010PropOp47
 70
     1
102
RTVSPost2010Prop48
 90
       50
102
RTVSPost2010PropOp48
 70
     1
102
RTVSPost2010Prop49
280
     0
102
RTVSPost2010PropOp49
 70
     1
102
RTVSPost2010Prop50
 90
       50
102
RTVSPost2010PropOp50
 70
     1
102
RTVSPost2010Prop51ColorIndex
 90
      256
102
RTVSPost2010Prop51ColorRGB
 90
-16777216
102
RTVSPost2010PropOp51
 70
     0
102
RTVSPost2010Prop52
140
1.0
102
RTVSPost2010PropOp52
 70
     0
102
RTVSPost2010Prop53
 90
        2
102
RTVSPost2010PropOp53
 70
     1
102
RTVSPost2010Prop54
  1
strokes_ogs.tif
102
RTVSPost2010PropOp54
 70
     1
102
RTVSPost2010Prop55
280
     0
102
RTVSPost2010PropOp55
 70
     1
102
RTVSPost2010Prop56
140
1.0
102
RTVSPost2010PropOp56
 70
     1
102
RTVSPost2010Prop57
140
1.0
102
RTVSPost2010PropOp57
 70
     1
102
RTVSPropertyOp0
 70
     1
102
RTVSPropertyOp1
 70
     1
102
RTVSPropertyOp2
 70
     1
102
RTVSPropertyOp3
 70
     1
102
RTVSPropertyOp4
 70
     1
102
RTVSPropertyOp5
 70
     1
102
RTVSPropertyOp6
 70
     1
102
RTVSPropertyOp7
 70
     1
102
RTVSPropertyOp8
 70
     1
102
RTVSPropertyOp9
 70
     1
102
RTVSPropertyOp10
 70
     1
102
RTVSPropertyOp11
 70
     1
102
RTVSPropertyOp12
 70
     1
102
RTVSPropertyOp13
 70
     1
102
RTVSPropertyOp14
 70
     1
102
RTVSPropertyOp15
 70
     1
102
RTVSPropertyOp16
 70
     1
102
RTVSPropertyOp17
 70
     1
102
RTVSPropertyOp18
 70
     1
102
RTVSPropertyOp19
 70
     1
102
RTVSPropertyOp20
 70
     1
102
RTVSPropertyOp21
 70
     1
102
RTVSPropertyOp22
 70
     1
102
RTVSPropertyOp23
 70
     1
102
RTVSPropertyOp24
 70
     1
102
RTVSPropertyOp25
 70
     1
102
RTVSPropertyOp26
 70
     1
102
RTVSPropertyOp27
 70
     1
102
RTVSPropertyOp28
 70
     1
102
RTVSPropertyOp29
 70
     1
102
RTVSPropertyOp30
 70
     1
102
RTVSPropertyOp31
 70
     1
102
RTVSPropertyOp32
 70
     1
102
RTVSPropertyOp33
 70
     1
102
RTVSPropertyOp34
 70
     1
102
RTVSPropertyOp35
 70
     1
102
RTVSPropertyOp36
 70
     1
102
RTVSPropertyOp37
 70
     1
102
RTVSPropertyOp38
 70
     1
102
RTVSPropertyOp39
 70
     1
102
RTVSPropertyOp40
 70
     1
102
RTVSPropertyOp41
 70
     1
102
RTVSPropertyOp42
 70
     1
102
RTVSPropertyOp43
 70
     1
102
RTVSPropertyOp44
 70
     1
102
RTVSPropertyOp45
 70
     1
102
RTVSPropertyOp46
 70
     1
102
RTVSPropertyOp47
 70
     1
102
RTVSPropertyOp48
 70
     1
102
RTVSPropertyOp49
 70
     1
102
RTVSPropertyOp50
 70
     1
102
RTVSPropertyOp51
 70
     0
102
RTVSPropertyOp52
 70
     0
102
RTVSPropertyOp53
 70
     1
102
RTVSPropertyOp54
 70
     1
102
RTVSPropertyOp55
 70
     1
102
RTVSPropertyOp56
 70
     1
102
RTVSPropertyOp57
 70
     1
102
RTVSPropertyOp58
 70
     1
102
RTVSPropertyOp59
 70
     1
102
RTVSPropertyOp60
 70
     1
102
RTVSPropertyOp61
 70
     1
102
RTVSPropertyOp62
 70
     1
  0
XRECORD
  5
7EC7
102
{ACAD_REACTORS
330
7EC6
102
}
330
7EC6
100
AcDbXrecord
280
     1
102
RTVSPost2010Prop28
280
     0
102
RTVSPost2010PropOp28
 70
     1
102
RTVSPost2010Prop29
280
     1
102
RTVSPost2010PropOp29
 70
     1
102
RTVSPost2010Prop30
280
     1
102
RTVSPost2010PropOp30
 70
     1
102
RTVSPost2010Prop31
280
     0
102
RTVSPost2010PropOp31
 70
     1
102
RTVSPost2010Prop32
280
     0
102
RTVSPost2010PropOp32
 70
     1
102
RTVSPost2010Prop33
280
     0
102
RTVSPost2010PropOp33
 70
     1
102
RTVSPost2010Prop34
280
     0
102
RTVSPost2010PropOp34
 70
     1
102
RTVSPost2010Prop35
280
     0
102
RTVSPost2010PropOp35
 70
     1
102
RTVSPost2010Prop36
280
     0
102
RTVSPost2010PropOp36
 70
     1
102
RTVSPost2010Prop37
 90
       50
102
RTVSPost2010PropOp37
 70
     1
102
RTVSPost2010Prop38
140
0.0
102
RTVSPost2010PropOp38
 70
     1
102
RTVSPost2010Prop39
140
1.0
102
RTVSPost2010PropOp39
 70
     1
102
RTVSPost2010Prop40
 90
        0
102
RTVSPost2010PropOp40
 70
     1
102
RTVSPost2010Prop41ColorIndex
 90
       18
102
RTVSPost2010Prop41ColorRGB
 90
        0
102
RTVSPost2010PropOp41
 70
     1
102
RTVSPost2010Prop42
 90
       50
102
RTVSPost2010PropOp42
 70
     1
102
RTVSPost2010Prop43
 90
        3
102
RTVSPost2010PropOp43
 70
     1
102
RTVSPost2010Prop44ColorIndex
 90
        5
102
RTVSPost2010Prop44ColorRGB
 90
      255
102
RTVSPost2010PropOp44
 70
     1
102
RTVSPost2010Prop45
280
     0
102
RTVSPost2010PropOp45
 70
     1
102
RTVSPost2010Prop46
 90
       50
102
RTVSPost2010PropOp46
 70
     1
102
RTVSPost2010Prop47
 90
       50
102
RTVSPost2010PropOp47
 70
     1
102
RTVSPost2010Prop48
 90
       50
102
RTVSPost2010PropOp48
 70
     1
102
RTVSPost2010Prop49
280
     0
102
RTVSPost2010PropOp49
 70
     1
102
RTVSPost2010Prop50
 90
       50
102
RTVSPost2010PropOp50
 70
     1
102
RTVSPost2010Prop51ColorIndex
 90
      256
102
RTVSPost2010Prop51ColorRGB
 90
-16777216
102
RTVSPost2010PropOp51
 70
     0
102
RTVSPost2010Prop52
140
1.0
102
RTVSPost2010PropOp52
 70
     0
102
RTVSPost2010Prop53
 90
        2
102
RTVSPost2010PropOp53
 70
     1
102
RTVSPost2010Prop54
  1
strokes_ogs.tif
102
RTVSPost2010PropOp54
 70
     1
102
RTVSPost2010Prop55
280
     0
102
RTVSPost2010PropOp55
 70
     1
102
RTVSPost2010Prop56
140
1.0
102
RTVSPost2010PropOp56
 70
     1
102
RTVSPost2010Prop57
140
1.0
102
RTVSPost2010PropOp57
 70
     1
102
RTVSPropertyOp0
 70
     1
102
RTVSPropertyOp1
 70
     1
102
RTVSPropertyOp2
 70
     1
102
RTVSPropertyOp3
 70
     1
102
RTVSPropertyOp4
 70
     1
102
RTVSPropertyOp5
 70
     1
102
RTVSPropertyOp6
 70
     1
102
RTVSPropertyOp7
 70
     1
102
RTVSPropertyOp8
 70
     1
102
RTVSPropertyOp9
 70
     1
102
RTVSPropertyOp10
 70
     1
102
RTVSPropertyOp11
 70
     1
102
RTVSPropertyOp12
 70
     1
102
RTVSPropertyOp13
 70
     1
102
RTVSPropertyOp14
 70
     1
102
RTVSPropertyOp15
 70
     1
102
RTVSPropertyOp16
 70
     1
102
RTVSPropertyOp17
 70
     1
102
RTVSPropertyOp18
 70
     1
102
RTVSPropertyOp19
 70
     1
102
RTVSPropertyOp20
 70
     1
102
RTVSPropertyOp21
 70
     1
102
RTVSPropertyOp22
 70
     1
102
RTVSPropertyOp23
 70
     1
102
RTVSPropertyOp24
 70
     1
102
RTVSPropertyOp25
 70
     1
102
RTVSPropertyOp26
 70
     1
102
RTVSPropertyOp27
 70
     1
102
RTVSPropertyOp28
 70
     1
102
RTVSPropertyOp29
 70
     1
102
RTVSPropertyOp30
 70
     1
102
RTVSPropertyOp31
 70
     1
102
RTVSPropertyOp32
 70
     1
102
RTVSPropertyOp33
 70
     1
102
RTVSPropertyOp34
 70
     1
102
RTVSPropertyOp35
 70
     1
102
RTVSPropertyOp36
 70
     1
102
RTVSPropertyOp37
 70
     1
102
RTVSPropertyOp38
 70
     1
102
RTVSPropertyOp39
 70
     1
102
RTVSPropertyOp40
 70
     1
102
RTVSPropertyOp41
 70
     1
102
RTVSPropertyOp42
 70
     1
102
RTVSPropertyOp43
 70
     1
102
RTVSPropertyOp44
 70
     1
102
RTVSPropertyOp45
 70
     1
102
RTVSPropertyOp46
 70
     1
102
RTVSPropertyOp47
 70
     1
102
RTVSPropertyOp48
 70
     1
102
RTVSPropertyOp49
 70
     1
102
RTVSPropertyOp50
 70
     1
102
RTVSPropertyOp51
 70
     0
102
RTVSPropertyOp52
 70
     0
102
RTVSPropertyOp53
 70
     1
102
RTVSPropertyOp54
 70
     1
102
RTVSPropertyOp55
 70
     1
102
RTVSPropertyOp56
 70
     1
102
RTVSPropertyOp57
 70
     1
102
RTVSPropertyOp58
 70
     1
102
RTVSPropertyOp59
 70
     1
102
RTVSPropertyOp60
 70
     1
102
RTVSPropertyOp61
 70
     1
102
RTVSPropertyOp62
 70
     1
  0
XRECORD
  5
7ED3
102
{ACAD_REACTORS
330
7ED2
102
}
330
7ED2
100
AcDbXrecord
280
     1
102
RTVSPost2010Prop28
280
     0
102
RTVSPost2010PropOp28
 70
     0
102
RTVSPost2010Prop29
280
     1
102
RTVSPost2010PropOp29
 70
     0
102
RTVSPost2010Prop30
280
     1
102
RTVSPost2010PropOp30
 70
     0
102
RTVSPost2010Prop31
280
     0
102
RTVSPost2010PropOp31
 70
     0
102
RTVSPost2010Prop32
280
     0
102
RTVSPost2010PropOp32
 70
     0
102
RTVSPost2010Prop33
280
     0
102
RTVSPost2010PropOp33
 70
     0
102
RTVSPost2010Prop34
280
     0
102
RTVSPost2010PropOp34
 70
     0
102
RTVSPost2010Prop35
280
     0
102
RTVSPost2010PropOp35
 70
     0
102
RTVSPost2010Prop36
280
     0
102
RTVSPost2010PropOp36
 70
     0
102
RTVSPost2010Prop37
 90
       50
102
RTVSPost2010PropOp37
 70
     0
102
RTVSPost2010Prop38
140
0.0
102
RTVSPost2010PropOp38
 70
     0
102
RTVSPost2010Prop39
140
1.0
102
RTVSPost2010PropOp39
 70
     0
102
RTVSPost2010Prop40
 90
        0
102
RTVSPost2010PropOp40
 70
     0
102
RTVSPost2010Prop41ColorIndex
 90
       18
102
RTVSPost2010Prop41ColorRGB
 90
        0
102
RTVSPost2010PropOp41
 70
     0
102
RTVSPost2010Prop42
 90
       50
102
RTVSPost2010PropOp42
 70
     0
102
RTVSPost2010Prop43
 90
        3
102
RTVSPost2010PropOp43
 70
     0
102
RTVSPost2010Prop44ColorIndex
 90
        5
102
RTVSPost2010Prop44ColorRGB
 90
      255
102
RTVSPost2010PropOp44
 70
     0
102
RTVSPost2010Prop45
280
     0
102
RTVSPost2010PropOp45
 70
     0
102
RTVSPost2010Prop46
 90
       50
102
RTVSPost2010PropOp46
 70
     0
102
RTVSPost2010Prop47
 90
       50
102
RTVSPost2010PropOp47
 70
     0
102
RTVSPost2010Prop48
 90
       50
102
RTVSPost2010PropOp48
 70
     0
102
RTVSPost2010Prop49
280
     0
102
RTVSPost2010PropOp49
 70
     0
102
RTVSPost2010Prop50
 90
       50
102
RTVSPost2010PropOp50
 70
     0
102
RTVSPost2010Prop51ColorIndex
 90
      256
102
RTVSPost2010Prop51ColorRGB
 90
-16777216
102
RTVSPost2010PropOp51
 70
     0
102
RTVSPost2010Prop52
140
1.0
102
RTVSPost2010PropOp52
 70
     0
102
RTVSPost2010Prop53
 90
        2
102
RTVSPost2010PropOp53
 70
     0
102
RTVSPost2010Prop54
  1
strokes_ogs.tif
102
RTVSPost2010PropOp54
 70
     0
102
RTVSPost2010Prop55
280
     0
102
RTVSPost2010PropOp55
 70
     0
102
RTVSPost2010Prop56
140
1.0
102
RTVSPost2010PropOp56
 70
     0
102
RTVSPost2010Prop57
140
1.0
102
RTVSPost2010PropOp57
 70
     0
102
RTVSPropertyOp0
 70
     0
102
RTVSPropertyOp1
 70
     0
102
RTVSPropertyOp2
 70
     0
102
RTVSPropertyOp3
 70
     0
102
RTVSPropertyOp4
 70
     0
102
RTVSPropertyOp5
 70
     0
102
RTVSPropertyOp6
 70
     0
102
RTVSPropertyOp7
 70
     0
102
RTVSPropertyOp8
 70
     0
102
RTVSPropertyOp9
 70
     0
102
RTVSPropertyOp10
 70
     0
102
RTVSPropertyOp11
 70
     0
102
RTVSPropertyOp12
 70
     0
102
RTVSPropertyOp13
 70
     0
102
RTVSPropertyOp14
 70
     2
102
RTVSPropertyOp15
 70
     0
102
RTVSPropertyOp16
 70
     0
102
RTVSPropertyOp17
 70
     0
102
RTVSPropertyOp18
 70
     0
102
RTVSPropertyOp19
 70
     0
102
RTVSPropertyOp20
 70
     0
102
RTVSPropertyOp21
 70
     0
102
RTVSPropertyOp22
 70
     0
102
RTVSPropertyOp23
 70
     0
102
RTVSPropertyOp24
 70
     0
102
RTVSPropertyOp25
 70
     0
102
RTVSPropertyOp26
 70
     0
102
RTVSPropertyOp27
 70
     0
102
RTVSPropertyOp28
 70
     0
102
RTVSPropertyOp29
 70
     0
102
RTVSPropertyOp30
 70
     0
102
RTVSPropertyOp31
 70
     0
102
RTVSPropertyOp32
 70
     0
102
RTVSPropertyOp33
 70
     0
102
RTVSPropertyOp34
 70
     0
102
RTVSPropertyOp35
 70
     0
102
RTVSPropertyOp36
 70
     0
102
RTVSPropertyOp37
 70
     0
102
RTVSPropertyOp38
 70
     0
102
RTVSPropertyOp39
 70
     0
102
RTVSPropertyOp40
 70
     0
102
RTVSPropertyOp41
 70
     0
102
RTVSPropertyOp42
 70
     0
102
RTVSPropertyOp43
 70
     0
102
RTVSPropertyOp44
 70
     0
102
RTVSPropertyOp45
 70
     0
102
RTVSPropertyOp46
 70
     0
102
RTVSPropertyOp47
 70
     0
102
RTVSPropertyOp48
 70
     0
102
RTVSPropertyOp49
 70
     0
102
RTVSPropertyOp50
 70
     0
102
RTVSPropertyOp51
 70
     0
102
RTVSPropertyOp52
 70
     0
102
RTVSPropertyOp53
 70
     0
102
RTVSPropertyOp54
 70
     0
102
RTVSPropertyOp55
 70
     0
102
RTVSPropertyOp56
 70
     0
102
RTVSPropertyOp57
 70
     0
102
RTVSPropertyOp58
 70
     0
102
RTVSPropertyOp59
 70
     0
102
RTVSPropertyOp60
 70
     0
102
RTVSPropertyOp61
 70
     0
102
RTVSPropertyOp62
 70
     0
  0
XRECORD
  5
7EBD
102
{ACAD_REACTORS
330
7EBC
102
}
330
7EBC
100
AcDbXrecord
280
     1
102
RTVSPost2010Prop28
280
     0
102
RTVSPost2010PropOp28
 70
     1
102
RTVSPost2010Prop29
280
     1
102
RTVSPost2010PropOp29
 70
     1
102
RTVSPost2010Prop30
280
     1
102
RTVSPost2010PropOp30
 70
     1
102
RTVSPost2010Prop31
280
     0
102
RTVSPost2010PropOp31
 70
     1
102
RTVSPost2010Prop32
280
     0
102
RTVSPost2010PropOp32
 70
     1
102
RTVSPost2010Prop33
280
     0
102
RTVSPost2010PropOp33
 70
     1
102
RTVSPost2010Prop34
280
     0
102
RTVSPost2010PropOp34
 70
     1
102
RTVSPost2010Prop35
280
     0
102
RTVSPost2010PropOp35
 70
     1
102
RTVSPost2010Prop36
280
     0
102
RTVSPost2010PropOp36
 70
     1
102
RTVSPost2010Prop37
 90
       50
102
RTVSPost2010PropOp37
 70
     1
102
RTVSPost2010Prop38
140
0.0
102
RTVSPost2010PropOp38
 70
     1
102
RTVSPost2010Prop39
140
1.0
102
RTVSPost2010PropOp39
 70
     1
102
RTVSPost2010Prop40
 90
        0
102
RTVSPost2010PropOp40
 70
     1
102
RTVSPost2010Prop41ColorIndex
 90
       18
102
RTVSPost2010Prop41ColorRGB
 90
        0
102
RTVSPost2010PropOp41
 70
     1
102
RTVSPost2010Prop42
 90
       50
102
RTVSPost2010PropOp42
 70
     1
102
RTVSPost2010Prop43
 90
        3
102
RTVSPost2010PropOp43
 70
     1
102
RTVSPost2010Prop44ColorIndex
 90
        5
102
RTVSPost2010Prop44ColorRGB
 90
      255
102
RTVSPost2010PropOp44
 70
     1
102
RTVSPost2010Prop45
280
     0
102
RTVSPost2010PropOp45
 70
     1
102
RTVSPost2010Prop46
 90
       50
102
RTVSPost2010PropOp46
 70
     1
102
RTVSPost2010Prop47
 90
       50
102
RTVSPost2010PropOp47
 70
     1
102
RTVSPost2010Prop48
 90
       50
102
RTVSPost2010PropOp48
 70
     1
102
RTVSPost2010Prop49
280
     0
102
RTVSPost2010PropOp49
 70
     1
102
RTVSPost2010Prop50
 90
       50
102
RTVSPost2010PropOp50
 70
     1
102
RTVSPost2010Prop51ColorIndex
 90
      256
102
RTVSPost2010Prop51ColorRGB
 90
-16777216
102
RTVSPost2010PropOp51
 70
     0
102
RTVSPost2010Prop52
140
1.0
102
RTVSPost2010PropOp52
 70
     0
102
RTVSPost2010Prop53
 90
        2
102
RTVSPost2010PropOp53
 70
     1
102
RTVSPost2010Prop54
  1
strokes_ogs.tif
102
RTVSPost2010PropOp54
 70
     1
102
RTVSPost2010Prop55
280
     0
102
RTVSPost2010PropOp55
 70
     1
102
RTVSPost2010Prop56
140
1.0
102
RTVSPost2010PropOp56
 70
     1
102
RTVSPost2010Prop57
140
1.0
102
RTVSPost2010PropOp57
 70
     1
102
RTVSPropertyOp0
 70
     1
102
RTVSPropertyOp1
 70
     1
102
RTVSPropertyOp2
 70
     1
102
RTVSPropertyOp3
 70
     1
102
RTVSPropertyOp4
 70
     1
102
RTVSPropertyOp5
 70
     1
102
RTVSPropertyOp6
 70
     1
102
RTVSPropertyOp7
 70
     1
102
RTVSPropertyOp8
 70
     1
102
RTVSPropertyOp9
 70
     1
102
RTVSPropertyOp10
 70
     1
102
RTVSPropertyOp11
 70
     1
102
RTVSPropertyOp12
 70
     1
102
RTVSPropertyOp13
 70
     1
102
RTVSPropertyOp14
 70
     1
102
RTVSPropertyOp15
 70
     1
102
RTVSPropertyOp16
 70
     1
102
RTVSPropertyOp17
 70
     1
102
RTVSPropertyOp18
 70
     1
102
RTVSPropertyOp19
 70
     1
102
RTVSPropertyOp20
 70
     1
102
RTVSPropertyOp21
 70
     1
102
RTVSPropertyOp22
 70
     1
102
RTVSPropertyOp23
 70
     1
102
RTVSPropertyOp24
 70
     1
102
RTVSPropertyOp25
 70
     1
102
RTVSPropertyOp26
 70
     1
102
RTVSPropertyOp27
 70
     1
102
RTVSPropertyOp28
 70
     1
102
RTVSPropertyOp29
 70
     1
102
RTVSPropertyOp30
 70
     1
102
RTVSPropertyOp31
 70
     1
102
RTVSPropertyOp32
 70
     1
102
RTVSPropertyOp33
 70
     1
102
RTVSPropertyOp34
 70
     1
102
RTVSPropertyOp35
 70
     1
102
RTVSPropertyOp36
 70
     1
102
RTVSPropertyOp37
 70
     1
102
RTVSPropertyOp38
 70
     1
102
RTVSPropertyOp39
 70
     1
102
RTVSPropertyOp40
 70
     1
102
RTVSPropertyOp41
 70
     1
102
RTVSPropertyOp42
 70
     1
102
RTVSPropertyOp43
 70
     1
102
RTVSPropertyOp44
 70
     1
102
RTVSPropertyOp45
 70
     1
102
RTVSPropertyOp46
 70
     1
102
RTVSPropertyOp47
 70
     1
102
RTVSPropertyOp48
 70
     1
102
RTVSPropertyOp49
 70
     1
102
RTVSPropertyOp50
 70
     1
102
RTVSPropertyOp51
 70
     0
102
RTVSPropertyOp52
 70
     0
102
RTVSPropertyOp53
 70
     1
102
RTVSPropertyOp54
 70
     1
102
RTVSPropertyOp55
 70
     1
102
RTVSPropertyOp56
 70
     1
102
RTVSPropertyOp57
 70
     1
102
RTVSPropertyOp58
 70
     1
102
RTVSPropertyOp59
 70
     1
102
RTVSPropertyOp60
 70
     1
102
RTVSPropertyOp61
 70
     1
102
RTVSPropertyOp62
 70
     1
  0
XRECORD
  5
7ED5
102
{ACAD_REACTORS
330
7ED4
102
}
330
7ED4
100
AcDbXrecord
280
     1
102
RTVSPost2010Prop28
280
     0
102
RTVSPost2010PropOp28
 70
     0
102
RTVSPost2010Prop29
280
     1
102
RTVSPost2010PropOp29
 70
     0
102
RTVSPost2010Prop30
280
     1
102
RTVSPost2010PropOp30
 70
     0
102
RTVSPost2010Prop31
280
     0
102
RTVSPost2010PropOp31
 70
     0
102
RTVSPost2010Prop32
280
     0
102
RTVSPost2010PropOp32
 70
     0
102
RTVSPost2010Prop33
280
     0
102
RTVSPost2010PropOp33
 70
     0
102
RTVSPost2010Prop34
280
     0
102
RTVSPost2010PropOp34
 70
     0
102
RTVSPost2010Prop35
280
     0
102
RTVSPost2010PropOp35
 70
     0
102
RTVSPost2010Prop36
280
     0
102
RTVSPost2010PropOp36
 70
     0
102
RTVSPost2010Prop37
 90
       50
102
RTVSPost2010PropOp37
 70
     0
102
RTVSPost2010Prop38
140
0.0
102
RTVSPost2010PropOp38
 70
     0
102
RTVSPost2010Prop39
140
1.0
102
RTVSPost2010PropOp39
 70
     0
102
RTVSPost2010Prop40
 90
        0
102
RTVSPost2010PropOp40
 70
     0
102
RTVSPost2010Prop41ColorIndex
 90
       18
102
RTVSPost2010Prop41ColorRGB
 90
        0
102
RTVSPost2010PropOp41
 70
     0
102
RTVSPost2010Prop42
 90
       50
102
RTVSPost2010PropOp42
 70
     0
102
RTVSPost2010Prop43
 90
        3
102
RTVSPost2010PropOp43
 70
     0
102
RTVSPost2010Prop44ColorIndex
 90
        5
102
RTVSPost2010Prop44ColorRGB
 90
      255
102
RTVSPost2010PropOp44
 70
     0
102
RTVSPost2010Prop45
280
     0
102
RTVSPost2010PropOp45
 70
     0
102
RTVSPost2010Prop46
 90
       50
102
RTVSPost2010PropOp46
 70
     0
102
RTVSPost2010Prop47
 90
       50
102
RTVSPost2010PropOp47
 70
     0
102
RTVSPost2010Prop48
 90
       50
102
RTVSPost2010PropOp48
 70
     0
102
RTVSPost2010Prop49
280
     0
102
RTVSPost2010PropOp49
 70
     0
102
RTVSPost2010Prop50
 90
       50
102
RTVSPost2010PropOp50
 70
     0
102
RTVSPost2010Prop51ColorIndex
 90
      256
102
RTVSPost2010Prop51ColorRGB
 90
-16777216
102
RTVSPost2010PropOp51
 70
     0
102
RTVSPost2010Prop52
140
1.0
102
RTVSPost2010PropOp52
 70
     0
102
RTVSPost2010Prop53
 90
        2
102
RTVSPost2010PropOp53
 70
     0
102
RTVSPost2010Prop54
  1
strokes_ogs.tif
102
RTVSPost2010PropOp54
 70
     0
102
RTVSPost2010Prop55
280
     0
102
RTVSPost2010PropOp55
 70
     0
102
RTVSPost2010Prop56
140
1.0
102
RTVSPost2010PropOp56
 70
     0
102
RTVSPost2010Prop57
140
1.0
102
RTVSPost2010PropOp57
 70
     0
102
RTVSPropertyOp0
 70
     0
102
RTVSPropertyOp1
 70
     0
102
RTVSPropertyOp2
 70
     0
102
RTVSPropertyOp3
 70
     0
102
RTVSPropertyOp4
 70
     0
102
RTVSPropertyOp5
 70
     0
102
RTVSPropertyOp6
 70
     0
102
RTVSPropertyOp7
 70
     0
102
RTVSPropertyOp8
 70
     0
102
RTVSPropertyOp9
 70
     0
102
RTVSPropertyOp10
 70
     0
102
RTVSPropertyOp11
 70
     0
102
RTVSPropertyOp12
 70
     0
102
RTVSPropertyOp13
 70
     0
102
RTVSPropertyOp14
 70
     2
102
RTVSPropertyOp15
 70
     0
102
RTVSPropertyOp16
 70
     0
102
RTVSPropertyOp17
 70
     0
102
RTVSPropertyOp18
 70
     0
102
RTVSPropertyOp19
 70
     0
102
RTVSPropertyOp20
 70
     0
102
RTVSPropertyOp21
 70
     0
102
RTVSPropertyOp22
 70
     0
102
RTVSPropertyOp23
 70
     0
102
RTVSPropertyOp24
 70
     0
102
RTVSPropertyOp25
 70
     0
102
RTVSPropertyOp26
 70
     0
102
RTVSPropertyOp27
 70
     0
102
RTVSPropertyOp28
 70
     0
102
RTVSPropertyOp29
 70
     0
102
RTVSPropertyOp30
 70
     0
102
RTVSPropertyOp31
 70
     0
102
RTVSPropertyOp32
 70
     0
102
RTVSPropertyOp33
 70
     0
102
RTVSPropertyOp34
 70
     0
102
RTVSPropertyOp35
 70
     0
102
RTVSPropertyOp36
 70
     0
102
RTVSPropertyOp37
 70
     0
102
RTVSPropertyOp38
 70
     0
102
RTVSPropertyOp39
 70
     0
102
RTVSPropertyOp40
 70
     0
102
RTVSPropertyOp41
 70
     0
102
RTVSPropertyOp42
 70
     0
102
RTVSPropertyOp43
 70
     0
102
RTVSPropertyOp44
 70
     0
102
RTVSPropertyOp45
 70
     0
102
RTVSPropertyOp46
 70
     0
102
RTVSPropertyOp47
 70
     0
102
RTVSPropertyOp48
 70
     0
102
RTVSPropertyOp49
 70
     0
102
RTVSPropertyOp50
 70
     0
102
RTVSPropertyOp51
 70
     0
102
RTVSPropertyOp52
 70
     0
102
RTVSPropertyOp53
 70
     0
102
RTVSPropertyOp54
 70
     0
102
RTVSPropertyOp55
 70
     0
102
RTVSPropertyOp56
 70
     0
102
RTVSPropertyOp57
 70
     0
102
RTVSPropertyOp58
 70
     0
102
RTVSPropertyOp59
 70
     0
102
RTVSPropertyOp60
 70
     0
102
RTVSPropertyOp61
 70
     0
102
RTVSPropertyOp62
 70
     0
  0
XRECORD
  5
7EB5
102
{ACAD_REACTORS
330
7EB4
102
}
330
7EB4
100
AcDbXrecord
280
     1
102
RTVSPost2010Prop28
280
     0
102
RTVSPost2010PropOp28
 70
     1
102
RTVSPost2010Prop29
280
     1
102
RTVSPost2010PropOp29
 70
     1
102
RTVSPost2010Prop30
280
     1
102
RTVSPost2010PropOp30
 70
     1
102
RTVSPost2010Prop31
280
     0
102
RTVSPost2010PropOp31
 70
     1
102
RTVSPost2010Prop32
280
     0
102
RTVSPost2010PropOp32
 70
     1
102
RTVSPost2010Prop33
280
     0
102
RTVSPost2010PropOp33
 70
     1
102
RTVSPost2010Prop34
280
     0
102
RTVSPost2010PropOp34
 70
     1
102
RTVSPost2010Prop35
280
     0
102
RTVSPost2010PropOp35
 70
     1
102
RTVSPost2010Prop36
280
     0
102
RTVSPost2010PropOp36
 70
     1
102
RTVSPost2010Prop37
 90
       50
102
RTVSPost2010PropOp37
 70
     1
102
RTVSPost2010Prop38
140
0.0
102
RTVSPost2010PropOp38
 70
     1
102
RTVSPost2010Prop39
140
1.0
102
RTVSPost2010PropOp39
 70
     1
102
RTVSPost2010Prop40
 90
        0
102
RTVSPost2010PropOp40
 70
     1
102
RTVSPost2010Prop41ColorIndex
 90
       18
102
RTVSPost2010Prop41ColorRGB
 90
        0
102
RTVSPost2010PropOp41
 70
     1
102
RTVSPost2010Prop42
 90
       50
102
RTVSPost2010PropOp42
 70
     1
102
RTVSPost2010Prop43
 90
        3
102
RTVSPost2010PropOp43
 70
     1
102
RTVSPost2010Prop44ColorIndex
 90
        5
102
RTVSPost2010Prop44ColorRGB
 90
      255
102
RTVSPost2010PropOp44
 70
     1
102
RTVSPost2010Prop45
280
     0
102
RTVSPost2010PropOp45
 70
     1
102
RTVSPost2010Prop46
 90
       50
102
RTVSPost2010PropOp46
 70
     1
102
RTVSPost2010Prop47
 90
       50
102
RTVSPost2010PropOp47
 70
     1
102
RTVSPost2010Prop48
 90
       50
102
RTVSPost2010PropOp48
 70
     1
102
RTVSPost2010Prop49
280
     0
102
RTVSPost2010PropOp49
 70
     1
102
RTVSPost2010Prop50
 90
       50
102
RTVSPost2010PropOp50
 70
     1
102
RTVSPost2010Prop51ColorIndex
 90
      256
102
RTVSPost2010Prop51ColorRGB
 90
-16777216
102
RTVSPost2010PropOp51
 70
     0
102
RTVSPost2010Prop52
140
1.0
102
RTVSPost2010PropOp52
 70
     0
102
RTVSPost2010Prop53
 90
        2
102
RTVSPost2010PropOp53
 70
     1
102
RTVSPost2010Prop54
  1
strokes_ogs.tif
102
RTVSPost2010PropOp54
 70
     1
102
RTVSPost2010Prop55
280
     0
102
RTVSPost2010PropOp55
 70
     1
102
RTVSPost2010Prop56
140
1.0
102
RTVSPost2010PropOp56
 70
     1
102
RTVSPost2010Prop57
140
1.0
102
RTVSPost2010PropOp57
 70
     1
102
RTVSPropertyOp0
 70
     1
102
RTVSPropertyOp1
 70
     1
102
RTVSPropertyOp2
 70
     1
102
RTVSPropertyOp3
 70
     1
102
RTVSPropertyOp4
 70
     1
102
RTVSPropertyOp5
 70
     1
102
RTVSPropertyOp6
 70
     1
102
RTVSPropertyOp7
 70
     1
102
RTVSPropertyOp8
 70
     1
102
RTVSPropertyOp9
 70
     1
102
RTVSPropertyOp10
 70
     1
102
RTVSPropertyOp11
 70
     1
102
RTVSPropertyOp12
 70
     1
102
RTVSPropertyOp13
 70
     1
102
RTVSPropertyOp14
 70
     1
102
RTVSPropertyOp15
 70
     1
102
RTVSPropertyOp16
 70
     1
102
RTVSPropertyOp17
 70
     1
102
RTVSPropertyOp18
 70
     1
102
RTVSPropertyOp19
 70
     1
102
RTVSPropertyOp20
 70
     1
102
RTVSPropertyOp21
 70
     1
102
RTVSPropertyOp22
 70
     1
102
RTVSPropertyOp23
 70
     1
102
RTVSPropertyOp24
 70
     1
102
RTVSPropertyOp25
 70
     1
102
RTVSPropertyOp26
 70
     1
102
RTVSPropertyOp27
 70
     1
102
RTVSPropertyOp28
 70
     1
102
RTVSPropertyOp29
 70
     1
102
RTVSPropertyOp30
 70
     1
102
RTVSPropertyOp31
 70
     1
102
RTVSPropertyOp32
 70
     1
102
RTVSPropertyOp33
 70
     1
102
RTVSPropertyOp34
 70
     1
102
RTVSPropertyOp35
 70
     1
102
RTVSPropertyOp36
 70
     1
102
RTVSPropertyOp37
 70
     1
102
RTVSPropertyOp38
 70
     1
102
RTVSPropertyOp39
 70
     1
102
RTVSPropertyOp40
 70
     1
102
RTVSPropertyOp41
 70
     1
102
RTVSPropertyOp42
 70
     1
102
RTVSPropertyOp43
 70
     1
102
RTVSPropertyOp44
 70
     1
102
RTVSPropertyOp45
 70
     1
102
RTVSPropertyOp46
 70
     1
102
RTVSPropertyOp47
 70
     1
102
RTVSPropertyOp48
 70
     1
102
RTVSPropertyOp49
 70
     1
102
RTVSPropertyOp50
 70
     1
102
RTVSPropertyOp51
 70
     0
102
RTVSPropertyOp52
 70
     0
102
RTVSPropertyOp53
 70
     1
102
RTVSPropertyOp54
 70
     1
102
RTVSPropertyOp55
 70
     1
102
RTVSPropertyOp56
 70
     1
102
RTVSPropertyOp57
 70
     1
102
RTVSPropertyOp58
 70
     1
102
RTVSPropertyOp59
 70
     1
102
RTVSPropertyOp60
 70
     1
102
RTVSPropertyOp61
 70
     1
102
RTVSPropertyOp62
 70
     1
  0
XRECORD
  5
7ED1
102
{ACAD_REACTORS
330
7ED0
102
}
330
7ED0
100
AcDbXrecord
280
     1
102
RTVSPost2010Prop28
280
     0
102
RTVSPost2010PropOp28
 70
     1
102
RTVSPost2010Prop29
280
     1
102
RTVSPost2010PropOp29
 70
     1
102
RTVSPost2010Prop30
280
     1
102
RTVSPost2010PropOp30
 70
     1
102
RTVSPost2010Prop31
280
     0
102
RTVSPost2010PropOp31
 70
     1
102
RTVSPost2010Prop32
280
     0
102
RTVSPost2010PropOp32
 70
     1
102
RTVSPost2010Prop33
280
     0
102
RTVSPost2010PropOp33
 70
     1
102
RTVSPost2010Prop34
280
     0
102
RTVSPost2010PropOp34
 70
     1
102
RTVSPost2010Prop35
280
     0
102
RTVSPost2010PropOp35
 70
     1
102
RTVSPost2010Prop36
280
     0
102
RTVSPost2010PropOp36
 70
     1
102
RTVSPost2010Prop37
 90
       50
102
RTVSPost2010PropOp37
 70
     1
102
RTVSPost2010Prop38
140
0.0
102
RTVSPost2010PropOp38
 70
     1
102
RTVSPost2010Prop39
140
1.0
102
RTVSPost2010PropOp39
 70
     1
102
RTVSPost2010Prop40
 90
        0
102
RTVSPost2010PropOp40
 70
     1
102
RTVSPost2010Prop41ColorIndex
 90
       18
102
RTVSPost2010Prop41ColorRGB
 90
        0
102
RTVSPost2010PropOp41
 70
     1
102
RTVSPost2010Prop42
 90
       50
102
RTVSPost2010PropOp42
 70
     1
102
RTVSPost2010Prop43
 90
        3
102
RTVSPost2010PropOp43
 70
     1
102
RTVSPost2010Prop44ColorIndex
 90
        5
102
RTVSPost2010Prop44ColorRGB
 90
      255
102
RTVSPost2010PropOp44
 70
     1
102
RTVSPost2010Prop45
280
     0
102
RTVSPost2010PropOp45
 70
     1
102
RTVSPost2010Prop46
 90
       50
102
RTVSPost2010PropOp46
 70
     1
102
RTVSPost2010Prop47
 90
       50
102
RTVSPost2010PropOp47
 70
     1
102
RTVSPost2010Prop48
 90
       50
102
RTVSPost2010PropOp48
 70
     1
102
RTVSPost2010Prop49
280
     0
102
RTVSPost2010PropOp49
 70
     1
102
RTVSPost2010Prop50
 90
       50
102
RTVSPost2010PropOp50
 70
     1
102
RTVSPost2010Prop51ColorIndex
 90
      256
102
RTVSPost2010Prop51ColorRGB
 90
-16777216
102
RTVSPost2010PropOp51
 70
     0
102
RTVSPost2010Prop52
140
1.0
102
RTVSPost2010PropOp52
 70
     0
102
RTVSPost2010Prop53
 90
        2
102
RTVSPost2010PropOp53
 70
     1
102
RTVSPost2010Prop54
  1
strokes_ogs.tif
102
RTVSPost2010PropOp54
 70
     1
102
RTVSPost2010Prop55
280
     0
102
RTVSPost2010PropOp55
 70
     1
102
RTVSPost2010Prop56
140
1.0
102
RTVSPost2010PropOp56
 70
     1
102
RTVSPost2010Prop57
140
1.0
102
RTVSPost2010PropOp57
 70
     1
102
RTVSPropertyOp0
 70
     1
102
RTVSPropertyOp1
 70
     1
102
RTVSPropertyOp2
 70
     1
102
RTVSPropertyOp3
 70
     1
102
RTVSPropertyOp4
 70
     1
102
RTVSPropertyOp5
 70
     1
102
RTVSPropertyOp6
 70
     1
102
RTVSPropertyOp7
 70
     1
102
RTVSPropertyOp8
 70
     1
102
RTVSPropertyOp9
 70
     1
102
RTVSPropertyOp10
 70
     1
102
RTVSPropertyOp11
 70
     1
102
RTVSPropertyOp12
 70
     1
102
RTVSPropertyOp13
 70
     1
102
RTVSPropertyOp14
 70
     1
102
RTVSPropertyOp15
 70
     1
102
RTVSPropertyOp16
 70
     1
102
RTVSPropertyOp17
 70
     1
102
RTVSPropertyOp18
 70
     1
102
RTVSPropertyOp19
 70
     1
102
RTVSPropertyOp20
 70
     1
102
RTVSPropertyOp21
 70
     1
102
RTVSPropertyOp22
 70
     1
102
RTVSPropertyOp23
 70
     1
102
RTVSPropertyOp24
 70
     1
102
RTVSPropertyOp25
 70
     1
102
RTVSPropertyOp26
 70
     1
102
RTVSPropertyOp27
 70
     1
102
RTVSPropertyOp28
 70
     1
102
RTVSPropertyOp29
 70
     1
102
RTVSPropertyOp30
 70
     1
102
RTVSPropertyOp31
 70
     1
102
RTVSPropertyOp32
 70
     1
102
RTVSPropertyOp33
 70
     1
102
RTVSPropertyOp34
 70
     1
102
RTVSPropertyOp35
 70
     1
102
RTVSPropertyOp36
 70
     1
102
RTVSPropertyOp37
 70
     1
102
RTVSPropertyOp38
 70
     1
102
RTVSPropertyOp39
 70
     1
102
RTVSPropertyOp40
 70
     1
102
RTVSPropertyOp41
 70
     1
102
RTVSPropertyOp42
 70
     1
102
RTVSPropertyOp43
 70
     1
102
RTVSPropertyOp44
 70
     1
102
RTVSPropertyOp45
 70
     1
102
RTVSPropertyOp46
 70
     1
102
RTVSPropertyOp47
 70
     1
102
RTVSPropertyOp48
 70
     1
102
RTVSPropertyOp49
 70
     1
102
RTVSPropertyOp50
 70
     1
102
RTVSPropertyOp51
 70
     0
102
RTVSPropertyOp52
 70
     0
102
RTVSPropertyOp53
 70
     1
102
RTVSPropertyOp54
 70
     1
102
RTVSPropertyOp55
 70
     1
102
RTVSPropertyOp56
 70
     1
102
RTVSPropertyOp57
 70
     1
102
RTVSPropertyOp58
 70
     1
102
RTVSPropertyOp59
 70
     1
102
RTVSPropertyOp60
 70
     1
102
RTVSPropertyOp61
 70
     1
102
RTVSPropertyOp62
 70
     1
  0
XRECORD
  5
7ECF
102
{ACAD_REACTORS
330
7ECE
102
}
330
7ECE
100
AcDbXrecord
280
     1
102
RTVSPost2010Prop28
280
     0
102
RTVSPost2010PropOp28
 70
     1
102
RTVSPost2010Prop29
280
     1
102
RTVSPost2010PropOp29
 70
     1
102
RTVSPost2010Prop30
280
     1
102
RTVSPost2010PropOp30
 70
     1
102
RTVSPost2010Prop31
280
     0
102
RTVSPost2010PropOp31
 70
     1
102
RTVSPost2010Prop32
280
     0
102
RTVSPost2010PropOp32
 70
     1
102
RTVSPost2010Prop33
280
     0
102
RTVSPost2010PropOp33
 70
     1
102
RTVSPost2010Prop34
280
     0
102
RTVSPost2010PropOp34
 70
     1
102
RTVSPost2010Prop35
280
     0
102
RTVSPost2010PropOp35
 70
     1
102
RTVSPost2010Prop36
280
     0
102
RTVSPost2010PropOp36
 70
     1
102
RTVSPost2010Prop37
 90
       50
102
RTVSPost2010PropOp37
 70
     1
102
RTVSPost2010Prop38
140
0.0
102
RTVSPost2010PropOp38
 70
     1
102
RTVSPost2010Prop39
140
1.0
102
RTVSPost2010PropOp39
 70
     1
102
RTVSPost2010Prop40
 90
        0
102
RTVSPost2010PropOp40
 70
     1
102
RTVSPost2010Prop41ColorIndex
 90
       18
102
RTVSPost2010Prop41ColorRGB
 90
        0
102
RTVSPost2010PropOp41
 70
     1
102
RTVSPost2010Prop42
 90
       50
102
RTVSPost2010PropOp42
 70
     1
102
RTVSPost2010Prop43
 90
        3
102
RTVSPost2010PropOp43
 70
     1
102
RTVSPost2010Prop44ColorIndex
 90
        5
102
RTVSPost2010Prop44ColorRGB
 90
      255
102
RTVSPost2010PropOp44
 70
     1
102
RTVSPost2010Prop45
280
     0
102
RTVSPost2010PropOp45
 70
     1
102
RTVSPost2010Prop46
 90
       50
102
RTVSPost2010PropOp46
 70
     1
102
RTVSPost2010Prop47
 90
       50
102
RTVSPost2010PropOp47
 70
     1
102
RTVSPost2010Prop48
 90
       50
102
RTVSPost2010PropOp48
 70
     1
102
RTVSPost2010Prop49
280
     0
102
RTVSPost2010PropOp49
 70
     1
102
RTVSPost2010Prop50
 90
       50
102
RTVSPost2010PropOp50
 70
     1
102
RTVSPost2010Prop51ColorIndex
 90
      256
102
RTVSPost2010Prop51ColorRGB
 90
-16777216
102
RTVSPost2010PropOp51
 70
     0
102
RTVSPost2010Prop52
140
1.0
102
RTVSPost2010PropOp52
 70
     0
102
RTVSPost2010Prop53
 90
        2
102
RTVSPost2010PropOp53
 70
     1
102
RTVSPost2010Prop54
  1
strokes_ogs.tif
102
RTVSPost2010PropOp54
 70
     1
102
RTVSPost2010Prop55
280
     0
102
RTVSPost2010PropOp55
 70
     1
102
RTVSPost2010Prop56
140
1.0
102
RTVSPost2010PropOp56
 70
     1
102
RTVSPost2010Prop57
140
1.0
102
RTVSPost2010PropOp57
 70
     1
102
RTVSPropertyOp0
 70
     1
102
RTVSPropertyOp1
 70
     1
102
RTVSPropertyOp2
 70
     1
102
RTVSPropertyOp3
 70
     1
102
RTVSPropertyOp4
 70
     1
102
RTVSPropertyOp5
 70
     1
102
RTVSPropertyOp6
 70
     1
102
RTVSPropertyOp7
 70
     1
102
RTVSPropertyOp8
 70
     1
102
RTVSPropertyOp9
 70
     1
102
RTVSPropertyOp10
 70
     1
102
RTVSPropertyOp11
 70
     1
102
RTVSPropertyOp12
 70
     1
102
RTVSPropertyOp13
 70
     1
102
RTVSPropertyOp14
 70
     1
102
RTVSPropertyOp15
 70
     1
102
RTVSPropertyOp16
 70
     1
102
RTVSPropertyOp17
 70
     1
102
RTVSPropertyOp18
 70
     1
102
RTVSPropertyOp19
 70
     1
102
RTVSPropertyOp20
 70
     1
102
RTVSPropertyOp21
 70
     1
102
RTVSPropertyOp22
 70
     1
102
RTVSPropertyOp23
 70
     1
102
RTVSPropertyOp24
 70
     1
102
RTVSPropertyOp25
 70
     1
102
RTVSPropertyOp26
 70
     1
102
RTVSPropertyOp27
 70
     1
102
RTVSPropertyOp28
 70
     1
102
RTVSPropertyOp29
 70
     1
102
RTVSPropertyOp30
 70
     1
102
RTVSPropertyOp31
 70
     1
102
RTVSPropertyOp32
 70
     1
102
RTVSPropertyOp33
 70
     1
102
RTVSPropertyOp34
 70
     1
102
RTVSPropertyOp35
 70
     1
102
RTVSPropertyOp36
 70
     1
102
RTVSPropertyOp37
 70
     1
102
RTVSPropertyOp38
 70
     1
102
RTVSPropertyOp39
 70
     1
102
RTVSPropertyOp40
 70
     1
102
RTVSPropertyOp41
 70
     1
102
RTVSPropertyOp42
 70
     1
102
RTVSPropertyOp43
 70
     1
102
RTVSPropertyOp44
 70
     1
102
RTVSPropertyOp45
 70
     1
102
RTVSPropertyOp46
 70
     1
102
RTVSPropertyOp47
 70
     1
102
RTVSPropertyOp48
 70
     1
102
RTVSPropertyOp49
 70
     1
102
RTVSPropertyOp50
 70
     1
102
RTVSPropertyOp51
 70
     0
102
RTVSPropertyOp52
 70
     0
102
RTVSPropertyOp53
 70
     1
102
RTVSPropertyOp54
 70
     1
102
RTVSPropertyOp55
 70
     1
102
RTVSPropertyOp56
 70
     1
102
RTVSPropertyOp57
 70
     1
102
RTVSPropertyOp58
 70
     1
102
RTVSPropertyOp59
 70
     1
102
RTVSPropertyOp60
 70
     1
102
RTVSPropertyOp61
 70
     1
102
RTVSPropertyOp62
 70
     1
  0
XRECORD
  5
7EC9
102
{ACAD_REACTORS
330
7EC8
102
}
330
7EC8
100
AcDbXrecord
280
     1
102
RTVSPost2010Prop28
280
     0
102
RTVSPost2010PropOp28
 70
     1
102
RTVSPost2010Prop29
280
     1
102
RTVSPost2010PropOp29
 70
     1
102
RTVSPost2010Prop30
280
     1
102
RTVSPost2010PropOp30
 70
     1
102
RTVSPost2010Prop31
280
     0
102
RTVSPost2010PropOp31
 70
     1
102
RTVSPost2010Prop32
280
     0
102
RTVSPost2010PropOp32
 70
     1
102
RTVSPost2010Prop33
280
     0
102
RTVSPost2010PropOp33
 70
     1
102
RTVSPost2010Prop34
280
     0
102
RTVSPost2010PropOp34
 70
     1
102
RTVSPost2010Prop35
280
     0
102
RTVSPost2010PropOp35
 70
     1
102
RTVSPost2010Prop36
280
     0
102
RTVSPost2010PropOp36
 70
     1
102
RTVSPost2010Prop37
 90
       50
102
RTVSPost2010PropOp37
 70
     1
102
RTVSPost2010Prop38
140
0.0
102
RTVSPost2010PropOp38
 70
     1
102
RTVSPost2010Prop39
140
1.0
102
RTVSPost2010PropOp39
 70
     1
102
RTVSPost2010Prop40
 90
        0
102
RTVSPost2010PropOp40
 70
     1
102
RTVSPost2010Prop41ColorIndex
 90
       18
102
RTVSPost2010Prop41ColorRGB
 90
        0
102
RTVSPost2010PropOp41
 70
     1
102
RTVSPost2010Prop42
 90
       50
102
RTVSPost2010PropOp42
 70
     1
102
RTVSPost2010Prop43
 90
        3
102
RTVSPost2010PropOp43
 70
     1
102
RTVSPost2010Prop44ColorIndex
 90
        5
102
RTVSPost2010Prop44ColorRGB
 90
      255
102
RTVSPost2010PropOp44
 70
     1
102
RTVSPost2010Prop45
280
     0
102
RTVSPost2010PropOp45
 70
     1
102
RTVSPost2010Prop46
 90
       50
102
RTVSPost2010PropOp46
 70
     1
102
RTVSPost2010Prop47
 90
       50
102
RTVSPost2010PropOp47
 70
     1
102
RTVSPost2010Prop48
 90
       50
102
RTVSPost2010PropOp48
 70
     1
102
RTVSPost2010Prop49
280
     0
102
RTVSPost2010PropOp49
 70
     1
102
RTVSPost2010Prop50
 90
       50
102
RTVSPost2010PropOp50
 70
     1
102
RTVSPost2010Prop51ColorIndex
 90
      256
102
RTVSPost2010Prop51ColorRGB
 90
-16777216
102
RTVSPost2010PropOp51
 70
     0
102
RTVSPost2010Prop52
140
1.0
102
RTVSPost2010PropOp52
 70
     0
102
RTVSPost2010Prop53
 90
        2
102
RTVSPost2010PropOp53
 70
     1
102
RTVSPost2010Prop54
  1
strokes_ogs.tif
102
RTVSPost2010PropOp54
 70
     1
102
RTVSPost2010Prop55
280
     0
102
RTVSPost2010PropOp55
 70
     1
102
RTVSPost2010Prop56
140
1.0
102
RTVSPost2010PropOp56
 70
     1
102
RTVSPost2010Prop57
140
1.0
102
RTVSPost2010PropOp57
 70
     1
102
RTVSPropertyOp0
 70
     1
102
RTVSPropertyOp1
 70
     1
102
RTVSPropertyOp2
 70
     1
102
RTVSPropertyOp3
 70
     1
102
RTVSPropertyOp4
 70
     1
102
RTVSPropertyOp5
 70
     1
102
RTVSPropertyOp6
 70
     1
102
RTVSPropertyOp7
 70
     1
102
RTVSPropertyOp8
 70
     1
102
RTVSPropertyOp9
 70
     1
102
RTVSPropertyOp10
 70
     1
102
RTVSPropertyOp11
 70
     1
102
RTVSPropertyOp12
 70
     1
102
RTVSPropertyOp13
 70
     1
102
RTVSPropertyOp14
 70
     1
102
RTVSPropertyOp15
 70
     1
102
RTVSPropertyOp16
 70
     1
102
RTVSPropertyOp17
 70
     1
102
RTVSPropertyOp18
 70
     1
102
RTVSPropertyOp19
 70
     1
102
RTVSPropertyOp20
 70
     1
102
RTVSPropertyOp21
 70
     1
102
RTVSPropertyOp22
 70
     1
102
RTVSPropertyOp23
 70
     1
102
RTVSPropertyOp24
 70
     1
102
RTVSPropertyOp25
 70
     1
102
RTVSPropertyOp26
 70
     1
102
RTVSPropertyOp27
 70
     1
102
RTVSPropertyOp28
 70
     1
102
RTVSPropertyOp29
 70
     1
102
RTVSPropertyOp30
 70
     1
102
RTVSPropertyOp31
 70
     1
102
RTVSPropertyOp32
 70
     1
102
RTVSPropertyOp33
 70
     1
102
RTVSPropertyOp34
 70
     1
102
RTVSPropertyOp35
 70
     1
102
RTVSPropertyOp36
 70
     1
102
RTVSPropertyOp37
 70
     1
102
RTVSPropertyOp38
 70
     1
102
RTVSPropertyOp39
 70
     1
102
RTVSPropertyOp40
 70
     1
102
RTVSPropertyOp41
 70
     1
102
RTVSPropertyOp42
 70
     1
102
RTVSPropertyOp43
 70
     1
102
RTVSPropertyOp44
 70
     1
102
RTVSPropertyOp45
 70
     1
102
RTVSPropertyOp46
 70
     1
102
RTVSPropertyOp47
 70
     1
102
RTVSPropertyOp48
 70
     1
102
RTVSPropertyOp49
 70
     1
102
RTVSPropertyOp50
 70
     1
102
RTVSPropertyOp51
 70
     0
102
RTVSPropertyOp52
 70
     0
102
RTVSPropertyOp53
 70
     1
102
RTVSPropertyOp54
 70
     1
102
RTVSPropertyOp55
 70
     1
102
RTVSPropertyOp56
 70
     1
102
RTVSPropertyOp57
 70
     1
102
RTVSPropertyOp58
 70
     1
102
RTVSPropertyOp59
 70
     1
102
RTVSPropertyOp60
 70
     1
102
RTVSPropertyOp61
 70
     1
102
RTVSPropertyOp62
 70
     1
  0
XRECORD
  5
7ECB
102
{ACAD_REACTORS
330
7ECA
102
}
330
7ECA
100
AcDbXrecord
280
     1
102
RTVSPost2010Prop28
280
     0
102
RTVSPost2010PropOp28
 70
     1
102
RTVSPost2010Prop29
280
     1
102
RTVSPost2010PropOp29
 70
     1
102
RTVSPost2010Prop30
280
     1
102
RTVSPost2010PropOp30
 70
     1
102
RTVSPost2010Prop31
280
     0
102
RTVSPost2010PropOp31
 70
     1
102
RTVSPost2010Prop32
280
     0
102
RTVSPost2010PropOp32
 70
     1
102
RTVSPost2010Prop33
280
     0
102
RTVSPost2010PropOp33
 70
     1
102
RTVSPost2010Prop34
280
     0
102
RTVSPost2010PropOp34
 70
     1
102
RTVSPost2010Prop35
280
     0
102
RTVSPost2010PropOp35
 70
     1
102
RTVSPost2010Prop36
280
     0
102
RTVSPost2010PropOp36
 70
     1
102
RTVSPost2010Prop37
 90
       50
102
RTVSPost2010PropOp37
 70
     1
102
RTVSPost2010Prop38
140
0.0
102
RTVSPost2010PropOp38
 70
     1
102
RTVSPost2010Prop39
140
1.0
102
RTVSPost2010PropOp39
 70
     1
102
RTVSPost2010Prop40
 90
        0
102
RTVSPost2010PropOp40
 70
     1
102
RTVSPost2010Prop41ColorIndex
 90
       18
102
RTVSPost2010Prop41ColorRGB
 90
        0
102
RTVSPost2010PropOp41
 70
     1
102
RTVSPost2010Prop42
 90
       50
102
RTVSPost2010PropOp42
 70
     1
102
RTVSPost2010Prop43
 90
        3
102
RTVSPost2010PropOp43
 70
     1
102
RTVSPost2010Prop44ColorIndex
 90
        5
102
RTVSPost2010Prop44ColorRGB
 90
      255
102
RTVSPost2010PropOp44
 70
     1
102
RTVSPost2010Prop45
280
     0
102
RTVSPost2010PropOp45
 70
     1
102
RTVSPost2010Prop46
 90
       50
102
RTVSPost2010PropOp46
 70
     1
102
RTVSPost2010Prop47
 90
       50
102
RTVSPost2010PropOp47
 70
     1
102
RTVSPost2010Prop48
 90
       50
102
RTVSPost2010PropOp48
 70
     1
102
RTVSPost2010Prop49
280
     0
102
RTVSPost2010PropOp49
 70
     1
102
RTVSPost2010Prop50
 90
       50
102
RTVSPost2010PropOp50
 70
     1
102
RTVSPost2010Prop51ColorIndex
 90
      256
102
RTVSPost2010Prop51ColorRGB
 90
-16777216
102
RTVSPost2010PropOp51
 70
     0
102
RTVSPost2010Prop52
140
1.0
102
RTVSPost2010PropOp52
 70
     0
102
RTVSPost2010Prop53
 90
        2
102
RTVSPost2010PropOp53
 70
     1
102
RTVSPost2010Prop54
  1
strokes_ogs.tif
102
RTVSPost2010PropOp54
 70
     1
102
RTVSPost2010Prop55
280
     0
102
RTVSPost2010PropOp55
 70
     1
102
RTVSPost2010Prop56
140
1.0
102
RTVSPost2010PropOp56
 70
     1
102
RTVSPost2010Prop57
140
1.0
102
RTVSPost2010PropOp57
 70
     1
102
RTVSPropertyOp0
 70
     1
102
RTVSPropertyOp1
 70
     1
102
RTVSPropertyOp2
 70
     1
102
RTVSPropertyOp3
 70
     1
102
RTVSPropertyOp4
 70
     1
102
RTVSPropertyOp5
 70
     1
102
RTVSPropertyOp6
 70
     1
102
RTVSPropertyOp7
 70
     1
102
RTVSPropertyOp8
 70
     1
102
RTVSPropertyOp9
 70
     1
102
RTVSPropertyOp10
 70
     1
102
RTVSPropertyOp11
 70
     1
102
RTVSPropertyOp12
 70
     1
102
RTVSPropertyOp13
 70
     1
102
RTVSPropertyOp14
 70
     1
102
RTVSPropertyOp15
 70
     1
102
RTVSPropertyOp16
 70
     1
102
RTVSPropertyOp17
 70
     1
102
RTVSPropertyOp18
 70
     1
102
RTVSPropertyOp19
 70
     1
102
RTVSPropertyOp20
 70
     1
102
RTVSPropertyOp21
 70
     1
102
RTVSPropertyOp22
 70
     1
102
RTVSPropertyOp23
 70
     1
102
RTVSPropertyOp24
 70
     1
102
RTVSPropertyOp25
 70
     1
102
RTVSPropertyOp26
 70
     1
102
RTVSPropertyOp27
 70
     1
102
RTVSPropertyOp28
 70
     1
102
RTVSPropertyOp29
 70
     1
102
RTVSPropertyOp30
 70
     1
102
RTVSPropertyOp31
 70
     1
102
RTVSPropertyOp32
 70
     1
102
RTVSPropertyOp33
 70
     1
102
RTVSPropertyOp34
 70
     1
102
RTVSPropertyOp35
 70
     1
102
RTVSPropertyOp36
 70
     1
102
RTVSPropertyOp37
 70
     1
102
RTVSPropertyOp38
 70
     1
102
RTVSPropertyOp39
 70
     1
102
RTVSPropertyOp40
 70
     1
102
RTVSPropertyOp41
 70
     1
102
RTVSPropertyOp42
 70
     1
102
RTVSPropertyOp43
 70
     1
102
RTVSPropertyOp44
 70
     1
102
RTVSPropertyOp45
 70
     1
102
RTVSPropertyOp46
 70
     1
102
RTVSPropertyOp47
 70
     1
102
RTVSPropertyOp48
 70
     1
102
RTVSPropertyOp49
 70
     1
102
RTVSPropertyOp50
 70
     1
102
RTVSPropertyOp51
 70
     0
102
RTVSPropertyOp52
 70
     0
102
RTVSPropertyOp53
 70
     1
102
RTVSPropertyOp54
 70
     1
102
RTVSPropertyOp55
 70
     1
102
RTVSPropertyOp56
 70
     1
102
RTVSPropertyOp57
 70
     1
102
RTVSPropertyOp58
 70
     1
102
RTVSPropertyOp59
 70
     1
102
RTVSPropertyOp60
 70
     1
102
RTVSPropertyOp61
 70
     1
102
RTVSPropertyOp62
 70
     1
  0
XRECORD
  5
7EBB
102
{ACAD_REACTORS
330
7EBA
102
}
330
7EBA
100
AcDbXrecord
280
     1
102
RTVSPost2010Prop28
280
     0
102
RTVSPost2010PropOp28
 70
     1
102
RTVSPost2010Prop29
280
     1
102
RTVSPost2010PropOp29
 70
     1
102
RTVSPost2010Prop30
280
     1
102
RTVSPost2010PropOp30
 70
     1
102
RTVSPost2010Prop31
280
     0
102
RTVSPost2010PropOp31
 70
     1
102
RTVSPost2010Prop32
280
     0
102
RTVSPost2010PropOp32
 70
     1
102
RTVSPost2010Prop33
280
     0
102
RTVSPost2010PropOp33
 70
     1
102
RTVSPost2010Prop34
280
     0
102
RTVSPost2010PropOp34
 70
     1
102
RTVSPost2010Prop35
280
     0
102
RTVSPost2010PropOp35
 70
     1
102
RTVSPost2010Prop36
280
     0
102
RTVSPost2010PropOp36
 70
     1
102
RTVSPost2010Prop37
 90
       50
102
RTVSPost2010PropOp37
 70
     1
102
RTVSPost2010Prop38
140
0.0
102
RTVSPost2010PropOp38
 70
     1
102
RTVSPost2010Prop39
140
1.0
102
RTVSPost2010PropOp39
 70
     1
102
RTVSPost2010Prop40
 90
        0
102
RTVSPost2010PropOp40
 70
     1
102
RTVSPost2010Prop41ColorIndex
 90
       18
102
RTVSPost2010Prop41ColorRGB
 90
        0
102
RTVSPost2010PropOp41
 70
     1
102
RTVSPost2010Prop42
 90
       50
102
RTVSPost2010PropOp42
 70
     1
102
RTVSPost2010Prop43
 90
        3
102
RTVSPost2010PropOp43
 70
     1
102
RTVSPost2010Prop44ColorIndex
 90
        5
102
RTVSPost2010Prop44ColorRGB
 90
      255
102
RTVSPost2010PropOp44
 70
     1
102
RTVSPost2010Prop45
280
     0
102
RTVSPost2010PropOp45
 70
     1
102
RTVSPost2010Prop46
 90
       50
102
RTVSPost2010PropOp46
 70
     1
102
RTVSPost2010Prop47
 90
       50
102
RTVSPost2010PropOp47
 70
     1
102
RTVSPost2010Prop48
 90
       50
102
RTVSPost2010PropOp48
 70
     1
102
RTVSPost2010Prop49
280
     0
102
RTVSPost2010PropOp49
 70
     1
102
RTVSPost2010Prop50
 90
       50
102
RTVSPost2010PropOp50
 70
     1
102
RTVSPost2010Prop51ColorIndex
 90
      256
102
RTVSPost2010Prop51ColorRGB
 90
-16777216
102
RTVSPost2010PropOp51
 70
     0
102
RTVSPost2010Prop52
140
1.0
102
RTVSPost2010PropOp52
 70
     0
102
RTVSPost2010Prop53
 90
        2
102
RTVSPost2010PropOp53
 70
     1
102
RTVSPost2010Prop54
  1
strokes_ogs.tif
102
RTVSPost2010PropOp54
 70
     1
102
RTVSPost2010Prop55
280
     0
102
RTVSPost2010PropOp55
 70
     1
102
RTVSPost2010Prop56
140
1.0
102
RTVSPost2010PropOp56
 70
     1
102
RTVSPost2010Prop57
140
1.0
102
RTVSPost2010PropOp57
 70
     1
102
RTVSPropertyOp0
 70
     1
102
RTVSPropertyOp1
 70
     1
102
RTVSPropertyOp2
 70
     1
102
RTVSPropertyOp3
 70
     1
102
RTVSPropertyOp4
 70
     1
102
RTVSPropertyOp5
 70
     1
102
RTVSPropertyOp6
 70
     1
102
RTVSPropertyOp7
 70
     1
102
RTVSPropertyOp8
 70
     1
102
RTVSPropertyOp9
 70
     1
102
RTVSPropertyOp10
 70
     1
102
RTVSPropertyOp11
 70
     1
102
RTVSPropertyOp12
 70
     1
102
RTVSPropertyOp13
 70
     1
102
RTVSPropertyOp14
 70
     1
102
RTVSPropertyOp15
 70
     1
102
RTVSPropertyOp16
 70
     1
102
RTVSPropertyOp17
 70
     1
102
RTVSPropertyOp18
 70
     1
102
RTVSPropertyOp19
 70
     1
102
RTVSPropertyOp20
 70
     1
102
RTVSPropertyOp21
 70
     1
102
RTVSPropertyOp22
 70
     1
102
RTVSPropertyOp23
 70
     1
102
RTVSPropertyOp24
 70
     1
102
RTVSPropertyOp25
 70
     1
102
RTVSPropertyOp26
 70
     1
102
RTVSPropertyOp27
 70
     1
102
RTVSPropertyOp28
 70
     1
102
RTVSPropertyOp29
 70
     1
102
RTVSPropertyOp30
 70
     1
102
RTVSPropertyOp31
 70
     1
102
RTVSPropertyOp32
 70
     1
102
RTVSPropertyOp33
 70
     1
102
RTVSPropertyOp34
 70
     1
102
RTVSPropertyOp35
 70
     1
102
RTVSPropertyOp36
 70
     1
102
RTVSPropertyOp37
 70
     1
102
RTVSPropertyOp38
 70
     1
102
RTVSPropertyOp39
 70
     1
102
RTVSPropertyOp40
 70
     1
102
RTVSPropertyOp41
 70
     1
102
RTVSPropertyOp42
 70
     1
102
RTVSPropertyOp43
 70
     1
102
RTVSPropertyOp44
 70
     1
102
RTVSPropertyOp45
 70
     1
102
RTVSPropertyOp46
 70
     1
102
RTVSPropertyOp47
 70
     1
102
RTVSPropertyOp48
 70
     1
102
RTVSPropertyOp49
 70
     1
102
RTVSPropertyOp50
 70
     1
102
RTVSPropertyOp51
 70
     0
102
RTVSPropertyOp52
 70
     0
102
RTVSPropertyOp53
 70
     1
102
RTVSPropertyOp54
 70
     1
102
RTVSPropertyOp55
 70
     1
102
RTVSPropertyOp56
 70
     1
102
RTVSPropertyOp57
 70
     1
102
RTVSPropertyOp58
 70
     1
102
RTVSPropertyOp59
 70
     1
102
RTVSPropertyOp60
 70
     1
102
RTVSPropertyOp61
 70
     1
102
RTVSPropertyOp62
 70
     1
  0
XRECORD
  5
7EC5
102
{ACAD_REACTORS
330
7EC4
102
}
330
7EC4
100
AcDbXrecord
280
     1
102
RTVSPost2010Prop28
280
     0
102
RTVSPost2010PropOp28
 70
     1
102
RTVSPost2010Prop29
280
     1
102
RTVSPost2010PropOp29
 70
     1
102
RTVSPost2010Prop30
280
     1
102
RTVSPost2010PropOp30
 70
     1
102
RTVSPost2010Prop31
280
     0
102
RTVSPost2010PropOp31
 70
     1
102
RTVSPost2010Prop32
280
     0
102
RTVSPost2010PropOp32
 70
     1
102
RTVSPost2010Prop33
280
     0
102
RTVSPost2010PropOp33
 70
     1
102
RTVSPost2010Prop34
280
     0
102
RTVSPost2010PropOp34
 70
     1
102
RTVSPost2010Prop35
280
     0
102
RTVSPost2010PropOp35
 70
     1
102
RTVSPost2010Prop36
280
     0
102
RTVSPost2010PropOp36
 70
     1
102
RTVSPost2010Prop37
 90
       50
102
RTVSPost2010PropOp37
 70
     1
102
RTVSPost2010Prop38
140
0.0
102
RTVSPost2010PropOp38
 70
     1
102
RTVSPost2010Prop39
140
1.0
102
RTVSPost2010PropOp39
 70
     1
102
RTVSPost2010Prop40
 90
        0
102
RTVSPost2010PropOp40
 70
     1
102
RTVSPost2010Prop41ColorIndex
 90
       18
102
RTVSPost2010Prop41ColorRGB
 90
        0
102
RTVSPost2010PropOp41
 70
     1
102
RTVSPost2010Prop42
 90
       50
102
RTVSPost2010PropOp42
 70
     1
102
RTVSPost2010Prop43
 90
        3
102
RTVSPost2010PropOp43
 70
     1
102
RTVSPost2010Prop44ColorIndex
 90
        5
102
RTVSPost2010Prop44ColorRGB
 90
      255
102
RTVSPost2010PropOp44
 70
     1
102
RTVSPost2010Prop45
280
     0
102
RTVSPost2010PropOp45
 70
     1
102
RTVSPost2010Prop46
 90
       50
102
RTVSPost2010PropOp46
 70
     1
102
RTVSPost2010Prop47
 90
       50
102
RTVSPost2010PropOp47
 70
     1
102
RTVSPost2010Prop48
 90
       50
102
RTVSPost2010PropOp48
 70
     1
102
RTVSPost2010Prop49
280
     0
102
RTVSPost2010PropOp49
 70
     1
102
RTVSPost2010Prop50
 90
       50
102
RTVSPost2010PropOp50
 70
     1
102
RTVSPost2010Prop51ColorIndex
 90
      256
102
RTVSPost2010Prop51ColorRGB
 90
-16777216
102
RTVSPost2010PropOp51
 70
     0
102
RTVSPost2010Prop52
140
1.0
102
RTVSPost2010PropOp52
 70
     0
102
RTVSPost2010Prop53
 90
        2
102
RTVSPost2010PropOp53
 70
     1
102
RTVSPost2010Prop54
  1
strokes_ogs.tif
102
RTVSPost2010PropOp54
 70
     1
102
RTVSPost2010Prop55
280
     0
102
RTVSPost2010PropOp55
 70
     1
102
RTVSPost2010Prop56
140
1.0
102
RTVSPost2010PropOp56
 70
     1
102
RTVSPost2010Prop57
140
1.0
102
RTVSPost2010PropOp57
 70
     1
102
RTVSPropertyOp0
 70
     1
102
RTVSPropertyOp1
 70
     1
102
RTVSPropertyOp2
 70
     1
102
RTVSPropertyOp3
 70
     1
102
RTVSPropertyOp4
 70
     1
102
RTVSPropertyOp5
 70
     1
102
RTVSPropertyOp6
 70
     1
102
RTVSPropertyOp7
 70
     1
102
RTVSPropertyOp8
 70
     1
102
RTVSPropertyOp9
 70
     1
102
RTVSPropertyOp10
 70
     1
102
RTVSPropertyOp11
 70
     1
102
RTVSPropertyOp12
 70
     1
102
RTVSPropertyOp13
 70
     1
102
RTVSPropertyOp14
 70
     1
102
RTVSPropertyOp15
 70
     1
102
RTVSPropertyOp16
 70
     1
102
RTVSPropertyOp17
 70
     1
102
RTVSPropertyOp18
 70
     1
102
RTVSPropertyOp19
 70
     1
102
RTVSPropertyOp20
 70
     1
102
RTVSPropertyOp21
 70
     1
102
RTVSPropertyOp22
 70
     1
102
RTVSPropertyOp23
 70
     1
102
RTVSPropertyOp24
 70
     1
102
RTVSPropertyOp25
 70
     1
102
RTVSPropertyOp26
 70
     1
102
RTVSPropertyOp27
 70
     1
102
RTVSPropertyOp28
 70
     1
102
RTVSPropertyOp29
 70
     1
102
RTVSPropertyOp30
 70
     1
102
RTVSPropertyOp31
 70
     1
102
RTVSPropertyOp32
 70
     1
102
RTVSPropertyOp33
 70
     1
102
RTVSPropertyOp34
 70
     1
102
RTVSPropertyOp35
 70
     1
102
RTVSPropertyOp36
 70
     1
102
RTVSPropertyOp37
 70
     1
102
RTVSPropertyOp38
 70
     1
102
RTVSPropertyOp39
 70
     1
102
RTVSPropertyOp40
 70
     1
102
RTVSPropertyOp41
 70
     1
102
RTVSPropertyOp42
 70
     1
102
RTVSPropertyOp43
 70
     1
102
RTVSPropertyOp44
 70
     1
102
RTVSPropertyOp45
 70
     1
102
RTVSPropertyOp46
 70
     1
102
RTVSPropertyOp47
 70
     1
102
RTVSPropertyOp48
 70
     1
102
RTVSPropertyOp49
 70
     1
102
RTVSPropertyOp50
 70
     1
102
RTVSPropertyOp51
 70
     0
102
RTVSPropertyOp52
 70
     0
102
RTVSPropertyOp53
 70
     1
102
RTVSPropertyOp54
 70
     1
102
RTVSPropertyOp55
 70
     1
102
RTVSPropertyOp56
 70
     1
102
RTVSPropertyOp57
 70
     1
102
RTVSPropertyOp58
 70
     1
102
RTVSPropertyOp59
 70
     1
102
RTVSPropertyOp60
 70
     1
102
RTVSPropertyOp61
 70
     1
102
RTVSPropertyOp62
 70
     1
  0
XRECORD
  5
7ECD
102
{ACAD_REACTORS
330
7ECC
102
}
330
7ECC
100
AcDbXrecord
280
     1
102
RTVSPost2010Prop28
280
     0
102
RTVSPost2010PropOp28
 70
     1
102
RTVSPost2010Prop29
280
     1
102
RTVSPost2010PropOp29
 70
     1
102
RTVSPost2010Prop30
280
     1
102
RTVSPost2010PropOp30
 70
     1
102
RTVSPost2010Prop31
280
     0
102
RTVSPost2010PropOp31
 70
     1
102
RTVSPost2010Prop32
280
     0
102
RTVSPost2010PropOp32
 70
     1
102
RTVSPost2010Prop33
280
     0
102
RTVSPost2010PropOp33
 70
     1
102
RTVSPost2010Prop34
280
     0
102
RTVSPost2010PropOp34
 70
     1
102
RTVSPost2010Prop35
280
     0
102
RTVSPost2010PropOp35
 70
     1
102
RTVSPost2010Prop36
280
     0
102
RTVSPost2010PropOp36
 70
     1
102
RTVSPost2010Prop37
 90
       50
102
RTVSPost2010PropOp37
 70
     1
102
RTVSPost2010Prop38
140
0.0
102
RTVSPost2010PropOp38
 70
     1
102
RTVSPost2010Prop39
140
1.0
102
RTVSPost2010PropOp39
 70
     1
102
RTVSPost2010Prop40
 90
        0
102
RTVSPost2010PropOp40
 70
     1
102
RTVSPost2010Prop41ColorIndex
 90
       18
102
RTVSPost2010Prop41ColorRGB
 90
        0
102
RTVSPost2010PropOp41
 70
     1
102
RTVSPost2010Prop42
 90
       50
102
RTVSPost2010PropOp42
 70
     1
102
RTVSPost2010Prop43
 90
        3
102
RTVSPost2010PropOp43
 70
     1
102
RTVSPost2010Prop44ColorIndex
 90
        5
102
RTVSPost2010Prop44ColorRGB
 90
      255
102
RTVSPost2010PropOp44
 70
     1
102
RTVSPost2010Prop45
280
     0
102
RTVSPost2010PropOp45
 70
     1
102
RTVSPost2010Prop46
 90
       50
102
RTVSPost2010PropOp46
 70
     1
102
RTVSPost2010Prop47
 90
       50
102
RTVSPost2010PropOp47
 70
     1
102
RTVSPost2010Prop48
 90
       50
102
RTVSPost2010PropOp48
 70
     1
102
RTVSPost2010Prop49
280
     0
102
RTVSPost2010PropOp49
 70
     1
102
RTVSPost2010Prop50
 90
       50
102
RTVSPost2010PropOp50
 70
     1
102
RTVSPost2010Prop51ColorIndex
 90
      256
102
RTVSPost2010Prop51ColorRGB
 90
-16777216
102
RTVSPost2010PropOp51
 70
     0
102
RTVSPost2010Prop52
140
1.0
102
RTVSPost2010PropOp52
 70
     0
102
RTVSPost2010Prop53
 90
        2
102
RTVSPost2010PropOp53
 70
     1
102
RTVSPost2010Prop54
  1
strokes_ogs.tif
102
RTVSPost2010PropOp54
 70
     1
102
RTVSPost2010Prop55
280
     0
102
RTVSPost2010PropOp55
 70
     1
102
RTVSPost2010Prop56
140
1.0
102
RTVSPost2010PropOp56
 70
     1
102
RTVSPost2010Prop57
140
1.0
102
RTVSPost2010PropOp57
 70
     1
102
RTVSPropertyOp0
 70
     1
102
RTVSPropertyOp1
 70
     1
102
RTVSPropertyOp2
 70
     1
102
RTVSPropertyOp3
 70
     1
102
RTVSPropertyOp4
 70
     1
102
RTVSPropertyOp5
 70
     1
102
RTVSPropertyOp6
 70
     1
102
RTVSPropertyOp7
 70
     1
102
RTVSPropertyOp8
 70
     1
102
RTVSPropertyOp9
 70
     1
102
RTVSPropertyOp10
 70
     1
102
RTVSPropertyOp11
 70
     1
102
RTVSPropertyOp12
 70
     1
102
RTVSPropertyOp13
 70
     1
102
RTVSPropertyOp14
 70
     1
102
RTVSPropertyOp15
 70
     1
102
RTVSPropertyOp16
 70
     1
102
RTVSPropertyOp17
 70
     1
102
RTVSPropertyOp18
 70
     1
102
RTVSPropertyOp19
 70
     1
102
RTVSPropertyOp20
 70
     1
102
RTVSPropertyOp21
 70
     1
102
RTVSPropertyOp22
 70
     1
102
RTVSPropertyOp23
 70
     1
102
RTVSPropertyOp24
 70
     1
102
RTVSPropertyOp25
 70
     1
102
RTVSPropertyOp26
 70
     1
102
RTVSPropertyOp27
 70
     1
102
RTVSPropertyOp28
 70
     1
102
RTVSPropertyOp29
 70
     1
102
RTVSPropertyOp30
 70
     1
102
RTVSPropertyOp31
 70
     1
102
RTVSPropertyOp32
 70
     1
102
RTVSPropertyOp33
 70
     1
102
RTVSPropertyOp34
 70
     1
102
RTVSPropertyOp35
 70
     1
102
RTVSPropertyOp36
 70
     1
102
RTVSPropertyOp37
 70
     1
102
RTVSPropertyOp38
 70
     1
102
RTVSPropertyOp39
 70
     1
102
RTVSPropertyOp40
 70
     1
102
RTVSPropertyOp41
 70
     1
102
RTVSPropertyOp42
 70
     1
102
RTVSPropertyOp43
 70
     1
102
RTVSPropertyOp44
 70
     1
102
RTVSPropertyOp45
 70
     1
102
RTVSPropertyOp46
 70
     1
102
RTVSPropertyOp47
 70
     1
102
RTVSPropertyOp48
 70
     1
102
RTVSPropertyOp49
 70
     1
102
RTVSPropertyOp50
 70
     1
102
RTVSPropertyOp51
 70
     0
102
RTVSPropertyOp52
 70
     0
102
RTVSPropertyOp53
 70
     1
102
RTVSPropertyOp54
 70
     1
102
RTVSPropertyOp55
 70
     1
102
RTVSPropertyOp56
 70
     1
102
RTVSPropertyOp57
 70
     1
102
RTVSPropertyOp58
 70
     1
102
RTVSPropertyOp59
 70
     1
102
RTVSPropertyOp60
 70
     1
102
RTVSPropertyOp61
 70
     1
102
RTVSPropertyOp62
 70
     1
  0
ENDSEC
  0
EOF
