  0
SECTION
  2
HEADER
  9
$ACADVER
  1
AC1018
  9
$ACADMAINTVER
 70
   104
  9
$DWGCODEPAGE
  3
ANSI_1252
  9
$LASTSAVEDBY
  1
Dennis
  9
$INSBASE
 10
0.0
 20
0.0
 30
0.0
  9
$EXTMIN
 10
326.3602844704983
 20
13508.80221336334
 30
0.0
  9
$EXTMAX
 10
1206.360284470499
 20
14656.30221336334
 30
0.0
  9
$LIMMIN
 10
0.0
 20
0.0
  9
$LIMMAX
 10
420.0
 20
297.0
  9
$ORTHOMODE
 70
     0
  9
$REGENMODE
 70
     1
  9
$FILLMODE
 70
     1
  9
$QTEXTMODE
 70
     0
  9
$MIRRTEXT
 70
     1
  9
$LTSCALE
 40
1.0
  9
$ATTMODE
 70
     1
  9
$TEXTSIZE
 40
2.0
  9
$TRACEWID
 40
1.0
  9
$TEXTSTYLE
  7
ben 1
  9
$CLAYER
  8
Text
  9
$CELTYPE
  6
ByLayer
  9
$CECOLOR
 62
   256
  9
$CELTSCALE
 40
10.0
  9
$DISPSILH
 70
     0
  9
$DIMSCALE
 40
0.0
  9
$DIMASZ
 40
3.0
  9
$DIMEXO
 40
1.0
  9
$DIMDLI
 40
1.0
  9
$DIMRND
 40
0.0
  9
$DIMDLE
 40
0.0
  9
$DIMEXE
 40
1.0
  9
$DIMTP
 40
0.0
  9
$DIMTM
 40
0.0
  9
$DIMTXT
 40
2.0
  9
$DIMCEN
 40
1.0
  9
$DIMTSZ
 40
0.0
  9
$DIMTOL
 70
     0
  9
$DIMLIM
 70
     0
  9
$DIMTIH
 70
     0
  9
$DIMTOH
 70
     0
  9
$DIMSE1
 70
     0
  9
$DIMSE2
 70
     0
  9
$DIMTAD
 70
     1
  9
$DIMZIN
 70
     8
  9
$DIMBLK
  1
ArchTick
  9
$DIMASO
 70
     1
  9
$DIMSHO
 70
     1
  9
$DIMPOST
  1

  9
$DIMAPOST
  1

  9
$DIMALT
 70
     0
  9
$DIMALTD
 70
     3
  9
$DIMALTF
 40
0.03937007874016
  9
$DIMLFAC
 40
1.0
  9
$DIMTOFL
 70
     1
  9
$DIMTVP
 40
0.0
  9
$DIMTIX
 70
     0
  9
$DIMSOXD
 70
     0
  9
$DIMSAH
 70
     0
  9
$DIMBLK1
  1

  9
$DIMBLK2
  1

  9
$DIMSTYLE
  2
Ben 10
  9
$DIMCLRD
 70
     0
  9
$DIMCLRE
 70
     0
  9
$DIMCLRT
 70
     0
  9
$DIMTFAC
 40
1.0
  9
$DIMGAP
 40
1.0
  9
$DIMJUST
 70
     0
  9
$DIMSD1
 70
     0
  9
$DIMSD2
 70
     0
  9
$DIMTOLJ
 70
     0
  9
$DIMTZIN
 70
     8
  9
$DIMALTZ
 70
     0
  9
$DIMALTTZ
 70
     0
  9
$DIMUPT
 70
     0
  9
$DIMDEC
 70
     2
  9
$DIMTDEC
 70
     2
  9
$DIMALTU
 70
     2
  9
$DIMALTTD
 70
     3
  9
$DIMTXSTY
  7
ben 1
  9
$DIMAUNIT
 70
     0
  9
$DIMADEC
 70
     0
  9
$DIMALTRND
 40
0.0
  9
$DIMAZIN
 70
     0
  9
$DIMDSEP
 70
    44
  9
$DIMATFIT
 70
     3
  9
$DIMFRAC
 70
     0
  9
$DIMLDRBLK
  1

  9
$DIMLUNIT
 70
     2
  9
$DIMLWD
 70
    -2
  9
$DIMLWE
 70
    -2
  9
$DIMTMOVE
 70
     0
  9
$LUNITS
 70
     2
  9
$LUPREC
 70
     4
  9
$SKETCHINC
 40
1.0
  9
$FILLETRAD
 40
0.0
  9
$AUNITS
 70
     0
  9
$AUPREC
 70
     0
  9
$MENU
  1
.
  9
$ELEVATION
 40
0.0
  9
$PELEVATION
 40
0.0
  9
$THICKNESS
 40
0.0
  9
$LIMCHECK
 70
     0
  9
$CHAMFERA
 40
10.0
  9
$CHAMFERB
 40
10.0
  9
$CHAMFERC
 40
20.0
  9
$CHAMFERD
 40
0.0
  9
$SKPOLY
 70
     0
  9
$TDCREATE
 40
2453979.530927003
  9
$TDUCREATE
 40
2453978.989260336
  9
$TDUPDATE
 40
2456569.404224410
  9
$TDUUPDATE
 40
2456568.862557743
  9
$TDINDWG
 40
1.6647854630
  9
$TDUSRTIMER
 40
1.6647852894
  9
$USRTIMER
 70
     1
  9
$ANGBASE
 50
0.0
  9
$ANGDIR
 70
     0
  9
$PDMODE
 70
     0
  9
$PDSIZE
 40
0.0
  9
$PLINEWID
 40
0.0
  9
$SPLFRAME
 70
     0
  9
$SPLINETYPE
 70
     6
  9
$SPLINESEGS
 70
     8
  9
$HANDSEED
  5
66FD
  9
$SURFTAB1
 70
     6
  9
$SURFTAB2
 70
     6
  9
$SURFTYPE
 70
     6
  9
$SURFU
 70
     6
  9
$SURFV
 70
     6
  9
$UCSBASE
  2

  9
$UCSNAME
  2

  9
$UCSORG
 10
0.0
 20
0.0
 30
0.0
  9
$UCSXDIR
 10
1.0
 20
0.0
 30
0.0
  9
$UCSYDIR
 10
0.0
 20
1.0
 30
0.0
  9
$UCSORTHOREF
  2

  9
$UCSORTHOVIEW
 70
     0
  9
$UCSORGTOP
 10
0.0
 20
0.0
 30
0.0
  9
$UCSORGBOTTOM
 10
0.0
 20
0.0
 30
0.0
  9
$UCSORGLEFT
 10
0.0
 20
0.0
 30
0.0
  9
$UCSORGRIGHT
 10
0.0
 20
0.0
 30
0.0
  9
$UCSORGFRONT
 10
0.0
 20
0.0
 30
0.0
  9
$UCSORGBACK
 10
0.0
 20
0.0
 30
0.0
  9
$PUCSBASE
  2

  9
$PUCSNAME
  2

  9
$PUCSORG
 10
0.0
 20
0.0
 30
0.0
  9
$PUCSXDIR
 10
1.0
 20
0.0
 30
0.0
  9
$PUCSYDIR
 10
0.0
 20
1.0
 30
0.0
  9
$PUCSORTHOREF
  2

  9
$PUCSORTHOVIEW
 70
     0
  9
$PUCSORGTOP
 10
0.0
 20
0.0
 30
0.0
  9
$PUCSORGBOTTOM
 10
0.0
 20
0.0
 30
0.0
  9
$PUCSORGLEFT
 10
0.0
 20
0.0
 30
0.0
  9
$PUCSORGRIGHT
 10
0.0
 20
0.0
 30
0.0
  9
$PUCSORGFRONT
 10
0.0
 20
0.0
 30
0.0
  9
$PUCSORGBACK
 10
0.0
 20
0.0
 30
0.0
  9
$USERI1
 70
     0
  9
$USERI2
 70
     0
  9
$USERI3
 70
     0
  9
$USERI4
 70
     0
  9
$USERI5
 70
     0
  9
$USERR1
 40
0.0
  9
$USERR2
 40
0.0
  9
$USERR3
 40
0.0
  9
$USERR4
 40
0.0
  9
$USERR5
 40
0.0
  9
$WORLDVIEW
 70
     1
  9
$SHADEDGE
 70
     3
  9
$SHADEDIF
 70
    70
  9
$TILEMODE
 70
     0
  9
$MAXACTVP
 70
    64
  9
$PINSBASE
 10
0.0
 20
0.0
 30
0.0
  9
$PLIMCHECK
 70
     0
  9
$PEXTMIN
 10
6.943039010819859
 20
6.832420799032661
 30
-0.0000000000112498
  9
$PEXTMAX
 10
196.9526244901365
 20
288.4497417456663
 30
0.0000000000002956
  9
$PLIMMIN
 10
-3.174999952316284
 20
-3.174999952316284
  9
$PLIMMAX
 10
206.7983276844024
 20
293.8568298816681
  9
$UNITMODE
 70
     0
  9
$VISRETAIN
 70
     1
  9
$PLINEGEN
 70
     0
  9
$PSLTSCALE
 70
     0
  9
$TREEDEPTH
 70
  3020
  9
$CMLSTYLE
  2
Standard
  9
$CMLJUST
 70
     0
  9
$CMLSCALE
 40
20.0
  9
$PROXYGRAPHICS
 70
     1
  9
$MEASUREMENT
 70
     1
  9
$CELWEIGHT
370
    -1
  9
$ENDCAPS
280
     0
  9
$JOINSTYLE
280
     0
  9
$LWDISPLAY
290
     1
  9
$INSUNITS
 70
     4
  9
$HYPERLINKBASE
  1

  9
$STYLESHEET
  1

  9
$XEDIT
290
     1
  9
$CEPSNTYPE
380
     0
  9
$PSTYLEMODE
290
     1
  9
$FINGERPRINTGUID
  2
{FDEAD578-A652-11D2-9A35-0060089B3A3F}
  9
$VERSIONGUID
  2
{61B789E7-0C3A-4A79-99F3-5E4DD83DF406}
  9
$EXTNAMES
290
     1
  9
$PSVPSCALE
 40
0.0
  9
$OLESTARTUP
290
     0
  9
$SORTENTS
280
   127
  9
$INDEXCTL
280
     0
  9
$HIDETEXT
280
     0
  9
$XCLIPFRAME
290
     0
  9
$HALOGAP
280
     0
  9
$OBSCOLOR
 70
   257
  9
$OBSLTYPE
280
     0
  9
$INTERSECTIONDISPLAY
280
     0
  9
$INTERSECTIONCOLOR
 70
   257
  9
$DIMASSOC
280
     1
  9
$PROJECTNAME
  1

  0
ENDSEC
  0
SECTION
  2
CLASSES
  0
CLASS
  1
ACDBDICTIONARYWDFLT
  2
AcDbDictionaryWithDefault
  3
ObjectDBX Classes
 90
        0
 91
        1
280
     0
281
     0
  0
CLASS
  1
RASTERVARIABLES
  2
AcDbRasterVariables
  3
ISM
 90
        0
 91
        1
280
     0
281
     0
  0
CLASS
  1
SORTENTSTABLE
  2
AcDbSortentsTable
  3
ObjectDBX Classes
 90
        0
 91
        2
280
     0
281
     0
  0
CLASS
  1
DICTIONARYVAR
  2
AcDbDictionaryVar
  3
ObjectDBX Classes
 90
        0
 91
        8
280
     0
281
     0
  0
CLASS
  1
TABLESTYLE
  2
AcDbTableStyle
  3
ObjectDBX Classes
 90
     4095
 91
        1
280
     0
281
     0
  0
CLASS
  1
ACAD_EVALUATION_GRAPH
  2
AcDbEvalGraph
  3
ObjectDBX Classes
 90
     1153
 91
        0
280
     0
281
     0
  0
CLASS
  1
ACAECUSTOBJ
  2
AcAeEditorObj
  3
AcAeEditorObj
 90
     1024
 91
        0
280
     0
281
     0
  0
CLASS
  1
ACDB_DYNAMICBLOCKPURGEPREVENTER_VERSION
  2
AcDbDynamicBlockPurgePreventer
  3
ObjectDBX Classes
 90
     1153
 91
        0
280
     0
281
     0
  0
CLASS
  1
MATERIAL
  2
AcDbMaterial
  3
ObjectDBX Classes
 90
     1153
 91
        3
280
     0
281
     0
  0
CLASS
  1
VISUALSTYLE
  2
AcDbVisualStyle
  3
ObjectDBX Classes
 90
     4095
 91
       26
280
     0
281
     0
  0
CLASS
  1
SCALE
  2
AcDbScale
  3
ObjectDBX Classes
 90
     1153
 91
       17
280
     0
281
     0
  0
CLASS
  1
MLEADERSTYLE
  2
AcDbMLeaderStyle
  3
ACDB_MLEADERSTYLE_CLASS
 90
     4095
 91
        1
280
     0
281
     0
  0
CLASS
  1
IMAGE
  2
AcDbRasterImage
  3
ISM
 90
     2175
 91
        1
280
     0
281
     1
  0
CLASS
  1
IMAGEDEF_REACTOR
  2
AcDbRasterImageDefReactor
  3
ISM
 90
        1
 91
        1
280
     0
281
     0
  0
CLASS
  1
IMAGEDEF
  2
AcDbRasterImageDef
  3
ISM
 90
        0
 91
        2
280
     0
281
     0
  0
CLASS
  1
CELLSTYLEMAP
  2
AcDbCellStyleMap
  3
ObjectDBX Classes
 90
     1152
 91
        5
280
     0
281
     0
  0
CLASS
  1
AEC_REFEDIT_STATUS_TRACKER
  2
AecDbRefEditStatusTracker
  3
AecArchBase70|Product Desc: Autodesk Architectural Desktop 2007 |Company: Autodesk,Inc. |WEB Address: www.autodesk.com
 90
      129
 91
        0
280
     0
281
     0
  0
CLASS
  1
NPOCOLLECTION
  2
AcDbImpNonPersistentObjectsCollection
  3
ObjectDBX Classes
 90
     1153
 91
        0
280
     0
281
     0
  0
CLASS
  1
ACDB_ALDIMOBJECTCONTEXTDATA_CLASS
  2
AcDbAlignedDimensionObjectContextData
  3
ObjectDBX Classes
 90
     1153
 91
        0
280
     0
281
     0
  0
CLASS
  1
ACDBSECTIONVIEWSTYLE
  2
AcDbSectionViewStyle
  3
ObjectDBX Classes
 90
     1025
 91
        1
280
     0
281
     0
  0
CLASS
  1
ACDBDETAILVIEWSTYLE
  2
AcDbDetailViewStyle
  3
ObjectDBX Classes
 90
     1025
 91
        1
280
     0
281
     0
  0
CLASS
  1
EXACXREFPANELOBJECT
  2
ExAcXREFPanelObject
  3
EXAC_ESW
 90
     1025
 91
        0
280
     0
281
     0
  0
CLASS
  1
MULTILEADER
  2
AcDbMLeader
  3
ACDB_MLEADER_CLASS
 90
     1025
 91
        2
280
     0
281
     1
  0
ENDSEC
  0
SECTION
  2
TABLES
  0
TABLE
  2
VPORT
  5
8
102
{ACAD_XDICTIONARY
360
5D5C
102
}
330
0
100
AcDbSymbolTable
 70
     1
  0
VPORT
  5
5C64
330
8
100
AcDbSymbolTableRecord
100
AcDbViewportTableRecord
  2
*Active
 70
     0
 10
0.0
 20
0.0
 11
1.0
 21
1.0
 12
766.3634936506066
 22
14082.56044430986
 13
0.0
 23
0.0
 14
10.0
 24
10.0
 15
10.0
 25
10.0
 16
0.0
 26
0.0
 36
1.0
 17
0.0
 27
0.0
 37
0.0
 40
1157.727231949677
 41
1.539402173913043
 42
50.0
 43
0.0
 44
0.0
 50
0.0
 51
0.0
 71
     0
 72
   100
 73
     1
 74
     3
 75
     0
 76
     0
 77
     0
 78
     0
281
     0
 65
     1
110
0.0
120
0.0
130
0.0
111
1.0
121
0.0
131
0.0
112
0.0
122
1.0
132
0.0
 79
     0
146
0.0
  0
ENDTAB
  0
TABLE
  2
LTYPE
  5
5
330
0
100
AcDbSymbolTable
 70
     5
  0
LTYPE
  5
14
330
5
100
AcDbSymbolTableRecord
100
AcDbLinetypeTableRecord
  2
ByBlock
 70
     0
  3

 72
    65
 73
     0
 40
0.0
  0
LTYPE
  5
15
330
5
100
AcDbSymbolTableRecord
100
AcDbLinetypeTableRecord
  2
ByLayer
 70
     0
  3

 72
    65
 73
     0
 40
0.0
  0
LTYPE
  5
16
330
5
100
AcDbSymbolTableRecord
100
AcDbLinetypeTableRecord
  2
Continuous
 70
     0
  3
Solid line
 72
    65
 73
     0
 40
0.0
  0
LTYPE
  5
29B
330
5
100
AcDbSymbolTableRecord
100
AcDbLinetypeTableRecord
  2
HIDDEN
 70
     0
  3
Hidden __ __ __ __ __ __ __ __ __ __ __ __ __ _
 72
    65
 73
     2
 40
0.375
 49
0.25
 74
     0
 49
-0.125
 74
     0
  0
LTYPE
  5
1AE3
330
5
100
AcDbSymbolTableRecord
100
AcDbLinetypeTableRecord
  2
BATTING
 70
     0
  3
Batting SSSSSSSSSSSSSSSSSSSSSSSSSSSSSSSSSSSSSSS
 72
    65
 73
     4
 40
0.4001000000000001
 49
0.0001
 74
     0
 49
-0.1
 74
     4
 75
   134
340
1AEA
 46
0.1
 50
0.0
 44
-0.1
 45
0.0
 49
-0.2
 74
     4
 75
   134
340
1AEA
 46
0.1
 50
180.0
 44
0.1
 45
0.0
 49
-0.1
 74
     0
  0
LTYPE
  5
5A0C
330
5
100
AcDbSymbolTableRecord
100
AcDbLinetypeTableRecord
  2
CENTER
 70
     0
  3
Center ____ _ ____ _ ____ _ ____ _ ____ _ ____
 72
    65
 73
     4
 40
50.8
 49
31.75
 74
     0
 49
-6.349999999999999
 74
     0
 49
6.349999999999999
 74
     0
 49
-6.349999999999999
 74
     0
  0
ENDTAB
  0
TABLE
  2
LAYER
  5
2
102
{ACAD_XDICTIONARY
360
105
102
}
330
0
100
AcDbSymbolTable
 70
    12
  0
LAYER
  5
10
102
{ACAD_XDICTIONARY
360
5CD7
102
}
330
2
100
AcDbSymbolTableRecord
100
AcDbLayerTableRecord
  2
0
 70
     0
 62
     7
  6
Continuous
370
    -3
390
F
  0
LAYER
  5
5E
102
{ACAD_XDICTIONARY
360
5CD9
102
}
330
2
100
AcDbSymbolTableRecord
100
AcDbLayerTableRecord
  2
Hebel
 70
     0
 62
     7
  6
Continuous
370
    40
390
F
  0
LAYER
  5
5F
102
{ACAD_XDICTIONARY
360
5CDB
102
}
330
2
100
AcDbSymbolTableRecord
100
AcDbLayerTableRecord
  2
Steel
 70
     0
 62
     1
  6
Continuous
370
    35
390
F
  0
LAYER
  5
60
102
{ACAD_XDICTIONARY
360
5CDD
102
}
330
2
100
AcDbSymbolTableRecord
100
AcDbLayerTableRecord
  2
Concrete
 70
     0
 62
   253
  6
Continuous
370
    50
390
F
  0
LAYER
  5
62
102
{ACAD_XDICTIONARY
360
5CDF
102
}
330
2
100
AcDbSymbolTableRecord
100
AcDbLayerTableRecord
  2
Fastenings and sealants
 70
     0
 62
     4
  6
Continuous
370
    15
390
F
  0
LAYER
  5
65
102
{ACAD_XDICTIONARY
360
5CE1
102
}
330
2
100
AcDbSymbolTableRecord
100
AcDbLayerTableRecord
  2
Text
 70
     0
 62
     7
  6
Continuous
370
    -3
390
F
  0
LAYER
  5
76
330
2
100
AcDbSymbolTableRecord
100
AcDbLayerTableRecord
  2
Defpoints
 70
     0
 62
     7
  6
Continuous
290
     0
370
    -3
390
F
  0
LAYER
  5
F0
102
{ACAD_XDICTIONARY
360
5CE3
102
}
330
2
100
AcDbSymbolTableRecord
100
AcDbLayerTableRecord
  2
Title block
 70
     0
 62
     7
  6
Continuous
370
    80
390
F
  0
LAYER
  5
636
102
{ACAD_XDICTIONARY
360
5CE5
102
}
330
2
100
AcDbSymbolTableRecord
100
AcDbLayerTableRecord
  2
Viewport
 70
     0
 62
     7
  6
Continuous
290
     0
370
    -3
390
F
  0
LAYER
  5
1AE4
102
{ACAD_XDICTIONARY
360
5CE7
102
}
330
2
100
AcDbSymbolTableRecord
100
AcDbLayerTableRecord
  2
linings
 70
     0
 62
    90
  6
Continuous
370
    25
390
F
1001
AcAecLayerStandard
1000

1000

1001
RAK
1000
{ACET-LAYISO
1070
     0
1070
   -90
1000
Continuous
1071
       25
1071
        1
1005
F
1000
ACET-LAYISO}
  0
LAYER
  5
1AE5
102
{ACAD_XDICTIONARY
360
5CE9
102
}
330
2
100
AcDbSymbolTableRecord
100
AcDbLayerTableRecord
  2
dress timber
 70
     0
 62
    40
  6
Continuous
370
    30
390
F
1001
AcAecLayerStandard
1000

1000

1001
RAK
1000
{ACET-LAYISO
1070
     0
1070
   -40
1000
Continuous
1071
       30
1071
        1
1005
F
1000
ACET-LAYISO}
  0
LAYER
  5
1AE6
102
{ACAD_XDICTIONARY
360
5CEB
102
}
330
2
100
AcDbSymbolTableRecord
100
AcDbLayerTableRecord
  2
hatch
 70
     0
 62
    50
  6
Continuous
370
     9
390
F
1001
AcAecLayerStandard
1000

1000

1001
RAK
1000
{ACET-LAYISO
1070
     0
1070
   -50
1000
Continuous
1071
       13
1071
        1
1005
F
1000
ACET-LAYISO}
  0
ENDTAB
  0
TABLE
  2
STYLE
  5
3
330
0
100
AcDbSymbolTable
 70
     8
  0
STYLE
  5
11
330
3
100
AcDbSymbolTableRecord
100
AcDbTextStyleTableRecord
  2
Standard
 70
     0
 40
50.0
 41
1.0
 50
4.0
 71
     0
 42
2.5
  3
ariali.ttf
  4

1001
ACAD
1000
Arial
1071
 16777250
  0
STYLE
  5
A0
330
3
100
AcDbSymbolTableRecord
100
AcDbTextStyleTableRecord
  2
Titles
 70
     0
 40
4.0
 41
1.0
 50
0.0
 71
     0
 42
4.0
  3
timesbd.ttf
  4

1001
ACAD
1000
Times New Roman
1071
 33554450
  0
STYLE
  5
D4
330
3
100
AcDbSymbolTableRecord
100
AcDbTextStyleTableRecord
  2
LCNZ
 70
     0
 40
75.0
 41
0.5
 50
6.0
 71
     0
 42
75.0
  3
tahomabd.ttf
  4

1001
ACAD
1000
Tahoma
1071
 33554466
  0
STYLE
  5
E3
330
3
100
AcDbSymbolTableRecord
100
AcDbTextStyleTableRecord
  2
Title block
 70
     0
 40
2.5
 41
1.0
 50
0.0
 71
     0
 42
2.5
  3
times.ttf
  4

1001
ACAD
1000
Times New Roman
1071
       18
  0
STYLE
  5
1AE9
330
3
100
AcDbSymbolTableRecord
100
AcDbTextStyleTableRecord
  2
ben 1
 70
     0
 40
2.0
 41
1.0
 50
0.0
 71
     0
 42
2.0
  3
tahoma.ttf
  4

1001
ACAD
1000
Tahoma
1071
       34
  0
STYLE
  5
1AEA
330
3
100
AcDbSymbolTableRecord
100
AcDbTextStyleTableRecord
  2

 70
     1
 40
0.0
 41
1.0
 50
0.0
 71
     0
 42
20.0
  3
ltypeshp.shx
  4

  0
STYLE
  5
6075
330
3
100
AcDbSymbolTableRecord
100
AcDbTextStyleTableRecord
  2
ROMANS
 70
     0
 40
0.0
 41
1.0
 50
0.0
 71
     0
 42
30.0
  3
romans
  4

  0
ENDTAB
  0
TABLE
  2
VIEW
  5
6
330
0
100
AcDbSymbolTable
 70
     3
  0
ENDTAB
  0
TABLE
  2
UCS
  5
7
330
0
100
AcDbSymbolTable
 70
     0
  0
ENDTAB
  0
TABLE
  2
APPID
  5
9
330
0
100
AcDbSymbolTable
 70
    25
  0
APPID
  5
12
330
9
100
AcDbSymbolTableRecord
100
AcDbRegAppTableRecord
  2
ACAD
 70
     0
  0
APPID
  5
1AEF
330
9
100
AcDbSymbolTableRecord
100
AcDbRegAppTableRecord
  2
AcAecLayerStandard
 70
     0
  0
APPID
  5
1AF0
330
9
100
AcDbSymbolTableRecord
100
AcDbRegAppTableRecord
  2
ACAD_PSEXT
 70
     0
  0
APPID
  5
1AF1
330
9
100
AcDbSymbolTableRecord
100
AcDbRegAppTableRecord
  2
ACAD_DSTYLE_DIMEXT_LENGTH
 70
     0
  0
APPID
  5
1AF2
330
9
100
AcDbSymbolTableRecord
100
AcDbRegAppTableRecord
  2
ACAD_DSTYLE_DIMEXT_ENABLED
 70
     0
  0
APPID
  5
1AF3
330
9
100
AcDbSymbolTableRecord
100
AcDbRegAppTableRecord
  2
ACAD_DSTYLE_DIMJOGGED_JOGANGLE_SYMBOL
 70
     0
  0
APPID
  5
1AF4
330
9
100
AcDbSymbolTableRecord
100
AcDbRegAppTableRecord
  2
ACAD_DSTYLE_DIMARC_LENGTH_SYMBOL
 70
     0
  0
APPID
  5
1AF5
330
9
100
AcDbSymbolTableRecord
100
AcDbRegAppTableRecord
  2
RAK
 70
     0
  0
APPID
  5
365D
330
9
100
AcDbSymbolTableRecord
100
AcDbRegAppTableRecord
  2
ACAUTHENVIRON
 70
     0
  0
APPID
  5
3661
330
9
100
AcDbSymbolTableRecord
100
AcDbRegAppTableRecord
  2
AcDbDynamicBlockTrueName
 70
     0
  0
APPID
  5
3662
330
9
100
AcDbSymbolTableRecord
100
AcDbRegAppTableRecord
  2
AcDbDynamicBlockGUID
 70
     0
  0
APPID
  5
3664
330
9
100
AcDbSymbolTableRecord
100
AcDbRegAppTableRecord
  2
AcDbBlockRepETag
 70
     0
  0
APPID
  5
5354
330
9
100
AcDbSymbolTableRecord
100
AcDbRegAppTableRecord
  2
ACAD_EXEMPT_FROM_CAD_STANDARDS
 70
     0
  0
APPID
  5
557D
330
9
100
AcDbSymbolTableRecord
100
AcDbRegAppTableRecord
  2
ACAD_DSTYLE_DIMTEXT_FILL
 70
     0
  0
APPID
  5
5580
330
9
100
AcDbSymbolTableRecord
100
AcDbRegAppTableRecord
  2
ACAD_DSTYLE_DIM_LINETYPE
 70
     0
  0
APPID
  5
5581
330
9
100
AcDbSymbolTableRecord
100
AcDbRegAppTableRecord
  2
ACAD_DSTYLE_DIM_EXT1_LINETYPE
 70
     0
  0
APPID
  5
5582
330
9
100
AcDbSymbolTableRecord
100
AcDbRegAppTableRecord
  2
ACAD_DSTYLE_DIM_EXT2_LINETYPE
 70
     0
  0
APPID
  5
5CBE
330
9
100
AcDbSymbolTableRecord
100
AcDbRegAppTableRecord
  2
ACAD_MLEADERVER
 70
     0
  0
APPID
  5
5D8A
330
9
100
AcDbSymbolTableRecord
100
AcDbRegAppTableRecord
  2
ACAD_DSTYLE_DIMJAG
 70
     0
  0
APPID
  5
5D8B
330
9
100
AcDbSymbolTableRecord
100
AcDbRegAppTableRecord
  2
ACAD_DSTYLE_DIMBREAK
 70
     0
  0
APPID
  5
5D8C
330
9
100
AcDbSymbolTableRecord
100
AcDbRegAppTableRecord
  2
ACAD_DSTYLE_DIMTALN
 70
     0
  0
APPID
  5
5E12
330
9
100
AcDbSymbolTableRecord
100
AcDbRegAppTableRecord
  2
AcadAnnotative
 70
     0
  0
APPID
  5
6246
330
9
100
AcDbSymbolTableRecord
100
AcDbRegAppTableRecord
  2
ACAD_NAV_VCDISPLAY
 70
     0
  0
APPID
  5
6247
330
9
100
AcDbSymbolTableRecord
100
AcDbRegAppTableRecord
  2
DCO15
 70
     0
  0
APPID
  5
62BF
330
9
100
AcDbSymbolTableRecord
100
AcDbRegAppTableRecord
  2
AcadAnnoMonitorAlertIconDisabled
 70
     0
  0
ENDTAB
  0
TABLE
  2
DIMSTYLE
  5
A
330
0
100
AcDbSymbolTable
 70
     7
100
AcDbDimStyleTable
 71
     1
340
1AEE
  0
DIMSTYLE
105
1AEB
330
A
100
AcDbSymbolTableRecord
100
AcDbDimStyleTableRecord
  2
Standard
 70
     0
340
11
  0
DIMSTYLE
105
1AEE
102
{ACAD_REACTORS
330
541F
330
5420
330
5421
330
5422
330
5423
330
5426
330
5427
330
5428
330
5429
330
59FE
330
62B2
102
}
330
A
100
AcDbSymbolTableRecord
100
AcDbDimStyleTableRecord
  2
Ben 10
 70
     0
 40
0.0
 41
3.0
 42
1.0
 43
1.0
 44
1.0
 73
     0
 74
     0
 77
     1
 78
     8
140
2.0
141
1.0
143
0.03937007874016
147
1.0
171
     3
172
     1
271
     2
272
     2
274
     3
278
    44
283
     0
284
     8
340
1AE9
342
6A
1001
ACAD_DSTYLE_DIMJAG
1070
   388
1040
1.5
1001
ACAD_DSTYLE_DIMBREAK
1070
   391
1040
1.0
1001
ACAD_DSTYLE_DIMTALN
1070
   392
1070
     0
1001
ACAD_DSTYLE_DIMEXT_LENGTH
1070
   378
1040
1.25
1001
ACAD_DSTYLE_DIMJOGGED_JOGANGLE_SYMBOL
1070
   384
1040
1.570796326794896
  0
DIMSTYLE
105
6076
330
A
100
AcDbSymbolTableRecord
100
AcDbDimStyleTableRecord
  2
ISO-25
 70
     0
 41
2.5
 42
0.625
 43
3.75
 44
1.25
 73
     0
 74
     0
 77
     1
 78
     8
140
2.5
141
2.5
143
0.03937007874016
147
0.625
171
     3
172
     1
271
     2
272
     2
274
     3
278
    44
283
     0
284
     8
340
11
  0
DIMSTYLE
105
614F
330
A
100
AcDbSymbolTableRecord
100
AcDbDimStyleTableRecord
  2
ARROWS
 70
     0
 41
3.0
 42
1.5
 43
8.0
 44
1.0
 46
1.0
 73
     0
 74
     0
140
2.5
141
5.0
143
0.0394
145
1.0
146
0.625
147
1.5
171
     4
176
     7
177
     7
178
     7
271
     3
272
     3
274
     4
279
     2
340
6075
1001
ACAD_DSTYLE_DIMJAG
1070
   388
1040
1.5
1001
ACAD_DSTYLE_DIMTALN
1070
   392
1070
     0
  0
DIMSTYLE
105
6244
330
A
100
AcDbSymbolTableRecord
100
AcDbDimStyleTableRecord
  2
ben
 70
     0
 41
2.5
 42
0.625
 43
3.75
 44
1.25
 73
     0
 74
     0
 77
     1
 78
     8
140
2.0
141
2.5
143
0.03937007874016
147
0.625
171
     3
172
     1
271
     2
272
     2
274
     3
278
    44
283
     0
284
     8
340
1AE9
342
6A
1001
ACAD_DSTYLE_DIMEXT_LENGTH
1070
   378
1040
1.25
1001
ACAD_DSTYLE_DIMJOGGED_JOGANGLE_SYMBOL
1070
   384
1040
1.570796326794896
  0
DIMSTYLE
105
6245
330
A
100
AcDbSymbolTableRecord
100
AcDbDimStyleTableRecord
  2
1
 70
     0
 40
0.0
 41
3.0
 42
1.0
 43
1.0
 44
1.0
 73
     0
 74
     0
 77
     1
 78
     8
140
2.5
141
2.5
143
0.03937007874016
147
1.0
171
     3
172
     1
176
     7
177
     7
178
     7
271
     2
272
     2
274
     3
278
    44
283
     0
284
     8
340
1AE9
1001
ACAD_DSTYLE_DIMBREAK
1070
   391
1040
3.75
1001
ACAD_DSTYLE_DIMJAG
1070
   388
1040
1.5
1001
ACAD_DSTYLE_DIMTALN
1070
   392
1070
     0
1001
ACAD_DSTYLE_DIMEXT_LENGTH
1070
   378
1040
1.25
1001
ACAD_DSTYLE_DIMJOGGED_JOGANGLE_SYMBOL
1070
   384
1040
1.570796326794896
  0
ENDTAB
  0
TABLE
  2
BLOCK_RECORD
  5
1
330
0
100
AcDbSymbolTable
 70
     3
  0
BLOCK_RECORD
  5
1F
102
{ACAD_XDICTIONARY
360
C0
102
}
330
1
100
AcDbSymbolTableRecord
100
AcDbBlockTableRecord
  2
*Model_Space
340
22
  0
BLOCK_RECORD
  5
2DFA
102
{ACAD_XDICTIONARY
360
5D21
102
}
330
1
100
AcDbSymbolTableRecord
100
AcDbBlockTableRecord
  2
*Paper_Space
340
2E1B
  0
BLOCK_RECORD
  5
6A
330
1
100
AcDbSymbolTableRecord
100
AcDbBlockTableRecord
  2
_ArchTick
340
0
102
{BLKREFS
331
5DF7
331
5DF8
331
5E57
331
5E58
331
65A2
331
65A3
102
}
  0
BLOCK_RECORD
  5
62B3
330
1
100
AcDbSymbolTableRecord
100
AcDbBlockTableRecord
  2
*D1
340
0
  0
ENDTAB
  0
ENDSEC
  0
SECTION
  2
BLOCKS
  0
BLOCK
  5
20
330
1F
100
AcDbEntity
  8
0
100
AcDbBlockBegin
  2
*Model_Space
 70
     0
 10
0.0
 20
0.0
 30
0.0
  3
*Model_Space
  1

  0
ENDBLK
  5
21
330
1F
100
AcDbEntity
  8
0
100
AcDbBlockEnd
  0
BLOCK
  5
2DFB
330
2DFA
100
AcDbEntity
 67
     1
  8
0
100
AcDbBlockBegin
  2
*Paper_Space
 70
     0
 10
0.0
 20
0.0
 30
0.0
  3
*Paper_Space
  1

  0
ENDBLK
  5
2E1A
330
2DFA
100
AcDbEntity
 67
     1
  8
0
100
AcDbBlockEnd
  0
BLOCK
  5
6C
330
6A
100
AcDbEntity
  8
0
100
AcDbBlockBegin
  2
_ArchTick
 70
     0
 10
0.0
 20
0.0
 30
0.0
  3
_ArchTick
  1

  0
LWPOLYLINE
  5
6B
330
6A
100
AcDbEntity
  8
0
  6
ByBlock
 62
     0
100
AcDbPolyline
 90
        2
 70
     0
 43
0.15
 10
-0.5
 20
-0.5
 10
0.5
 20
0.5
  0
ENDBLK
  5
6D
330
6A
100
AcDbEntity
  8
0
100
AcDbBlockEnd
  0
BLOCK
  5
62B4
330
62B3
100
AcDbEntity
  8
0
 48
10.0
100
AcDbBlockBegin
  2
*D1
 70
     1
 10
0.0
 20
0.0
 30
0.0
  3
*D1
  1

  0
LINE
  5
659F
330
62B3
100
AcDbEntity
  8
Text
 62
     0
440
 16777216
 48
10.0
370
    -2
100
AcDbLine
 10
118.02044757023
 20
175.905374771739
 30
0.0
 11
134.1970973497853
 21
175.905374771739
 31
0.0
  0
LINE
  5
65A0
330
62B3
100
AcDbEntity
  8
Text
 62
     0
440
 16777216
 48
10.0
370
    -2
100
AcDbLine
 10
118.0272883431903
 20
135.905374771739
 30
0.0
 11
134.1970973497853
 21
135.905374771739
 31
0.0
  0
LINE
  5
65A1
330
62B3
100
AcDbEntity
  8
Text
 62
     0
440
 16777216
 48
10.0
370
    -2
100
AcDbLine
 10
133.1970973497853
 20
175.905374771739
 30
0.0
 11
133.1970973497853
 21
135.905374771739
 31
0.0
  0
INSERT
  5
65A2
330
62B3
100
AcDbEntity
  8
Text
 62
     0
440
 16777216
 48
10.0
370
    -2
100
AcDbBlockReference
  2
_ArchTick
 10
133.1970973497853
 20
175.905374771739
 30
0.0
 41
3.0
 42
3.0
 43
3.0
 50
90.0
  0
INSERT
  5
65A3
330
62B3
100
AcDbEntity
  8
Text
 62
     0
440
 16777216
 48
10.0
370
    -2
100
AcDbBlockReference
  2
_ArchTick
 10
133.1970973497853
 20
135.905374771739
 30
0.0
 41
3.0
 42
3.0
 43
3.0
 50
270.0
  0
MTEXT
  5
65A4
330
62B3
100
AcDbEntity
  8
Text
 62
     0
440
 16777216
 48
10.0
100
AcDbMText
 10
129.4061862237498
 20
155.905374771739
 30
0.0
 40
2.0
 41
0.0
 71
     5
 72
     1
  1
{\fTahoma|b0|i1|c0|p34;Varies Determine from bottom\P course of external wall }
  7
ben 1
 11
0.0000000000000001
 21
1.0
 31
0.0
 73
     1
 44
1.0
  0
POINT
  5
65A5
330
62B3
100
AcDbEntity
  8
Defpoints
 62
     0
440
 16777216
 48
10.0
100
AcDbPoint
 10
117.02044757023
 20
175.905374771739
 30
0.0
  0
POINT
  5
65A6
330
62B3
100
AcDbEntity
  8
Defpoints
 62
     0
440
 16777216
 48
10.0
100
AcDbPoint
 10
117.0272883431903
 20
135.905374771739
 30
0.0
  0
POINT
  5
65A7
330
62B3
100
AcDbEntity
  8
Defpoints
 62
     0
440
 16777216
 48
10.0
100
AcDbPoint
 10
133.1970973497853
 20
135.905374771739
 30
0.0
  0
ENDBLK
  5
62B5
330
62B3
100
AcDbEntity
  8
0
 48
10.0
100
AcDbBlockEnd
  0
ENDSEC
  0
SECTION
  2
ENTITIES
  0
LINE
  5
2D82
330
1F
100
AcDbEntity
  8
Concrete
 48
10.0
100
AcDbLine
 10
341.3602844704983
 20
13913.80221336334
 30
0.0
 11
760.3602844704981
 21
13913.80221336334
 31
0.0
  0
LINE
  5
2D83
330
1F
100
AcDbEntity
  8
Concrete
 48
10.0
100
AcDbLine
 10
341.3602844704983
 20
13813.80221336334
 30
0.0
 11
541.3602844704983
 21
13813.80221336334
 31
0.0
  0
LINE
  5
2D84
330
1F
100
AcDbEntity
  8
Concrete
 48
10.0
100
AcDbLine
 10
541.3602844704983
 20
13813.80221336334
 30
0.0
 11
641.3602844704983
 21
13713.80221336334
 31
0.0
  0
LWPOLYLINE
  5
2D85
330
1F
100
AcDbEntity
  8
Concrete
 48
10.0
100
AcDbPolyline
 90
        6
 70
     0
 43
0.0
 10
641.3602844704983
 20
13713.80221336334
 10
641.3602844704983
 20
13713.80221336334
 10
891.3602844704982
 20
13713.80221336334
 10
891.3602844704982
 20
13713.80221336334
 10
991.3602844704982
 20
13813.80221336334
 10
1191.360284470498
 20
13813.80221336334
  0
LWPOLYLINE
  5
2D88
330
1F
100
AcDbEntity
  8
Fastenings and sealants
100
AcDbPolyline
 90
        6
 70
     0
 43
0.0
 10
341.3602844704978
 20
13788.80221336335
 10
341.3602844704983
 20
13858.80221336334
 10
356.3602844704983
 20
13861.30221336334
 10
326.3602844704983
 20
13866.30221336334
 10
341.3602844704983
 20
13868.80221336334
 10
341.3602844704983
 20
13938.80221336334
  0
LWPOLYLINE
  5
2D8A
330
1F
100
AcDbEntity
  8
Fastenings and sealants
100
AcDbPolyline
 90
        6
 70
     0
 43
0.0
 10
1191.360284470499
 20
13788.80221336335
 10
1191.360284470499
 20
13858.80221336334
 10
1176.360284470499
 20
13861.30221336334
 10
1206.360284470499
 20
13866.30221336334
 10
1191.360284470499
 20
13868.80221336334
 10
1191.360284470499
 20
13938.80221336334
  0
LWPOLYLINE
  5
2D8B
102
{ACAD_REACTORS
330
2D9A
102
}
330
1F
100
AcDbEntity
  8
Hebel
 48
10.0
100
AcDbPolyline
 90
        4
 70
     0
 43
0.0
 10
741.3944883352996
 20
14133.80221336334
 10
691.360284470498
 20
14133.80221336334
 10
691.360284470498
 20
13933.80221336334
 10
760.3602844704981
 20
13933.80221336334
  0
LWPOLYLINE
  5
2D8C
102
{ACAD_REACTORS
330
2D9A
102
}
330
1F
100
AcDbEntity
  8
Hebel
 48
10.0
100
AcDbPolyline
 90
        4
 70
     0
 43
0.0
 10
791.3944883352996
 20
14136.30221336334
 10
841.360284470498
 20
14136.30221336334
 10
841.360284470498
 20
14336.30221336334
 10
791.3944883352996
 20
14336.30221336334
  0
LWPOLYLINE
  5
2D8D
102
{ACAD_REACTORS
330
2D9A
102
}
330
1F
100
AcDbEntity
  8
Hebel
 48
10.0
100
AcDbPolyline
 90
        4
 70
     0
 43
0.0
 10
741.3944883352996
 20
14538.80221336334
 10
691.360284470498
 20
14538.80221336334
 10
691.360284470498
 20
14338.80221336334
 10
741.3944883352996
 20
14338.80221336334
  0
HATCH
  5
2D9A
330
1F
100
AcDbEntity
  8
hatch
 48
10.0
100
AcDbHatch
 10
0.0
 20
0.0
 30
0.0
210
0.0
220
0.0
230
1.0
  2
AR-SAND
 70
     0
 71
     1
 91
        6
 92
        5
 93
        4
 72
     1
 10
741.3944883352996
 20
14338.80221336334
 11
741.3944883352995
 21
14538.80221336334
 72
     1
 10
741.3944883352995
 20
14538.80221336334
 11
691.360284470498
 21
14538.80221336334
 72
     1
 10
691.360284470498
 20
14538.80221336334
 11
691.3602844704979
 21
14338.80221336334
 72
     1
 10
691.3602844704979
 20
14338.80221336334
 11
741.3944883352996
 21
14338.80221336334
 97
        3
330
2D8D
330
535B
330
535C
 92
        5
 93
        4
 72
     1
 10
791.3944883352997
 20
14538.80221336334
 11
791.3944883352997
 21
14338.80221336334
 72
     1
 10
791.3944883352997
 20
14338.80221336334
 11
841.360284470498
 21
14338.80221336334
 72
     1
 10
841.360284470498
 20
14338.80221336334
 11
841.3602844704982
 21
14538.80221336334
 72
     1
 10
841.3602844704982
 20
14538.80221336334
 11
791.3944883352997
 21
14538.80221336334
 97
        3
330
2D8D
330
535B
330
535C
 92
        5
 93
        4
 72
     1
 10
741.3944883352996
 20
14136.30221336334
 11
741.3944883352996
 21
14336.30221336334
 72
     1
 10
741.3944883352996
 20
14336.30221336334
 11
691.360284470498
 21
14336.30221336334
 72
     1
 10
691.360284470498
 20
14336.30221336334
 11
691.360284470498
 21
14136.30221336334
 72
     1
 10
691.360284470498
 20
14136.30221336334
 11
741.3944883352996
 21
14136.30221336334
 97
        3
330
2D8C
330
535B
330
535C
 92
        5
 93
        4
 72
     1
 10
791.3944883352997
 20
14336.30221336334
 11
791.3944883352997
 21
14136.30221336334
 72
     1
 10
791.3944883352997
 20
14136.30221336334
 11
841.360284470498
 21
14136.30221336334
 72
     1
 10
841.360284470498
 20
14136.30221336334
 11
841.360284470498
 21
14336.30221336334
 72
     1
 10
841.360284470498
 20
14336.30221336334
 11
791.3944883352997
 21
14336.30221336334
 97
        3
330
2D8C
330
535B
330
535C
 92
        5
 93
        4
 72
     1
 10
741.3944883352996
 20
13933.80221336334
 11
741.3944883352996
 21
14133.80221336334
 72
     1
 10
741.3944883352996
 20
14133.80221336334
 11
691.3602844704978
 21
14133.80221336334
 72
     1
 10
691.3602844704978
 20
14133.80221336334
 11
691.3602844704982
 21
13933.80221336334
 72
     1
 10
691.3602844704982
 20
13933.80221336334
 11
741.3944883352996
 21
13933.80221336334
 97
        3
330
2D8B
330
535B
330
535C
 92
        5
 93
        4
 72
     1
 10
791.3944883352996
 20
14133.80221336334
 11
791.3944883352996
 21
13933.80221336334
 72
     1
 10
791.3944883352996
 20
13933.80221336334
 11
841.3602844704978
 21
13933.80221336334
 72
     1
 10
841.3602844704978
 20
13933.80221336334
 11
841.3602844704978
 21
14133.80221336334
 72
     1
 10
841.3602844704978
 20
14133.80221336334
 11
791.3944883352996
 21
14133.80221336334
 97
        3
330
2D8B
330
535B
330
535C
 75
     0
 76
     1
 52
0.0
 41
0.5
 77
     0
 78
     4
 53
37.5
 43
-607.5624676313164
 44
1454.41197771276
 45
-0.8000156479920228
 46
24.47066186646712
 79
     6
 49
0.0
 49
-19.304
 49
0.0
 49
-21.59
 49
0.0
 49
-20.6375
 53
7.499999999999999
 43
-607.5624676313164
 44
1454.41197771276
 45
22.47616415690013
 46
35.84125502841772
 79
     6
 49
0.0
 49
-10.414
 49
0.0
 49
-17.399
 49
0.0
 49
-6.6675
 53
327.5
 43
-623.1834676313163
 44
1454.41197771276
 45
39.5496185120729
 46
0.0718592339272846
 79
     6
 49
0.0
 49
-6.349999999999999
 49
0.0
 49
-22.86
 49
0.0
 49
-29.845
 53
317.5
 43
-623.1834676313163
 44
1454.41197771276
 45
38.17782262361486
 46
11.14646616286081
 79
     6
 49
0.0
 49
-3.174999999999999
 49
0.0
 49
-14.986
 49
0.0
 49
-17.145
 47
2.088198411486318
 98
        6
 10
766.3431825380974
 20
14438.80221336334
 10
766.3431825380974
 20
14438.80221336334
 10
766.3431825380975
 20
14236.30221336334
 10
766.3431825380975
 20
14236.30221336334
 10
766.3431825380976
 20
14033.80221336334
 10
766.3431825380976
 20
14033.80221336334
1001
ACAD
1010
0.0
1020
0.0
1030
0.0
  0
HATCH
  5
2DAD
330
1F
100
AcDbEntity
  8
hatch
 48
10.0
100
AcDbHatch
 10
0.0
 20
0.0
 30
0.0
210
0.0
220
0.0
230
1.0
  2
AR-CONC
 70
     0
 71
     0
 91
        1
 92
        7
 72
     0
 73
     1
 93
       16
 10
341.3602844704983
 20
13913.80221336334
 10
341.3602844704983
 20
13873.80221336334
 10
311.3602844704999
 20
13868.80221336334
 10
371.3602844704984
 20
13858.80221336334
 10
341.3602844704984
 20
13853.80221336334
 10
341.3602844704979
 20
13813.80221336334
 10
541.3602844704975
 20
13813.80221336334
 10
641.3602844704962
 20
13713.80221336334
 10
891.3602844704991
 20
13713.80221336334
 10
991.3602844704991
 20
13813.80221336334
 10
1191.360284470499
 20
13813.80221336334
 10
1191.360284470499
 20
13853.80221336334
 10
1161.3602844705
 20
13858.80221336334
 10
1221.360284470499
 20
13868.80221336334
 10
1191.360284470499
 20
13873.80221336334
 10
1191.360284470499
 20
13913.80221336334
 97
        0
 75
     0
 76
     1
 52
0.0
 41
0.5
 77
     0
 78
    13
 53
50.0
 43
-607.5624676313164
 44
1454.41197771276
 45
91.092334498002
 46
-7.969542769451543
 79
     2
 49
9.525
 49
-104.775
 53
355.0
 43
-607.5624676313164
 44
1454.41197771276
 45
-17.62141298783349
 46
95.52832144108998
 79
     2
 49
7.62
 49
-83.81999999999999
 53
100.451
 43
-599.9714676313163
 44
1453.74785271276
 45
73.47125083297962
 46
87.55834391014593
 79
     2
 49
8.095
 49
-89.045
 53
46.1842
 43
-607.5624676313164
 44
1479.81197771276
 45
135.5395204460649
 46
-21.02116396636358
 79
     2
 49
14.2875
 49
-157.1625
 53
96.63559999999998
 43
-596.2675176313164
 44
1478.06022771276
 45
118.7021172331185
 46
123.7127779450246
 79
     2
 49
12.1425
 49
-133.5675
 53
351.184
 43
-607.5624676313164
 44
1479.81197771276
 45
118.7023029069669
 46
123.7125589302988
 79
     2
 49
11.43
 49
-125.73
 53
21.0
 43
-594.8624676313163
 44
1473.46197771276
 45
75.80743991769164
 46
-51.13275925838125
 79
     2
 49
9.525
 49
-104.775
 53
326.0
 43
-594.8624676313163
 44
1473.46197771276
 45
30.90101417382354
 46
92.09398306115962
 79
     2
 49
7.62
 49
-83.81999999999999
 53
71.45140000000001
 43
-588.5452176313163
 44
1469.20092771276
 45
106.7082453850622
 46
40.96142885802872
 79
     2
 49
8.095
 49
-89.045
 53
37.5
 43
-607.5624676313164
 44
1454.41197771276
 45
1.544301625295908
 46
42.27751943657655
 79
     6
 49
0.0
 49
-82.804
 49
0.0
 49
-85.09
 49
0.0
 49
-84.1375
 53
7.499999999999999
 43
-607.5624676313164
 44
1454.41197771276
 45
33.40983125515287
 46
50.09028740905975
 79
     6
 49
0.0
 49
-48.51399999999999
 49
0.0
 49
-80.899
 49
0.0
 49
-32.0675
 53
327.5
 43
-635.8834676313164
 44
1454.41197771276
 45
67.7952975834357
 46
-2.864371996336728
 79
     6
 49
0.0
 49
-31.75
 49
0.0
 49
-99.06
 49
0.0
 49
-131.445
 53
317.5
 43
-648.5834676313163
 44
1454.41197771276
 45
74.06459069300902
 46
12.71324551666651
 79
     6
 49
0.0
 49
-41.275
 49
0.0
 49
-65.786
 49
0.0
 49
-93.345
 47
1.845908084504414
 98
        1
 10
718.9257346600534
 20
13826.11911040091
1001
ACAD
1010
0.0
1020
0.0
1030
0.0
  0
HATCH
  5
2DAE
330
1F
100
AcDbEntity
  8
hatch
 48
10.0
100
AcDbHatch
 10
0.0
 20
0.0
 30
0.0
210
0.0
220
0.0
230
1.0
  2
MUDST
 70
     0
 71
     0
 91
        2
 92
        7
 72
     0
 73
     1
 93
        5
 10
677.3602844704978
 20
13993.80221336334
 10
657.3602844704979
 20
13978.80221336334
 10
657.360284470498
 20
13952.18011327893
 10
660.8571454697264
 20
13949.59619103718
 10
677.3602844704978
 20
13949.59619103718
 97
        0
 92
        7
 72
     0
 73
     1
 93
        5
 10
677.3602844704978
 20
13948.0082356895
 10
660.8571454697274
 20
13948.0082356895
 10
657.3602844704979
 20
13945.42431344775
 10
657.3602844704979
 20
13918.80221336334
 10
677.3602844704978
 20
13918.80221336334
 97
        0
 75
     0
 76
     1
 52
45.0
 41
0.5
 77
     0
 78
     1
 53
45.0
 43
186.8710098289043
 44
5136.311102515303
 45
2.245064030267288
 46
6.735192090801864
 79
     6
 49
3.174999999999999
 49
-3.174999999999999
 49
0.0
 49
-3.174999999999999
 49
0.0
 49
-3.174999999999999
 47
0.3243747405247476
 98
        2
 10
672.8884149686814
 20
13975.37311092059
 10
669.9574014210806
 20
13938.9406435411
1001
ACAD
1010
0.0
1020
0.0
1030
0.0
  0
LWPOLYLINE
  5
2DB0
330
1F
100
AcDbEntity
  8
dress timber
100
AcDbPolyline
 90
        4
 70
     1
 43
0.0
 10
657.3602844704979
 20
13918.80221336334
 10
677.3602844704978
 20
13918.80221336334
 10
677.3602844704978
 20
13993.80221336334
 10
657.3602844704979
 20
13978.80221336334
  0
LWPOLYLINE
  5
2DE3
330
1F
100
AcDbEntity
  8
linings
 48
10.0
100
AcDbPolyline
 90
        4
 70
     0
 43
0.0
 10
679.360284470499
 20
14641.30221336334
 10
679.3602844704978
 20
13915.80221336334
 10
689.3602844704978
 20
13915.80221336334
 10
689.3602844704989
 20
14641.30221336334
  0
LWPOLYLINE
  5
2DE4
330
1F
100
AcDbEntity
  8
Hebel
 48
10.0
100
AcDbPolyline
 90
        4
 70
     0
 43
0.0
 10
791.3944883352996
 20
14133.80221336334
 10
841.360284470498
 20
14133.80221336334
 10
841.360284470498
 20
13933.80221336334
 10
772.3602844704979
 20
13933.80221336334
  0
HATCH
  5
2DE5
330
1F
100
AcDbEntity
  8
hatch
 48
10.0
100
AcDbHatch
 10
0.0
 20
0.0
 30
0.0
210
0.0
220
0.0
230
1.0
  2
MUDST
 70
     0
 71
     0
 91
        2
 92
        7
 72
     0
 73
     1
 93
        5
 10
855.3602844704982
 20
13993.80221336334
 10
875.3602844704984
 20
13978.80221336334
 10
875.360284470498
 20
13952.18011327893
 10
871.8634234712697
 20
13949.59619103718
 10
855.3602844704982
 20
13949.59619103718
 97
        0
 92
        7
 72
     0
 73
     1
 93
        5
 10
855.3602844704982
 20
13948.0082356895
 10
871.8634234712688
 20
13948.0082356895
 10
875.3602844704984
 20
13945.42431344775
 10
875.3602844704984
 20
13918.80221336334
 10
855.3602844704982
 20
13918.80221336334
 97
        0
 75
     0
 76
     1
 52
45.0
 41
0.5
 77
     0
 78
     1
 53
135.0
 43
1345.849559112092
 44
5136.311102515303
 45
-2.245064030267288
 46
6.735192090801864
 79
     6
 49
3.174999999999999
 49
-3.174999999999999
 49
0.0
 49
-3.174999999999999
 49
0.0
 49
-3.174999999999999
 47
0.3243747405247476
 98
        2
 10
859.8321539723146
 20
13975.37311092059
 10
862.7631675199154
 20
13938.9406435411
1001
ACAD
1010
0.0
1020
0.0
1030
0.0
  0
LWPOLYLINE
  5
2DE7
330
1F
100
AcDbEntity
  8
dress timber
100
AcDbPolyline
 90
        4
 70
     1
 43
0.0
 10
875.3602844704984
 20
13918.80221336334
 10
855.3602844704982
 20
13918.80221336334
 10
855.3602844704982
 20
13993.80221336334
 10
875.3602844704984
 20
13978.80221336334
  0
LWPOLYLINE
  5
2DE8
330
1F
100
AcDbEntity
  8
linings
 48
10.0
100
AcDbPolyline
 90
        4
 70
     0
 43
0.0
 10
853.3602844705006
 20
14641.30221336334
 10
853.3602844704983
 20
13915.80221336334
 10
843.3602844704983
 20
13915.80221336334
 10
843.3602844704978
 20
14641.30221336334
  0
LWPOLYLINE
  5
2E2D
330
1F
100
AcDbEntity
  8
Hebel
 48
10.0
100
AcDbPolyline
 90
        3
 70
     0
 43
0.0
 10
691.360284470498
 20
14641.30221336334
 10
691.360284470498
 20
14541.30221336334
 10
741.3944883352996
 20
14541.30221336334
  0
LINE
  5
2E30
330
1F
100
AcDbEntity
  8
linings
 48
10.0
100
AcDbLine
 10
691.3944883352996
 20
13932.89649429834
 30
0.0
 11
691.3944883352996
 21
13933.80221336334
 31
0.0
  0
LINE
  5
2E33
330
1F
100
AcDbEntity
  8
linings
  6
HIDDEN
 48
50.0
100
AcDbLine
 10
691.3944883352995
 20
13918.80221336334
 30
0.0
 11
760.360284470498
 21
13918.80221336334
 31
0.0
  0
LWPOLYLINE
  5
2E34
330
1F
100
AcDbEntity
  8
linings
 48
10.0
100
AcDbPolyline
 90
        4
 70
     0
 43
0.0
 10
772.3602844704979
 20
13923.80221336334
 10
841.3944883352996
 20
13923.80221336334
 10
841.3944883352996
 20
13933.80221336334
 10
772.3602844704979
 20
13933.80221336334
  0
HATCH
  5
2E9B
330
1F
100
AcDbEntity
  8
hatch
 48
10.0
100
AcDbHatch
 10
0.0
 20
0.0
 30
0.0
210
0.0
220
0.0
230
1.0
  2
AR-SAND
 70
     0
 71
     0
 91
        2
 92
        1
 93
        4
 72
     1
 10
791.3944883352995
 20
14641.30221336334
 11
791.3944883352995
 21
14541.30221336334
 72
     1
 10
791.3944883352995
 20
14541.30221336334
 11
841.360284470498
 21
14541.30221336334
 72
     1
 10
841.360284470498
 20
14541.30221336334
 11
841.3602844704982
 21
14641.30221336334
 72
     1
 10
841.3602844704982
 20
14641.30221336334
 11
791.3944883352995
 21
14641.30221336334
 97
        0
 92
        1
 93
        4
 72
     1
 10
741.3944883352997
 20
14541.30221336334
 11
741.3944883352996
 21
14641.30221336334
 72
     1
 10
741.3944883352996
 20
14641.30221336334
 11
691.360284470498
 21
14641.30221336334
 72
     1
 10
691.360284470498
 20
14641.30221336334
 11
691.360284470498
 21
14541.30221336334
 72
     1
 10
691.360284470498
 20
14541.30221336334
 11
741.3944883352997
 21
14541.30221336334
 97
        0
 75
     0
 76
     1
 52
0.0
 41
0.5
 77
     0
 78
     4
 53
37.5
 43
-607.5624676313164
 44
1454.41197771276
 45
-0.8000156479920228
 46
24.47066186646712
 79
     6
 49
0.0
 49
-19.304
 49
0.0
 49
-21.59
 49
0.0
 49
-20.6375
 53
7.499999999999999
 43
-607.5624676313164
 44
1454.41197771276
 45
22.47616415690013
 46
35.84125502841772
 79
     6
 49
0.0
 49
-10.414
 49
0.0
 49
-17.399
 49
0.0
 49
-6.6675
 53
327.5
 43
-623.1834676313163
 44
1454.41197771276
 45
39.5496185120729
 46
0.0718592339272846
 79
     6
 49
0.0
 49
-6.349999999999999
 49
0.0
 49
-22.86
 49
0.0
 49
-29.845
 53
317.5
 43
-623.1834676313163
 44
1454.41197771276
 45
38.17782262361486
 46
11.14646616286081
 79
     6
 49
0.0
 49
-3.174999999999999
 49
0.0
 49
-14.986
 49
0.0
 49
-17.145
 98
        1
 10
794.5210498616506
 20
14590.82877362334
1001
ACAD
1010
0.0
1020
0.0
1030
0.0
  0
HATCH
  5
2EFE
330
1F
100
AcDbEntity
  8
hatch
 48
10.0
100
AcDbHatch
 10
0.0
 20
0.0
 30
0.0
210
0.0
220
0.0
230
1.0
  2
AR-SAND
 70
     0
 71
     0
 91
        2
 92
        5
 93
        4
 72
     1
 10
772.3602844704977
 20
13933.80221336334
 11
772.3602844704979
 21
13923.80221336334
 72
     1
 10
772.3602844704979
 20
13923.80221336334
 11
841.3944883352995
 21
13923.80221336334
 72
     1
 10
841.3944883352995
 20
13923.80221336334
 11
841.3944883352998
 21
13933.80221336334
 72
     1
 10
841.3944883352998
 20
13933.80221336334
 11
772.3602844704977
 21
13933.80221336334
 97
        0
 92
        5
 93
        4
 72
     1
 10
760.3602844704981
 20
13923.80221336334
 11
760.3602844704981
 21
13933.80221336334
 72
     1
 10
760.3602844704981
 20
13933.80221336334
 11
691.3944883352997
 21
13933.80221336334
 72
     1
 10
691.3944883352997
 20
13933.80221336334
 11
691.3944883352996
 21
13923.80221336334
 72
     1
 10
691.3944883352996
 20
13923.80221336334
 11
760.3602844704981
 21
13923.80221336334
 97
        0
 75
     0
 76
     1
 52
0.0
 41
0.1
 77
     0
 78
     4
 53
37.5
 43
-607.5624676313164
 44
1454.41197771276
 45
-0.1600031295984046
 46
4.894132373293423
 79
     6
 49
0.0
 49
-3.8608
 49
0.0
 49
-4.318
 49
0.0
 49
-4.1275
 53
7.499999999999999
 43
-607.5624676313164
 44
1454.41197771276
 45
4.495232831380026
 46
7.168251005683543
 79
     6
 49
0.0
 49
-2.0828
 49
0.0
 49
-3.4798
 49
0.0
 49
-1.3335
 53
327.5
 43
-610.6866676313163
 44
1454.41197771276
 45
7.909923702414579
 46
0.0143718467854569
 79
     6
 49
0.0
 49
-1.27
 49
0.0
 49
-4.572
 49
0.0
 49
-5.969
 53
317.5
 43
-610.6866676313163
 44
1454.41197771276
 45
7.635564524722972
 46
2.229293232572162
 79
     6
 49
0.0
 49
-0.635
 49
0.0
 49
-2.997199999999999
 49
0.0
 49
-3.429
 47
0.1566240421786709
 98
        2
 10
751.4286651916044
 20
13927.44327063822
 10
751.4286651916044
 20
13927.44327063822
1001
ACAD
1010
0.0
1020
0.0
1030
0.0
  0
HATCH
  5
2F8D
330
1F
100
AcDbEntity
  8
hatch
 48
10.0
100
AcDbHatch
 10
0.0
 20
0.0
 30
0.0
210
0.0
220
0.0
230
1.0
  2
AR-CONC
 70
     0
 71
     0
 91
        2
 92
        7
 72
     0
 73
     1
 93
       25
 10
689.3602844704989
 20
14641.30221336334
 10
679.3602844704992
 20
14641.30221336334
 10
679.3602844704978
 20
13949.59619103717
 10
680.1143813946359
 20
13949.59619103718
 10
680.1143813946359
 20
13950.05748798873
 10
680.6115342353107
 20
13949.59619103718
 10
681.493022070337
 20
13949.59619103718
 10
681.4930220703367
 20
13950.05748798873
 10
681.9901749110101
 20
13949.59619103718
 10
682.9134393474792
 20
13949.59619103717
 10
682.9134393474789
 20
13950.05748798873
 10
683.4105921881514
 20
13949.59619103718
 10
684.4174098275138
 20
13949.59619103718
 10
684.4174098275138
 20
13950.05748798873
 10
684.9145626681872
 20
13949.59619103718
 10
685.8796037061033
 20
13949.59619103718
 10
685.8796037061033
 20
13950.05748798873
 10
686.3767565467792
 20
13949.59619103718
 10
687.3417975846909
 20
13949.59619103718
 10
687.3417975846908
 20
13950.05748798873
 10
687.8389504253659
 20
13949.59619103718
 10
688.5522070553429
 20
13949.59619103717
 10
688.5522070553429
 20
13950.1211472217
 10
689.1179672613978
 20
13949.59619103717
 10
689.3602844704978
 20
13949.59619103717
 97
        0
 92
        7
 72
     0
 73
     1
 93
       23
 10
689.3602844704981
 20
13947.5834657368
 10
689.0005949555045
 20
13948.0082356895
 10
688.2281111820912
 20
13948.0082356895
 10
688.0744138432412
 20
13947.60892122802
 10
687.7362796977731
 20
13948.0082356895
 10
686.765917303504
 20
13948.0082356895
 10
686.6122199646538
 20
13947.60892122802
 10
686.2740858191862
 20
13948.0082356895
 10
685.3037234249145
 20
13948.0082356895
 10
685.1500260860648
 20
13947.60892122803
 10
684.8118919405935
 20
13948.0082356895
 10
683.7997529448799
 20
13948.0082356895
 10
683.6460556060298
 20
13947.60892122803
 10
683.3079214605602
 20
13948.0082356895
 10
682.3793356677372
 20
13948.0082356895
 10
682.2256383288868
 20
13947.60892122802
 10
681.8875041834157
 20
13948.0082356895
 10
681.0006949920366
 20
13948.00823568951
 10
680.8469976531867
 20
13947.60892122802
 10
680.5088635077145
 20
13948.0082356895
 10
679.3602844704978
 20
13948.0082356895
 10
679.3602844704978
 20
13915.80221336334
 10
689.3602844704978
 20
13915.80221336334
 97
        0
 75
     0
 76
     1
 52
0.0
 41
0.1
 77
     0
 78
    13
 53
50.0
 43
-607.5624676313164
 44
1454.41197771276
 45
18.2184668996004
 46
-1.593908553890308
 79
     2
 49
1.905
 49
-20.955
 53
355.0
 43
-607.5624676313164
 44
1454.41197771276
 45
-3.524282597566699
 46
19.105664288218
 79
     2
 49
1.524
 49
-16.764
 53
100.451
 43
-606.0442676313164
 44
1454.27915271276
 45
14.69425016659592
 46
17.51166878202919
 79
     2
 49
1.619
 49
-17.809
 53
46.1842
 43
-607.5624676313164
 44
1459.49197771276
 45
27.107904089213
 46
-4.204232793272715
 79
     2
 49
2.857499999999999
 49
-31.4325
 53
96.63559999999998
 43
-605.3034776313163
 44
1459.141627712759
 45
23.74042344662372
 46
24.74255558900492
 79
     2
 49
2.4285
 49
-26.7135
 53
351.184
 43
-607.5624676313164
 44
1459.49197771276
 45
23.74046058139339
 46
24.74251178605977
 79
     2
 49
2.286
 49
-25.146
 53
21.0
 43
-605.0224676313164
 44
1458.22197771276
 45
15.16148798353833
 46
-10.22655185167625
 79
     2
 49
1.905
 49
-20.955
 53
326.0
 43
-605.0224676313164
 44
1458.22197771276
 45
6.180202834764707
 46
18.41879661223192
 79
     2
 49
1.524
 49
-16.764
 53
71.45140000000001
 43
-603.7590176313163
 44
1457.36976771276
 45
21.34164907701245
 46
8.192285771605744
 79
     2
 49
1.619
 49
-17.809
 53
37.5
 43
-607.5624676313164
 44
1454.41197771276
 45
0.3088603250591817
 46
8.455503887315311
 79
     6
 49
0.0
 49
-16.5608
 49
0.0
 49
-17.018
 49
0.0
 49
-16.8275
 53
7.499999999999999
 43
-607.5624676313164
 44
1454.41197771276
 45
6.681966251030575
 46
10.01805748181195
 79
     6
 49
0.0
 49
-9.702799999999999
 49
0.0
 49
-16.1798
 49
0.0
 49
-6.4135
 53
327.5
 43
-613.2266676313165
 44
1454.41197771276
 45
13.55905951668714
 46
-0.5728743992673459
 79
     6
 49
0.0
 49
-6.35
 49
0.0
 49
-19.812
 49
0.0
 49
-26.289
 53
317.5
 43
-615.7666676313164
 44
1454.41197771276
 45
14.8129181386018
 46
2.542649103333301
 79
     6
 49
0.0
 49
-8.255
 49
0.0
 49
-13.1572
 49
0.0
 49
-18.669
 47
1.149154365642749
 98
        2
 10
683.3575575062895
 20
14466.27351774608
 10
683.3575575062895
 20
13939.96080976605
1001
ACAD
1010
0.0
1020
0.0
1030
0.0
  0
HATCH
  5
301C
330
1F
100
AcDbEntity
  8
hatch
 48
10.0
100
AcDbHatch
 10
0.0
 20
0.0
 30
0.0
210
0.0
220
0.0
230
1.0
  2
AR-CONC
 70
     0
 71
     0
 91
        2
 92
        7
 72
     0
 73
     1
 93
       25
 10
853.3602844705006
 20
14641.30221336334
 10
843.3602844704976
 20
14641.30221336334
 10
843.3602844704985
 20
13949.59619103718
 10
843.6026016795983
 20
13949.59619103718
 10
844.1683618856529
 20
13950.1211472217
 10
844.1683618856529
 20
13949.59619103718
 10
844.8816185156285
 20
13949.59619103717
 10
845.3787713563054
 20
13950.05748798873
 10
845.3787713563054
 20
13949.59619103718
 10
846.3438123942182
 20
13949.59619103718
 10
846.8409652348928
 20
13950.05748798873
 10
846.8409652348929
 20
13949.59619103718
 10
847.8060062728101
 20
13949.59619103718
 10
848.3031591134823
 20
13950.05748798873
 10
848.3031591134825
 20
13949.59619103718
 10
849.309976752843
 20
13949.59619103718
 10
849.8071295935169
 20
13950.05748798873
 10
849.8071295935167
 20
13949.59619103718
 10
850.7303940299856
 20
13949.59619103718
 10
851.2275468706596
 20
13950.05748798873
 10
851.2275468706596
 20
13949.59619103718
 10
852.1090347056865
 20
13949.59619103718
 10
852.6061875463602
 20
13950.05748798873
 10
852.6061875463604
 20
13949.59619103718
 10
853.3602844704983
 20
13949.59619103718
 97
        0
 92
        7
 72
     0
 73
     1
 93
       23
 10
853.3602844704983
 20
13948.00823568951
 10
852.2117054332813
 20
13948.0082356895
 10
851.8735712878093
 20
13947.60892122802
 10
851.719873948959
 20
13948.0082356895
 10
850.833064757581
 20
13948.00823568951
 10
850.4949306121091
 20
13947.60892122802
 10
850.3412332732585
 20
13948.0082356895
 10
849.4126474804376
 20
13948.0082356895
 10
849.0745133349655
 20
13947.60892122802
 10
848.920815996116
 20
13948.0082356895
 10
847.9086770004032
 20
13948.0082356895
 10
847.5705428549312
 20
13947.60892122802
 10
847.4168455160818
 20
13948.0082356895
 10
846.4464831218128
 20
13948.0082356895
 10
846.1083489763423
 20
13947.60892122802
 10
845.9546516374926
 20
13948.0082356895
 10
844.9842892432263
 20
13948.00823568951
 10
844.646155097755
 20
13947.60892122803
 10
844.4924577589032
 20
13948.0082356895
 10
843.7199739854898
 20
13948.00823568951
 10
843.3602844704983
 20
13947.5834657368
 10
843.360284470498
 20
13915.80221336334
 10
853.3602844704981
 20
13915.80221336334
 97
        0
 75
     0
 76
     1
 52
0.0
 41
0.1
 77
     0
 78
    13
 53
50.0
 43
-607.5624676313164
 44
1454.41197771276
 45
18.2184668996004
 46
-1.593908553890308
 79
     2
 49
1.905
 49
-20.955
 53
355.0
 43
-607.5624676313164
 44
1454.41197771276
 45
-3.524282597566699
 46
19.105664288218
 79
     2
 49
1.524
 49
-16.764
 53
100.451
 43
-606.0442676313164
 44
1454.27915271276
 45
14.69425016659592
 46
17.51166878202919
 79
     2
 49
1.619
 49
-17.809
 53
46.1842
 43
-607.5624676313164
 44
1459.49197771276
 45
27.107904089213
 46
-4.204232793272715
 79
     2
 49
2.857499999999999
 49
-31.4325
 53
96.63559999999998
 43
-605.3034776313163
 44
1459.141627712759
 45
23.74042344662372
 46
24.74255558900492
 79
     2
 49
2.4285
 49
-26.7135
 53
351.184
 43
-607.5624676313164
 44
1459.49197771276
 45
23.74046058139339
 46
24.74251178605977
 79
     2
 49
2.286
 49
-25.146
 53
21.0
 43
-605.0224676313164
 44
1458.22197771276
 45
15.16148798353833
 46
-10.22655185167625
 79
     2
 49
1.905
 49
-20.955
 53
326.0
 43
-605.0224676313164
 44
1458.22197771276
 45
6.180202834764707
 46
18.41879661223192
 79
     2
 49
1.524
 49
-16.764
 53
71.45140000000001
 43
-603.7590176313163
 44
1457.36976771276
 45
21.34164907701245
 46
8.192285771605744
 79
     2
 49
1.619
 49
-17.809
 53
37.5
 43
-607.5624676313164
 44
1454.41197771276
 45
0.3088603250591817
 46
8.455503887315311
 79
     6
 49
0.0
 49
-16.5608
 49
0.0
 49
-17.018
 49
0.0
 49
-16.8275
 53
7.499999999999999
 43
-607.5624676313164
 44
1454.41197771276
 45
6.681966251030575
 46
10.01805748181195
 79
     6
 49
0.0
 49
-9.702799999999999
 49
0.0
 49
-16.1798
 49
0.0
 49
-6.4135
 53
327.5
 43
-613.2266676313165
 44
1454.41197771276
 45
13.55905951668714
 46
-0.5728743992673459
 79
     6
 49
0.0
 49
-6.35
 49
0.0
 49
-19.812
 49
0.0
 49
-26.289
 53
317.5
 43
-615.7666676313164
 44
1454.41197771276
 45
14.8129181386018
 46
2.542649103333301
 79
     6
 49
0.0
 49
-8.255
 49
0.0
 49
-13.1572
 49
0.0
 49
-18.669
 47
1.140025598640793
 98
        2
 10
852.5123238548621
 20
14593.99993644063
 10
848.7491959480285
 20
13929.8950763904
1001
ACAD
1010
0.0
1020
0.0
1030
0.0
  0
LINE
  5
301E
330
1F
100
AcDbEntity
  8
linings
 48
10.0
100
AcDbLine
 10
657.3602844704979
 20
13913.80221336334
 30
0.0
 11
657.3602844704979
 21
13923.80221336334
 31
0.0
  0
LINE
  5
301F
330
1F
100
AcDbEntity
  8
linings
  6
BATTING
 48
20.0
100
AcDbLine
 10
657.3602844704979
 20
13923.80221336334
 30
0.0
 11
341.3602844704983
 21
13923.80221336334
 31
0.0
  0
LINE
  5
3020
330
1F
100
AcDbEntity
  8
linings
  6
BATTING
 48
20.0
100
AcDbLine
 10
875.3602844704984
 20
13923.80221336334
 30
0.0
 11
1191.360284470498
 21
13923.80221336334
 31
0.0
  0
LINE
  5
3021
330
1F
100
AcDbEntity
  8
Fastenings and sealants
100
AcDbLine
 10
706.6466144250803
 20
13949.59619103718
 30
0.0
 11
707.501968243077
 21
13949.59619103718
 31
0.0
  0
LINE
  5
3022
330
1F
100
AcDbEntity
  8
Fastenings and sealants
100
AcDbLine
 10
705.3406423442879
 20
13949.59619103718
 30
0.0
 11
706.1641472492024
 21
13949.59619103718
 31
0.0
  0
LINE
  5
3023
330
1F
100
AcDbEntity
  8
Fastenings and sealants
100
AcDbLine
 10
704.0512379963598
 20
13949.59619103718
 30
0.0
 11
704.8581751684082
 21
13949.59619103718
 31
0.0
  0
LINE
  5
3024
330
1F
100
AcDbEntity
  8
Fastenings and sealants
100
AcDbLine
 10
702.8242647605707
 20
13949.59619103718
 30
0.0
 11
703.5676712348208
 21
13949.59619103718
 31
0.0
  0
LINE
  5
3025
330
1F
100
AcDbEntity
  8
Fastenings and sealants
100
AcDbLine
 10
660.8571454697262
 20
13949.59619103718
 30
0.0
 11
695.114381394636
 21
13949.59619103718
 31
0.0
  0
LINE
  5
3026
330
1F
100
AcDbEntity
  8
Fastenings and sealants
100
AcDbLine
 10
660.8571454697262
 20
13948.0082356895
 30
0.0
 11
695.4795354475166
 21
13948.0082356895
 31
0.0
  0
LINE
  5
3027
330
1F
100
AcDbEntity
  8
Fastenings and sealants
100
AcDbLine
 10
703.2281111820934
 20
13948.0082356895
 30
0.0
 11
704.0005949555066
 21
13948.0082356895
 31
0.0
  0
LINE
  5
3028
330
1F
100
AcDbEntity
  8
Fastenings and sealants
100
AcDbLine
 10
704.4140180222507
 20
13948.0082356895
 30
0.0
 11
705.252657281489
 21
13948.0082356895
 31
0.0
  0
LINE
  5
3029
330
1F
100
AcDbEntity
  8
Fastenings and sealants
100
AcDbLine
 10
705.7444887658107
 20
13948.0082356895
 30
0.0
 11
706.5586293622814
 21
13948.0082356895
 31
0.0
  0
LINE
  5
302A
330
1F
100
AcDbEntity
  8
Fastenings and sealants
100
AcDbLine
 10
713.5268366792965
 20
13949.59619103718
 30
0.0
 11
714.4140433780972
 21
13949.59619103718
 31
0.0
  0
LINE
  5
302B
330
1F
100
AcDbEntity
  8
Fastenings and sealants
100
AcDbLine
 10
712.1890156854201
 20
13949.59619103718
 30
0.0
 11
713.0443695034168
 21
13949.59619103718
 31
0.0
  0
LINE
  5
302C
330
1F
100
AcDbEntity
  8
Fastenings and sealants
100
AcDbLine
 10
712.5928621069428
 20
13948.0082356895
 30
0.0
 11
713.4388516164959
 21
13948.0082356895
 31
0.0
  0
LINE
  5
302D
330
1F
100
AcDbEntity
  8
Fastenings and sealants
100
AcDbLine
 10
713.9306831008175
 20
13948.0082356895
 30
0.0
 11
714.8085254911761
 21
13948.0082356895
 31
0.0
  0
LINE
  5
302E
330
1F
100
AcDbEntity
  8
Fastenings and sealants
100
AcDbLine
 10
710.7556360491266
 20
13949.59619103718
 30
0.0
 11
711.7065485095404
 21
13949.59619103718
 31
0.0
  0
LINE
  5
302F
330
1F
100
AcDbEntity
  8
Fastenings and sealants
100
AcDbLine
 10
709.7579557151598
 20
13948.0082356895
 30
0.0
 11
710.6676509863259
 21
13948.0082356895
 31
0.0
  0
LINE
  5
3030
330
1F
100
AcDbEntity
  8
Fastenings and sealants
100
AcDbLine
 10
707.9844354189567
 20
13949.59619103718
 30
0.0
 11
708.8716421177573
 21
13949.59619103718
 31
0.0
  0
LINE
  5
3031
330
1F
100
AcDbEntity
  8
Fastenings and sealants
100
AcDbLine
 10
708.3882818404795
 20
13948.0082356895
 30
0.0
 11
709.2661242308363
 21
13948.0082356895
 31
0.0
  0
LINE
  5
3032
330
1F
100
AcDbEntity
  8
Fastenings and sealants
100
AcDbLine
 10
707.0504608466031
 20
13948.0082356895
 30
0.0
 11
707.896450356156
 21
13948.0082356895
 31
0.0
  0
LINE
  5
3033
330
1F
100
AcDbEntity
  8
Fastenings and sealants
100
AcDbLine
 10
709.354109293637
 20
13949.59619103718
 30
0.0
 11
710.2731688732469
 21
13949.59619103718
 31
0.0
  0
LINE
  5
3034
330
1F
100
AcDbEntity
  8
Fastenings and sealants
100
AcDbLine
 10
711.1594824706476
 20
13948.0082356895
 30
0.0
 11
712.1010306226212
 21
13948.0082356895
 31
0.0
  0
LWPOLYLINE
  5
3035
330
1F
100
AcDbEntity
  8
Fastenings and sealants
100
AcDbPolyline
 90
        6
 70
     1
 43
0.0
 10
701.2618382757823
 20
13948.02269924269
 10
701.6122199646538
 20
13947.60892122802
 10
701.7714843686858
 20
13948.02269924269
 10
701.3573969182012
 20
13949.61415440159
 10
700.8796037061033
 20
13950.05748798873
 10
700.8796037061033
 20
13949.59619103718
  0
LWPOLYLINE
  5
3036
330
1F
100
AcDbEntity
  8
Fastenings and sealants
100
AcDbPolyline
 90
        6
 70
     1
 43
0.0
 10
699.7996443971929
 20
13948.02269924269
 10
700.1500260860644
 20
13947.60892122802
 10
700.3092904900963
 20
13948.02269924269
 10
699.8952030396117
 20
13949.61415440159
 10
699.4174098275139
 20
13950.05748798873
 10
699.4174098275139
 20
13949.59619103718
  0
LWPOLYLINE
  5
3037
330
1F
100
AcDbEntity
  8
Fastenings and sealants
100
AcDbPolyline
 90
        6
 70
     1
 43
0.0
 10
698.2956739171582
 20
13948.02269924269
 10
698.6460556060296
 20
13947.60892122802
 10
698.8053200100616
 20
13948.02269924269
 10
698.391232559577
 20
13949.61415440159
 10
697.9134393474792
 20
13950.05748798873
 10
697.9134393474792
 20
13949.59619103718
  0
LWPOLYLINE
  5
3038
330
1F
100
AcDbEntity
  8
Fastenings and sealants
100
AcDbPolyline
 90
        6
 70
     1
 43
0.0
 10
696.8752566400158
 20
13948.02269924269
 10
697.2256383288872
 20
13947.60892122802
 10
697.3849027329192
 20
13948.02269924269
 10
696.9708152824345
 20
13949.61415440159
 10
696.4930220703368
 20
13950.05748798873
 10
696.4930220703368
 20
13949.59619103718
  0
LWPOLYLINE
  5
3039
330
1F
100
AcDbEntity
  8
Fastenings and sealants
100
AcDbPolyline
 90
        6
 70
     1
 43
0.0
 10
695.496615964315
 20
13948.02269924269
 10
695.8469976531865
 20
13947.60892122802
 10
696.0062620572184
 20
13948.02269924269
 10
695.5921746067338
 20
13949.61415440159
 10
695.114381394636
 20
13950.05748798873
 10
695.114381394636
 20
13949.59619103718
  0
LINE
  5
303A
330
1F
100
AcDbEntity
  8
Fastenings and sealants
100
AcDbLine
 10
700.3037234249145
 20
13948.0082356895
 30
0.0
 11
701.2740858191823
 21
13948.0082356895
 31
0.0
  0
LINE
  5
303B
330
1F
100
AcDbEntity
  8
Fastenings and sealants
100
AcDbLine
 10
699.8998770033917
 20
13949.59619103718
 30
0.0
 11
700.8796037061033
 21
13949.59619103718
 31
0.0
  0
LINE
  5
303C
330
1F
100
AcDbEntity
  8
Fastenings and sealants
100
AcDbLine
 10
698.7997529448798
 20
13948.0082356895
 30
0.0
 11
699.8118919405929
 21
13948.0082356895
 31
0.0
  0
LINE
  5
303D
330
1F
100
AcDbEntity
  8
Fastenings and sealants
100
AcDbLine
 10
698.3959065233571
 20
13949.59619103718
 30
0.0
 11
699.4174098275139
 21
13949.59619103718
 31
0.0
  0
LINE
  5
303E
330
1F
100
AcDbEntity
  8
Fastenings and sealants
100
AcDbLine
 10
697.3793356677374
 20
13948.0082356895
 30
0.0
 11
698.3079214605582
 21
13948.0082356895
 31
0.0
  0
LINE
  5
303F
330
1F
100
AcDbEntity
  8
Fastenings and sealants
100
AcDbLine
 10
696.9754892462146
 20
13949.59619103718
 30
0.0
 11
697.9134393474792
 21
13949.59619103718
 31
0.0
  0
LINE
  5
3040
330
1F
100
AcDbEntity
  8
Fastenings and sealants
100
AcDbLine
 10
696.0006949920366
 20
13948.0082356895
 30
0.0
 11
696.8875041834158
 21
13948.0082356895
 31
0.0
  0
LINE
  5
3041
330
1F
100
AcDbEntity
  8
Fastenings and sealants
100
AcDbLine
 10
695.5968485705138
 20
13949.59619103718
 30
0.0
 11
696.4930220703368
 21
13949.59619103718
 31
0.0
  0
LWPOLYLINE
  5
3042
330
1F
100
AcDbEntity
  8
Fastenings and sealants
100
AcDbPolyline
 90
        6
 70
     1
 43
0.0
 10
702.72403215437
 20
13948.02269924269
 10
703.0744138432415
 20
13947.60892122802
 10
703.2336782472734
 20
13948.02269924269
 10
702.8195907967888
 20
13949.61415440159
 10
702.341797584691
 20
13950.05748798873
 10
702.341797584691
 20
13949.59619103718
  0
LWPOLYLINE
  5
3043
330
1F
100
AcDbEntity
  8
Fastenings and sealants
100
AcDbPolyline
 90
        6
 70
     1
 43
0.0
 10
703.9344416250219
 20
13948.08635847565
 10
704.2848233138934
 20
13947.67258046099
 10
704.4440877179254
 20
13948.08635847565
 10
704.0300002674407
 20
13949.67781363456
 10
703.5522070553429
 20
13950.1211472217
 10
703.5522070553429
 20
13949.65985027015
  0
LWPOLYLINE
  5
3044
330
1F
100
AcDbEntity
  8
Fastenings and sealants
100
AcDbPolyline
 90
        6
 70
     1
 43
0.0
 10
705.2404097380872
 20
13948.02269924269
 10
705.5907914269587
 20
13947.60892122802
 10
705.7500558309907
 20
13948.02269924269
 10
705.335968380506
 20
13949.61415440159
 10
704.8581751684082
 20
13950.05748798873
 10
704.8581751684082
 20
13949.59619103718
  0
LWPOLYLINE
  5
3045
330
1F
100
AcDbEntity
  8
Fastenings and sealants
100
AcDbPolyline
 90
        6
 70
     1
 43
0.0
 10
706.5463818188813
 20
13948.02269924269
 10
706.8967635077529
 20
13947.60892122802
 10
707.0560279117849
 20
13948.02269924269
 10
706.6419404613002
 20
13949.61415440159
 10
706.1641472492024
 20
13950.05748798873
 10
706.1641472492024
 20
13949.59619103718
  0
LWPOLYLINE
  5
3046
330
1F
100
AcDbEntity
  8
Fastenings and sealants
100
AcDbPolyline
 90
        6
 70
     1
 43
0.0
 10
707.884202812756
 20
13948.02269924269
 10
708.2345845016275
 20
13947.60892122802
 10
708.3938489056595
 20
13948.02269924269
 10
707.9797614551749
 20
13949.61415440159
 10
707.501968243077
 20
13950.05748798873
 10
707.501968243077
 20
13949.59619103718
  0
LWPOLYLINE
  5
3047
330
1F
100
AcDbEntity
  8
Fastenings and sealants
100
AcDbPolyline
 90
        6
 70
     1
 43
0.0
 10
709.2538766874363
 20
13948.02269924269
 10
709.6042583763078
 20
13947.60892122802
 10
709.7635227803398
 20
13948.02269924269
 10
709.3494353298551
 20
13949.61415440159
 10
708.8716421177573
 20
13950.05748798873
 10
708.8716421177573
 20
13949.59619103718
  0
LWPOLYLINE
  5
3048
330
1F
100
AcDbEntity
  8
Fastenings and sealants
100
AcDbPolyline
 90
        6
 70
     1
 43
0.0
 10
710.6554034205506
 20
13948.02269713535
 10
711.005785109422
 20
13947.60891912069
 10
711.165049513454
 20
13948.02269713535
 10
710.7509620629693
 20
13949.61415229425
 10
710.2731688508716
 20
13950.05748588139
 10
710.2731688508716
 20
13949.59618892984
  0
LWPOLYLINE
  5
3049
330
1F
100
AcDbEntity
  8
Fastenings and sealants
100
AcDbPolyline
 90
        6
 70
     1
 43
0.0
 10
712.0887830792193
 20
13948.02269924269
 10
712.4391647680909
 20
13947.60892122802
 10
712.5984291721229
 20
13948.02269924269
 10
712.1843417216382
 20
13949.61415440159
 10
711.7065485095404
 20
13950.05748798873
 10
711.7065485095404
 20
13949.59619103718
  0
LWPOLYLINE
  5
304A
330
1F
100
AcDbEntity
  8
Fastenings and sealants
100
AcDbPolyline
 90
        6
 70
     1
 43
0.0
 10
713.4266040730958
 20
13948.02269924269
 10
713.7769857619673
 20
13947.60892122802
 10
713.9362501659993
 20
13948.02269924269
 10
713.5221627155146
 20
13949.61415440159
 10
713.0443695034168
 20
13950.05748798873
 10
713.0443695034168
 20
13949.59619103718
  0
LWPOLYLINE
  5
304B
330
1F
100
AcDbEntity
  8
Fastenings and sealants
100
AcDbPolyline
 90
        6
 70
     1
 43
0.0
 10
714.7962779477762
 20
13948.02269924269
 10
715.1466596366476
 20
13947.60892122802
 10
715.3059240406796
 20
13948.02269924269
 10
714.8918365901949
 20
13949.61415440159
 10
714.4140433780972
 20
13950.05748798873
 10
714.4140433780972
 20
13949.59619103718
  0
LINE
  5
304C
330
1F
100
AcDbEntity
  8
Fastenings and sealants
100
AcDbLine
 10
701.765917303504
 20
13948.0082356895
 30
0.0
 11
702.7362796977718
 21
13948.0082356895
 31
0.0
  0
LINE
  5
304D
330
1F
100
AcDbEntity
  8
Fastenings and sealants
100
AcDbLine
 10
701.3620708819813
 20
13949.59619103718
 30
0.0
 11
702.341797584691
 21
13949.59619103718
 31
0.0
  0
LWPOLYLINE
  5
304E
330
1F
100
AcDbEntity
  8
Fastenings and sealants
100
AcDbPolyline
 90
        4
 70
     1
 43
0.0
 10
657.3602844704979
 20
13945.42431344775
 10
660.8571454697262
 20
13948.0082356895
 10
660.8571454697262
 20
13949.59619103718
 10
657.3602844704979
 20
13952.18011327893
  0
LWPOLYLINE
  5
304F
330
1F
100
AcDbEntity
  8
Fastenings and sealants
100
AcDbPolyline
 90
        5
 70
     0
 43
0.0
 10
715.3003569754996
 20
13948.0082356895
 10
715.4806784355801
 20
13948.0082356895
 10
718.4601778891278
 20
13948.80221336334
 10
715.4806784355801
 20
13949.59619103718
 10
714.8965105539769
 20
13949.59619103718
  0
LINE
  5
3050
330
1F
100
AcDbEntity
  8
Fastenings and sealants
100
AcDbLine
 10
826.142362245519
 20
13949.59619103718
 30
0.0
 11
825.2870084275222
 21
13949.59619103718
 31
0.0
  0
LINE
  5
3051
330
1F
100
AcDbEntity
  8
Fastenings and sealants
100
AcDbLine
 10
827.4483343263113
 20
13949.59619103718
 30
0.0
 11
826.6248294213969
 21
13949.59619103718
 31
0.0
  0
LINE
  5
3052
330
1F
100
AcDbEntity
  8
Fastenings and sealants
100
AcDbLine
 10
828.7377386742395
 20
13949.59619103718
 30
0.0
 11
827.9308015021911
 21
13949.59619103718
 31
0.0
  0
LINE
  5
3053
330
1F
100
AcDbEntity
  8
Fastenings and sealants
100
AcDbLine
 10
829.9647119100287
 20
13949.59619103718
 30
0.0
 11
829.2213054357784
 21
13949.59619103718
 31
0.0
  0
LINE
  5
3054
330
1F
100
AcDbEntity
  8
Fastenings and sealants
100
AcDbLine
 10
871.9318312008731
 20
13949.59619103718
 30
0.0
 11
837.6745952759634
 21
13949.59619103718
 31
0.0
  0
LINE
  5
3055
330
1F
100
AcDbEntity
  8
Fastenings and sealants
100
AcDbLine
 10
871.9318312008731
 20
13948.0082356895
 30
0.0
 11
837.3094412230827
 21
13948.0082356895
 31
0.0
  0
LINE
  5
3056
330
1F
100
AcDbEntity
  8
Fastenings and sealants
100
AcDbLine
 10
829.5608654885059
 20
13948.0082356895
 30
0.0
 11
828.7883817150927
 21
13948.0082356895
 31
0.0
  0
LINE
  5
3057
330
1F
100
AcDbEntity
  8
Fastenings and sealants
100
AcDbLine
 10
828.3749586483486
 20
13948.0082356895
 30
0.0
 11
827.5363193891102
 21
13948.0082356895
 31
0.0
  0
LINE
  5
3058
330
1F
100
AcDbEntity
  8
Fastenings and sealants
100
AcDbLine
 10
827.0444879047886
 20
13948.0082356895
 30
0.0
 11
826.2303473083179
 21
13948.0082356895
 31
0.0
  0
LINE
  5
3059
330
1F
100
AcDbEntity
  8
Fastenings and sealants
100
AcDbLine
 10
819.2621399913027
 20
13949.59619103718
 30
0.0
 11
818.3749332925021
 21
13949.59619103718
 31
0.0
  0
LINE
  5
305A
330
1F
100
AcDbEntity
  8
Fastenings and sealants
100
AcDbLine
 10
820.5999609851792
 20
13949.59619103718
 30
0.0
 11
819.7446071671825
 21
13949.59619103718
 31
0.0
  0
LINE
  5
305B
330
1F
100
AcDbEntity
  8
Fastenings and sealants
100
AcDbLine
 10
820.1961145636564
 20
13948.0082356895
 30
0.0
 11
819.3501250541034
 21
13948.0082356895
 31
0.0
  0
LINE
  5
305C
330
1F
100
AcDbEntity
  8
Fastenings and sealants
100
AcDbLine
 10
818.8582935697818
 20
13948.0082356895
 30
0.0
 11
817.9804511794232
 21
13948.0082356895
 31
0.0
  0
LINE
  5
305D
330
1F
100
AcDbEntity
  8
Fastenings and sealants
100
AcDbLine
 10
822.0333406214727
 20
13949.59619103718
 30
0.0
 11
821.0824281610589
 21
13949.59619103718
 31
0.0
  0
LINE
  5
305E
330
1F
100
AcDbEntity
  8
Fastenings and sealants
100
AcDbLine
 10
823.0310209554396
 20
13948.0082356895
 30
0.0
 11
822.1213256842734
 21
13948.0082356895
 31
0.0
  0
LINE
  5
305F
330
1F
100
AcDbEntity
  8
Fastenings and sealants
100
AcDbLine
 10
824.8045412516425
 20
13949.59619103718
 30
0.0
 11
823.9173345528421
 21
13949.59619103718
 31
0.0
  0
LINE
  5
3060
330
1F
100
AcDbEntity
  8
Fastenings and sealants
100
AcDbLine
 10
824.4006948301198
 20
13948.0082356895
 30
0.0
 11
823.522852439763
 21
13948.0082356895
 31
0.0
  0
LINE
  5
3061
330
1F
100
AcDbEntity
  8
Fastenings and sealants
100
AcDbLine
 10
825.7385158239962
 20
13948.0082356895
 30
0.0
 11
824.8925263144434
 21
13948.0082356895
 31
0.0
  0
LINE
  5
3062
330
1F
100
AcDbEntity
  8
Fastenings and sealants
100
AcDbLine
 10
823.4348673769623
 20
13949.59619103718
 30
0.0
 11
822.5158077973524
 21
13949.59619103718
 31
0.0
  0
LINE
  5
3063
330
1F
100
AcDbEntity
  8
Fastenings and sealants
100
AcDbLine
 10
821.6294941999517
 20
13948.0082356895
 30
0.0
 11
820.6879460479781
 21
13948.0082356895
 31
0.0
  0
LWPOLYLINE
  5
3064
330
1F
100
AcDbEntity
  8
Fastenings and sealants
100
AcDbPolyline
 90
        6
 70
     1
 43
0.0
 10
831.527138394817
 20
13948.02269924269
 10
831.1767567059455
 20
13947.60892122802
 10
831.0174923019134
 20
13948.02269924269
 10
831.4315797523981
 20
13949.61415440159
 10
831.909372964496
 20
13950.05748798873
 10
831.909372964496
 20
13949.59619103718
  0
LWPOLYLINE
  5
3065
330
1F
100
AcDbEntity
  8
Fastenings and sealants
100
AcDbPolyline
 90
        6
 70
     1
 43
0.0
 10
832.9893322734065
 20
13948.02269924269
 10
832.638950584535
 20
13947.60892122802
 10
832.479686180503
 20
13948.02269924269
 10
832.8937736309876
 20
13949.61415440159
 10
833.3715668430855
 20
13950.05748798873
 10
833.3715668430855
 20
13949.59619103718
  0
LWPOLYLINE
  5
3066
330
1F
100
AcDbEntity
  8
Fastenings and sealants
100
AcDbPolyline
 90
        6
 70
     1
 43
0.0
 10
834.4933027534411
 20
13948.02269924269
 10
834.1429210645696
 20
13947.60892122802
 10
833.9836566605377
 20
13948.02269924269
 10
834.3977441110222
 20
13949.61415440159
 10
834.8755373231201
 20
13950.05748798873
 10
834.8755373231201
 20
13949.59619103718
  0
LWPOLYLINE
  5
3067
330
1F
100
AcDbEntity
  8
Fastenings and sealants
100
AcDbPolyline
 90
        6
 70
     1
 43
0.0
 10
835.9137200305836
 20
13948.02269924269
 10
835.5633383417121
 20
13947.60892122802
 10
835.4040739376801
 20
13948.02269924269
 10
835.8181613881647
 20
13949.61415440159
 10
836.2959546002626
 20
13950.05748798873
 10
836.2959546002626
 20
13949.59619103718
  0
LWPOLYLINE
  5
3068
330
1F
100
AcDbEntity
  8
Fastenings and sealants
100
AcDbPolyline
 90
        6
 70
     1
 43
0.0
 10
837.2923607062844
 20
13948.02269924269
 10
836.9419790174129
 20
13947.60892122802
 10
836.7827146133809
 20
13948.02269924269
 10
837.1968020638655
 20
13949.61415440159
 10
837.6745952759634
 20
13950.05748798873
 10
837.6745952759634
 20
13949.59619103718
  0
LINE
  5
3069
330
1F
100
AcDbEntity
  8
Fastenings and sealants
100
AcDbLine
 10
832.4852532456848
 20
13948.0082356895
 30
0.0
 11
831.5148908514171
 21
13948.0082356895
 31
0.0
  0
LINE
  5
306A
330
1F
100
AcDbEntity
  8
Fastenings and sealants
100
AcDbLine
 10
832.8890996672075
 20
13949.59619103718
 30
0.0
 11
831.909372964496
 21
13949.59619103718
 31
0.0
  0
LINE
  5
306B
330
1F
100
AcDbEntity
  8
Fastenings and sealants
100
AcDbLine
 10
833.9892237257195
 20
13948.0082356895
 30
0.0
 11
832.9770847300064
 21
13948.0082356895
 31
0.0
  0
LINE
  5
306C
330
1F
100
AcDbEntity
  8
Fastenings and sealants
100
AcDbLine
 10
834.3930701472423
 20
13949.59619103718
 30
0.0
 11
833.3715668430855
 21
13949.59619103718
 31
0.0
  0
LINE
  5
306D
330
1F
100
AcDbEntity
  8
Fastenings and sealants
100
AcDbLine
 10
835.4096410028619
 20
13948.0082356895
 30
0.0
 11
834.4810552100412
 21
13948.0082356895
 31
0.0
  0
LINE
  5
306E
330
1F
100
AcDbEntity
  8
Fastenings and sealants
100
AcDbLine
 10
835.8134874243846
 20
13949.59619103718
 30
0.0
 11
834.8755373231201
 21
13949.59619103718
 31
0.0
  0
LINE
  5
306F
330
1F
100
AcDbEntity
  8
Fastenings and sealants
100
AcDbLine
 10
836.7882816785627
 20
13948.0082356895
 30
0.0
 11
835.9014724871835
 21
13948.0082356895
 31
0.0
  0
LINE
  5
3070
330
1F
100
AcDbEntity
  8
Fastenings and sealants
100
AcDbLine
 10
837.1921281000854
 20
13949.59619103718
 30
0.0
 11
836.2959546002626
 21
13949.59619103718
 31
0.0
  0
LWPOLYLINE
  5
3071
330
1F
100
AcDbEntity
  8
Fastenings and sealants
100
AcDbPolyline
 90
        6
 70
     1
 43
0.0
 10
830.0649445162294
 20
13948.02269924269
 10
829.7145628273579
 20
13947.60892122802
 10
829.5552984233259
 20
13948.02269924269
 10
829.9693858738105
 20
13949.61415440159
 10
830.4471790859084
 20
13950.05748798873
 10
830.4471790859084
 20
13949.59619103718
  0
LWPOLYLINE
  5
3072
330
1F
100
AcDbEntity
  8
Fastenings and sealants
100
AcDbPolyline
 90
        6
 70
     1
 43
0.0
 10
828.8545350455773
 20
13948.08635847565
 10
828.504153356706
 20
13947.67258046099
 10
828.344888952674
 20
13948.08635847565
 10
828.7589764031586
 20
13949.67781363456
 10
829.2367696152563
 20
13950.1211472217
 10
829.2367696152563
 20
13949.65985027015
  0
LWPOLYLINE
  5
3073
330
1F
100
AcDbEntity
  8
Fastenings and sealants
100
AcDbPolyline
 90
        6
 70
     1
 43
0.0
 10
827.5485669325121
 20
13948.02269924269
 10
827.1981852436406
 20
13947.60892122802
 10
827.0389208396085
 20
13948.02269924269
 10
827.4530082900932
 20
13949.61415440159
 10
827.9308015021911
 20
13950.05748798873
 10
827.9308015021911
 20
13949.59619103718
  0
LWPOLYLINE
  5
3074
330
1F
100
AcDbEntity
  8
Fastenings and sealants
100
AcDbPolyline
 90
        6
 70
     1
 43
0.0
 10
826.2425948517179
 20
13948.02269924269
 10
825.8922131628464
 20
13947.60892122802
 10
825.7329487588144
 20
13948.02269924269
 10
826.1470362092991
 20
13949.61415440159
 10
826.6248294213969
 20
13950.05748798873
 10
826.6248294213969
 20
13949.59619103718
  0
LWPOLYLINE
  5
3075
330
1F
100
AcDbEntity
  8
Fastenings and sealants
100
AcDbPolyline
 90
        6
 70
     1
 43
0.0
 10
824.9047738578433
 20
13948.02269924269
 10
824.5543921689717
 20
13947.60892122802
 10
824.3951277649397
 20
13948.02269924269
 10
824.8092152154244
 20
13949.61415440159
 10
825.2870084275222
 20
13950.05748798873
 10
825.2870084275222
 20
13949.59619103718
  0
LWPOLYLINE
  5
3076
330
1F
100
AcDbEntity
  8
Fastenings and sealants
100
AcDbPolyline
 90
        6
 70
     1
 43
0.0
 10
823.5350999831631
 20
13948.02269924269
 10
823.1847182942916
 20
13947.60892122802
 10
823.0254538902595
 20
13948.02269924269
 10
823.4395413407442
 20
13949.61415440159
 10
823.9173345528421
 20
13950.05748798873
 10
823.9173345528421
 20
13949.59619103718
  0
LWPOLYLINE
  5
3077
330
1F
100
AcDbEntity
  8
Fastenings and sealants
100
AcDbPolyline
 90
        6
 70
     1
 43
0.0
 10
822.1335732500488
 20
13948.02269713535
 10
821.7831915611773
 20
13947.60891912069
 10
821.6239271571453
 20
13948.02269713535
 10
822.0380146076299
 20
13949.61415229425
 10
822.5158078197278
 20
13950.05748588139
 10
822.5158078197278
 20
13949.59618892984
  0
LWPOLYLINE
  5
3078
330
1F
100
AcDbEntity
  8
Fastenings and sealants
100
AcDbPolyline
 90
        6
 70
     1
 43
0.0
 10
820.7001935913799
 20
13948.02269924269
 10
820.3498119025084
 20
13947.60892122802
 10
820.1905474984764
 20
13948.02269924269
 10
820.6046349489611
 20
13949.61415440159
 10
821.0824281610589
 20
13950.05748798873
 10
821.0824281610589
 20
13949.59619103718
  0
LWPOLYLINE
  5
3079
330
1F
100
AcDbEntity
  8
Fastenings and sealants
100
AcDbPolyline
 90
        6
 70
     1
 43
0.0
 10
819.3623725975035
 20
13948.02269924269
 10
819.011990908632
 20
13947.60892122802
 10
818.8527265045999
 20
13948.02269924269
 10
819.2668139550846
 20
13949.61415440159
 10
819.7446071671825
 20
13950.05748798873
 10
819.7446071671825
 20
13949.59619103718
  0
LWPOLYLINE
  5
307A
330
1F
100
AcDbEntity
  8
Fastenings and sealants
100
AcDbPolyline
 90
        6
 70
     1
 43
0.0
 10
817.9926987228231
 20
13948.02269924269
 10
817.6423170339516
 20
13947.60892122802
 10
817.4830526299198
 20
13948.02269924269
 10
817.8971400804043
 20
13949.61415440159
 10
818.3749332925021
 20
13950.05748798873
 10
818.3749332925021
 20
13949.59619103718
  0
LINE
  5
307B
330
1F
100
AcDbEntity
  8
Fastenings and sealants
100
AcDbLine
 10
831.0230593670953
 20
13948.0082356895
 30
0.0
 11
830.0526969728275
 21
13948.0082356895
 31
0.0
  0
LINE
  5
307C
330
1F
100
AcDbEntity
  8
Fastenings and sealants
100
AcDbLine
 10
831.426905788618
 20
13949.59619103718
 30
0.0
 11
830.4471790859084
 21
13949.59619103718
 31
0.0
  0
LWPOLYLINE
  5
307D
330
1F
100
AcDbEntity
  8
Fastenings and sealants
100
AcDbPolyline
 90
        4
 70
     1
 43
0.0
 10
875.4286922001014
 20
13945.42431344775
 10
871.9318312008731
 20
13948.0082356895
 10
871.9318312008731
 20
13949.59619103718
 10
875.4286922001014
 20
13952.18011327893
  0
LWPOLYLINE
  5
307E
330
1F
100
AcDbEntity
  8
Fastenings and sealants
100
AcDbPolyline
 90
        5
 70
     0
 43
0.0
 10
817.4886196950996
 20
13948.0082356895
 10
817.3082982350193
 20
13948.0082356895
 10
814.3287987814714
 20
13948.80221336334
 10
817.3082982350193
 20
13949.59619103718
 10
817.8924661166224
 20
13949.59619103718
  0
LWPOLYLINE
  5
4C4D
330
1F
100
AcDbEntity
  8
Fastenings and sealants
100
AcDbPolyline
 90
        6
 70
     0
 43
0.0
 10
892.3652134125008
 20
14641.30221336334
 10
772.3652134125009
 20
14641.30221336334
 10
769.8652134125008
 20
14626.30221336334
 10
764.8652134125009
 20
14656.30221336334
 10
762.3652134125009
 20
14641.30221336334
 10
642.3652134125009
 20
14641.30221336334
  0
LINE
  5
535B
102
{ACAD_REACTORS
330
2E9B
330
2D9A
102
}
330
1F
100
AcDbEntity
  8
Concrete
 48
10.0
100
AcDbLine
 10
741.3944883352996
 20
13933.80221336334
 30
0.0
 11
741.3944883352996
 21
14641.30221336334
 31
0.0
  0
LINE
  5
535C
102
{ACAD_REACTORS
330
2E9B
330
2D9A
102
}
330
1F
100
AcDbEntity
  8
Concrete
 48
10.0
100
AcDbLine
 10
791.3944883352996
 20
13933.80221336334
 30
0.0
 11
791.3944883352996
 21
14641.30221336334
 31
0.0
  0
LWPOLYLINE
  5
539D
330
1F
100
AcDbEntity
  8
Hebel
 48
10.0
100
AcDbPolyline
 90
        3
 70
     0
 43
0.0
 10
791.3944883352996
 20
14541.30221336334
 10
841.360284470498
 20
14541.30221336334
 10
841.360284470498
 20
14641.30221336334
  0
LWPOLYLINE
  5
53AE
102
{ACAD_REACTORS
330
2D9A
102
}
330
1F
100
AcDbEntity
  8
Hebel
 48
10.0
100
AcDbPolyline
 90
        4
 70
     0
 43
0.0
 10
791.3944883352996
 20
14338.80221336334
 10
841.360284470498
 20
14338.80221336334
 10
841.360284470498
 20
14538.80221336334
 10
791.3944883352996
 20
14538.80221336334
  0
LWPOLYLINE
  5
53AF
102
{ACAD_REACTORS
330
2D9A
102
}
330
1F
100
AcDbEntity
  8
Hebel
 48
10.0
100
AcDbPolyline
 90
        4
 70
     0
 43
0.0
 10
741.3944883352996
 20
14336.30221336334
 10
691.360284470498
 20
14336.30221336334
 10
691.360284470498
 20
14136.30221336334
 10
741.3944883352996
 20
14136.30221336334
  0
LINE
  5
53C3
330
1F
100
AcDbEntity
  8
Steel
 48
10.0
100
AcDbLine
 10
760.3602844704981
 20
13788.80221336334
 30
0.0
 11
772.3602844704979
 21
13788.80221336334
 31
0.0
  0
LINE
  5
53C4
330
1F
100
AcDbEntity
  8
Concrete
 48
10.0
100
AcDbLine
 10
772.3602844704979
 20
13913.80221336334
 30
0.0
 11
1191.360284470498
 21
13913.80221336333
 31
0.0
  0
LINE
  5
53C5
330
1F
100
AcDbEntity
  8
linings
  6
HIDDEN
 48
50.0
100
AcDbLine
 10
772.3602844704981
 20
13918.80221336334
 30
0.0
 11
841.360284470498
 21
13918.80221336334
 31
0.0
  0
LWPOLYLINE
  5
53C6
102
{ACAD_REACTORS
330
2D9A
102
}
330
1F
100
AcDbEntity
  8
Hebel
 48
10.0
100
AcDbPolyline
 90
        4
 70
     0
 43
0.0
 10
772.3602844704979
 20
13933.80221336334
 10
841.360284470498
 20
13933.80221336334
 10
841.360284470498
 20
14133.80221336334
 10
791.3944883352996
 20
14133.80221336334
  0
LWPOLYLINE
  5
53C7
330
1F
100
AcDbEntity
  8
Hebel
 48
10.0
100
AcDbPolyline
 90
        4
 70
     0
 43
0.0
 10
760.3602844704981
 20
13933.80221336334
 10
691.360284470498
 20
13933.80221336334
 10
691.360284470498
 20
14133.80221336334
 10
741.3944883352996
 20
14133.80221336334
  0
LWPOLYLINE
  5
53C8
102
{ACAD_REACTORS
330
2EFE
102
}
330
1F
100
AcDbEntity
  8
linings
 48
10.0
100
AcDbPolyline
 90
        4
 70
     0
 43
0.0
 10
760.3602844704981
 20
13933.80221336334
 10
691.3944883352996
 20
13933.80221336334
 10
691.3944883352996
 20
13923.80221336334
 10
760.3602844704981
 20
13923.80221336334
  0
LWPOLYLINE
  5
53D2
330
1F
100
AcDbEntity
  8
Fastenings and sealants
 48
10.0
100
AcDbPolyline
 90
       10
 70
     0
 43
0.0
 10
841.3602844704982
 20
13813.80221336334
 10
866.3602844704982
 20
13813.80221336334
 42
-0.4142135623730951
 10
891.3602844704982
 20
13788.80221336334
 10
891.3602844704982
 20
13788.80221336334
 42
-0.4142135623730951
 10
866.3602844704982
 20
13763.80221336334
 10
666.3602844704984
 20
13763.80221336334
 42
-0.4142135623730951
 10
641.3602844704984
 20
13788.80221336334
 10
641.3602844704983
 20
13788.80221336334
 42
-0.4142135623730951
 10
666.3602844704983
 20
13813.80221336334
 10
691.3602844704983
 20
13813.80221336334
  0
LWPOLYLINE
  5
53D3
330
1F
100
AcDbEntity
  8
Fastenings and sealants
 48
10.0
100
AcDbPolyline
 90
        8
 70
     0
 43
0.0
 10
841.3602844704987
 20
13807.80221336334
 10
866.3602844704987
 20
13807.80221336334
 42
-0.4142135623730951
 10
885.3602844704983
 20
13788.80221336334
 42
-0.4142135623730951
 10
866.3602844704982
 20
13769.80221336334
 10
666.3602844704984
 20
13769.80221336334
 42
-0.4142135623730951
 10
647.3602844704984
 20
13788.80221336334
 42
-0.4142135623730951
 10
666.3602844704983
 20
13807.80221336334
 10
691.3602844704983
 20
13807.80221336334
  0
LINE
  5
53D4
330
1F
100
AcDbEntity
  8
Fastenings and sealants
 48
10.0
100
AcDbLine
 10
691.3602844704983
 20
13813.80221336334
 30
0.0
 11
691.3602844704983
 21
13807.80221336334
 31
0.0
  0
LINE
  5
53D5
330
1F
100
AcDbEntity
  8
Fastenings and sealants
 48
10.0
100
AcDbLine
 10
841.3602844704982
 20
13813.80221336334
 30
0.0
 11
841.3602844704987
 21
13807.80221336334
 31
0.0
  0
CIRCLE
  5
53D7
330
1F
100
AcDbEntity
  8
Steel
 48
10.0
100
AcDbCircle
 10
666.3602844704976
 20
13788.80221336334
 30
0.0
 40
6.0
  0
CIRCLE
  5
53D8
330
1F
100
AcDbEntity
  8
Steel
 48
10.0
100
AcDbCircle
 10
866.3602844704985
 20
13788.80221336334
 30
0.0
 40
6.0
  0
LINE
  5
53DC
330
1F
100
AcDbEntity
  8
Steel
 48
10.0
100
AcDbLine
 10
760.3602844704981
 20
13788.80221336334
 30
0.0
 11
760.3602844704981
 21
14641.30221336334
 31
0.0
  0
LINE
  5
53DD
330
1F
100
AcDbEntity
  8
Steel
 48
10.0
100
AcDbLine
 10
772.3602844704982
 20
13788.80221336334
 30
0.0
 11
772.3602844704981
 21
14641.27263971133
 31
0.0
  0
HATCH
  5
53F3
330
1F
100
AcDbEntity
  8
hatch
 48
10.0
100
AcDbHatch
 10
0.0
 20
0.0
 30
0.0
210
0.0
220
0.0
230
1.0
  2
AR-CONC
 70
     0
 71
     0
 91
        2
 92
        7
 72
     0
 73
     1
 93
        9
 10
791.3944883352996
 20
14641.30221336334
 10
772.3652134125014
 20
14641.30221336334
 10
772.3602844704981
 20
14641.27263971132
 10
772.3602844704982
 20
14063.80221336334
 10
777.3602844704982
 20
14063.80221336334
 10
777.3602844704982
 20
14003.80221336334
 10
772.3602844704982
 20
14003.80221336334
 10
772.3602844704981
 20
13933.80221336334
 10
791.3944883352996
 20
13933.80221336334
 97
        0
 92
        7
 72
     0
 73
     1
 93
        8
 10
760.360284470498
 20
14641.30221336334
 10
741.3944883352995
 20
14641.30221336334
 10
741.3944883352997
 20
13933.80221336334
 10
760.3602844704981
 20
13933.80221336334
 10
760.3602844704981
 20
14003.80221336334
 10
755.3602844704982
 20
14003.80221336334
 10
755.3602844704982
 20
14063.80221336334
 10
760.360284470498
 20
14063.80221336334
 97
        0
 75
     0
 76
     1
 52
0.0
 41
0.2
 77
     0
 78
    13
 53
50.0
 43
0.0
 44
0.0
 45
36.4369337992008
 46
-3.187817107780617
 79
     2
 49
3.81
 49
-41.91
 53
355.0
 43
0.0
 44
0.0
 45
-7.048565195133398
 46
38.211328576436
 79
     2
 49
3.048
 49
-33.528
 53
100.451
 43
3.0364
 44
-0.26565
 45
29.38850033319185
 46
35.02333756405838
 79
     2
 49
3.238
 49
-35.618
 53
46.1842
 43
0.0
 44
10.16
 45
54.21580817842599
 46
-8.40846558654543
 79
     2
 49
5.714999999999999
 49
-62.865
 53
96.6356
 43
4.51798
 44
9.4593
 45
47.48084689324743
 46
49.48511117800984
 79
     2
 49
4.857
 49
-53.427
 53
351.184
 43
0.0
 44
10.16
 45
47.48092116278678
 46
49.48502357211953
 79
     2
 49
4.572
 49
-50.292
 53
21.0
 43
5.08
 44
7.62
 45
30.32297596707666
 46
-20.4531037033525
 79
     2
 49
3.81
 49
-41.91
 53
326.0
 43
5.08
 44
7.62
 45
12.36040566952941
 46
36.83759322446385
 79
     2
 49
3.048
 49
-33.528
 53
71.45140000000001
 43
7.6069
 44
5.91558
 45
42.6832981540249
 46
16.38457154321149
 79
     2
 49
3.238
 49
-35.618
 53
37.5
 43
0.0
 44
0.0
 45
0.6177206501183635
 46
16.91100777463062
 79
     6
 49
0.0
 49
-33.1216
 49
0.0
 49
-34.036
 49
0.0
 49
-33.655
 53
7.499999999999999
 43
0.0
 44
0.0
 45
13.36393250206115
 46
20.0361149636239
 79
     6
 49
0.0
 49
-19.4056
 49
0.0
 49
-32.3596
 49
0.0
 49
-12.827
 53
327.5
 43
-11.3284
 44
0.0
 45
27.11811903337428
 46
-1.145748798534691
 79
     6
 49
0.0
 49
-12.7
 49
0.0
 49
-39.624
 49
0.0
 49
-52.578
 53
317.5
 43
-16.4084
 44
0.0
 45
29.62583627720361
 46
5.085298206666603
 79
     6
 49
0.0
 49
-16.51
 49
0.0
 49
-26.3144
 49
0.0
 49
-37.338
 47
1.653531151142851
 98
        2
 10
777.1959652099976
 20
14234.39671720003
 10
747.4192248576509
 20
14247.62498234553
1001
ACAD
1010
0.0
1020
0.0
1030
0.0
  0
LINE
  5
5911
330
1F
100
AcDbEntity
  8
linings
  6
HIDDEN
 48
100.0
100
AcDbLine
 10
539.2892166586322
 20
13808.80221336334
 30
0.0
 11
639.2892166586322
 21
13708.80221336334
 31
0.0
  0
LINE
  5
5912
330
1F
100
AcDbEntity
  8
linings
  6
HIDDEN
 48
100.0
100
AcDbLine
 10
341.3602844704983
 20
13808.80221336334
 30
0.0
 11
539.2892166586322
 21
13808.80221336334
 31
0.0
  0
LWPOLYLINE
  5
5913
330
1F
100
AcDbEntity
  8
linings
  6
HIDDEN
 48
100.0
100
AcDbPolyline
 90
        4
 70
     0
 43
0.0
 10
639.2892166586322
 20
13708.80221336334
 10
893.4313522823638
 20
13708.80221336334
 10
993.4313522823638
 20
13808.80221336334
 10
1191.360284470498
 20
13808.80221336334
  0
LINE
  5
5914
330
1F
100
AcDbEntity
  8
linings
  6
Continuous
 48
100.0
100
AcDbLine
 10
341.3602844704983
 20
13708.80221336334
 30
0.0
 11
497.8678604213235
 21
13708.80221336334
 31
0.0
  0
LINE
  5
5915
330
1F
100
AcDbEntity
  8
linings
  6
Continuous
 48
100.0
100
AcDbLine
 10
497.8678604213235
 20
13708.80221336334
 30
0.0
 11
597.8678604213235
 21
13608.80221336334
 31
0.0
  0
LWPOLYLINE
  5
5916
330
1F
100
AcDbEntity
  8
linings
  6
Continuous
 48
100.0
100
AcDbPolyline
 90
        4
 70
     0
 43
0.0
 10
597.8678604213235
 20
13608.80221336334
 10
934.8527085196733
 20
13608.80221336334
 10
1034.852708519673
 20
13708.80221336334
 10
1191.360284470499
 20
13708.80221336334
  0
HATCH
  5
5925
330
1F
100
AcDbEntity
  8
hatch
 48
10.0
100
AcDbHatch
 10
0.0
 20
0.0
 30
0.0
210
0.0
220
0.0
230
1.0
  2
GRAVEL
 70
     0
 71
     0
 91
        1
 92
        7
 72
     0
 73
     1
 93
       12
 10
1034.852708519675
 20
13708.80221336334
 10
1191.360284470499
 20
13708.80221336334
 10
1191.360284470499
 20
13808.80221336334
 10
993.4313522823648
 20
13808.80221336334
 10
893.431352282365
 20
13708.80221336334
 10
639.2892166586318
 20
13708.80221336334
 10
539.2892166586326
 20
13808.80221336334
 10
341.3602844704983
 20
13808.80221336334
 10
341.3602844704983
 20
13708.80221336334
 10
497.8678604213238
 20
13708.80221336334
 10
597.8678604213215
 20
13608.80221336334
 10
934.8527085196733
 20
13608.80221336334
 97
        0
 75
     0
 76
     1
 52
0.0
 41
2.0
 77
     0
 78
    42
 53
228.0128
 43
36.576
 44
50.8
 45
-406.4003453179202
 46
-457.2005617902515
 79
     2
 49
6.834419999999999
 49
-676.61
 53
184.9697
 43
32.004
 44
45.72
 45
609.6009861235825
 46
50.79964150774916
 79
     2
 49
11.7281
 49
-1161.08
 53
132.5104
 43
20.32
 44
44.70399999999999
 45
507.9996303666338
 46
-558.8005458492082
 79
     2
 49
8.269639999999998
 49
-818.6939999999999
 53
267.2737
 43
0.508
 44
32.004
 45
50.79977941656345
 46
1015.999673067328
 79
     2
 49
10.6801
 49
-1057.328
 53
292.8337
 43
0.0
 44
21.336
 45
-254.0007211100381
 46
609.6003466010222
 79
     2
 49
10.47268
 49
-1036.796
 53
357.2737
 43
4.064
 44
11.684
 45
-1015.999673067328
 46
50.7997794165635
 79
     2
 49
10.6801
 49
-1057.328
 53
37.6942
 43
14.732
 44
11.176
 45
-660.4004172247986
 46
-507.9995471396978
 79
     2
 49
14.12388
 49
-1398.262
 53
72.2553
 43
25.908
 44
19.812
 45
355.6007113093439
 46
1117.600324120728
 79
     2
 49
13.3344
 49
-1320.106
 53
121.4296
 43
29.972
 44
32.512
 45
-406.4001047052895
 46
660.3992231994538
 79
     2
 49
10.71626
 49
-1060.91
 53
175.2364
 43
24.384
 44
41.656
 45
558.7995610610891
 46
-50.79952325442311
 79
     2
 49
12.23426
 49
-599.478
 53
222.3974
 43
12.192
 44
42.67199999999999
 45
-609.6000183447942
 46
-558.7992730127393
 79
     2
 49
15.82156
 49
-1566.336
 53
138.8141
 43
50.8
 44
31.496
 45
-355.5997734844947
 46
304.7995311424801
 79
     2
 49
5.4001
 49
-534.6119999999999
 53
171.4692
 43
46.736
 44
35.052
 45
660.398991911828
 46
-101.600256000914
 79
     2
 49
10.27364
 49
-1017.092
 53
225.0
 43
36.576
 44
36.576
 45
-0.0000000000000107
 46
-50.79996537400394
 79
     2
 49
7.18418
 49
-64.65779999999999
 53
203.1986
 43
33.02
 44
42.67199999999999
 45
254.0008565118166
 46
101.6004454861253
 79
     2
 49
3.868819999999999
 49
-383.0119999999999
 53
291.8014
 43
29.464
 44
41.148
 45
-50.80003563789018
 46
152.4000981746373
 79
     2
 49
5.471319999999999
 49
-268.096
 53
30.9638
 43
31.496
 44
36.06800000000001
 45
152.3998390961645
 46
101.600079173211
 79
     2
 49
8.8864
 49
-287.326
 53
161.5651
 43
39.116
 44
40.64
 45
101.6000463636196
 46
-50.79992444930153
 79
     2
 49
6.42574
 49
-154.218
 53
16.3895
 43
0.0
 44
41.148
 45
508.0002802793869
 46
152.3996829993561
 79
     2
 49
9.00176
 49
-891.1760000000001
 53
70.3462
 43
8.636000000000001
 44
43.688
 45
-203.1994337735302
 46
-558.7992097708999
 79
     2
 49
7.55198
 49
-747.6439999999999
 53
293.1986
 43
39.116
 44
50.8
 45
-101.6004454861253
 46
254.0008565118167
 79
     2
 49
7.737599999999999
 49
-379.144
 53
343.6105
 43
42.16399999999999
 44
43.688
 45
-508.0002802793869
 46
152.3996829993562
 79
     2
 49
9.00176
 49
-891.1760000000001
 53
339.4440000000001
 43
0.0
 44
9.652000000000001
 45
-254.0003152851182
 46
101.5998767210027
 79
     2
 49
8.680699999999999
 49
-425.354
 53
294.7751
 43
8.128
 44
6.604
 45
-253.9994080725368
 46
558.7997405231334
 79
     2
 49
7.273439999999999
 49
-720.072
 53
66.8014
 43
39.624
 44
0.0
 45
101.6004454861253
 46
254.0008565118166
 79
     2
 49
7.737599999999999
 49
-379.144
 53
17.354
 43
42.67199999999999
 44
7.112
 45
-660.4000356371991
 46
-203.1996935121127
 79
     2
 49
8.51566
 49
-843.0479999999999
 53
69.444
 43
14.732
 44
0.0
 45
-101.5998767210029
 46
-254.0003152851181
 79
     2
 49
4.340359999999999
 49
-429.6959999999999
 53
101.3099
 43
36.576
 44
0.0
 45
-50.79974925774696
 46
203.1993492180524
 79
     2
 49
2.5903
 49
-256.44
 53
165.9638
 43
36.06800000000001
 44
2.54
 45
152.4001070939434
 46
-50.79991208247283
 79
     2
 49
10.47268
 49
-198.981
 53
186.009
 43
25.908
 44
5.08
 45
507.9992508885589
 46
50.79988137095717
 79
     2
 49
9.705339999999999
 49
-960.828
 53
303.6901
 43
31.496
 44
31.496
 45
-50.80001742614466
 46
101.5999019846368
 79
     2
 49
7.32648
 49
-175.8356
 53
353.1572
 43
35.56
 44
25.4
 45
863.6003571328684
 46
-101.6004550330968
 79
     2
 49
12.79114
 49
-1266.32
 53
60.94540000000001
 43
48.26
 44
23.876
 45
-203.1995273165818
 46
-355.5991522166825
 79
     2
 49
5.230159999999999
 49
-517.788
 53
90.0
 43
50.8
 44
28.448
 45
-50.8
 46
50.8
 79
     2
 49
3.048
 49
-47.75199999999999
 53
120.2564
 43
24.892
 44
6.604
 45
203.1995693367222
 46
-355.5998206495512
 79
     2
 49
7.057339999999999
 49
-698.678
 53
48.0128
 43
21.336
 44
12.7
 45
406.4003453179201
 46
457.2005617902515
 79
     2
 49
13.66886
 49
-669.776
 53
0.0
 43
30.48
 44
22.86
 45
50.8
 46
50.8
 79
     2
 49
13.208
 49
-37.592
 53
325.3048
 43
43.688
 44
22.86
 45
-507.9991198190738
 46
355.6000338096953
 79
     2
 49
8.032199999999999
 49
-795.186
 53
254.0546
 43
50.292
 44
18.288
 45
-50.80012959402949
 46
-203.2004840640726
 79
     2
 49
7.39658
 49
-362.434
 53
207.6459999999999
 43
48.26
 44
11.176
 45
-965.1996609804543
 46
-508.0003194944678
 79
     2
 49
12.0429
 49
-1192.25
 53
175.4261
 43
37.592
 44
5.587999999999999
 45
-660.4001520949501
 46
50.79975422438923
 79
     2
 49
12.74058
 49
-1261.316
 53
175.4261
 43
37.592
 44
5.587999999999999
 45
-660.4001520949501
 46
50.79975422438923
 79
     2
 49
12.74058
 49
-1261.316
 47
0.9947954559839352
 98
        1
 10
591.8248253702294
 20
13686.27413572167
1001
ACAD
1010
0.0
1020
0.0
1030
0.0
  0
HATCH
  5
592E
330
1F
100
AcDbEntity
  8
hatch
 48
10.0
100
AcDbHatch
 10
0.0
 20
0.0
 30
0.0
210
0.0
220
0.0
230
1.0
  2
EARTH
 70
     0
 71
     0
 91
        1
 92
        7
 72
     0
 73
     1
 93
        8
 10
497.8678604213242
 20
13708.80221336334
 10
341.3602844704983
 20
13708.80221336334
 10
341.3602844704983
 20
13508.80221336334
 10
1191.360284470499
 20
13508.80221336334
 10
1191.360284470499
 20
13708.80221336334
 10
1034.852708519673
 20
13708.80221336334
 10
934.8527085196723
 20
13608.80221336334
 10
597.8678604213239
 20
13608.80221336334
 97
        0
 75
     0
 76
     1
 52
45.0
 41
5.0
 77
     0
 78
     6
 53
45.0
 43
0.0
 44
0.0
 45
0.0000000000000036
 46
44.90128060534575
 79
     2
 49
31.75
 49
-31.75
 53
45.0
 43
-8.41899011350233
 44
8.418990113502331
 45
0.0000000000000036
 46
44.90128060534575
 79
     2
 49
31.75
 49
-31.75
 53
45.0
 43
-16.83798022700466
 44
16.83798022700466
 45
0.0000000000000036
 46
44.90128060534575
 79
     2
 49
31.75
 49
-31.75
 53
135.0
 43
-16.83798022700466
 44
22.45064030267289
 45
-44.90128060534575
 46
0.0000000000000036
 79
     2
 49
31.75
 49
-31.75
 53
135.0
 43
-8.41899011350233
 44
30.86963041617522
 45
-44.90128060534575
 46
0.0000000000000036
 79
     2
 49
31.75
 49
-31.75
 53
135.0
 43
0.0000000000000036
 44
39.28862052967755
 45
-44.90128060534575
 46
0.0000000000000036
 79
     2
 49
31.75
 49
-31.75
 47
0.9947954559839352
 98
        1
 10
507.2297789171943
 20
13617.63324927848
1001
ACAD
1010
0.0
1020
0.0
1030
0.0
  0
LINE
  5
5A04
330
1F
100
AcDbEntity
  8
Fastenings and sealants
  6
CENTER
100
AcDbLine
 10
766.360284470498
 20
13788.80221336334
 30
0.0
 11
766.360284470498
 21
13623.80221336334
 31
0.0
  0
LWPOLYLINE
  5
5A0D
330
1F
100
AcDbEntity
  8
Fastenings and sealants
  6
HIDDEN
 48
50.0
100
AcDbPolyline
 90
        7
 70
     0
 43
0.0
 10
760.3602844704981
 20
13913.80221336334
 10
758.360284470498
 20
13913.80221336334
 10
758.360284470498
 20
13788.14956633071
 10
758.3602844704982
 20
13788.80221336334
 10
758.3602844704982
 20
13786.80221336334
 10
774.3602844704981
 20
13786.80221336334
 10
774.3602844704997
 20
13913.80221336334
  0
VIEWPORT
  5
2DFC
330
2DFA
100
AcDbEntity
 67
     1
  8
0
100
AcDbViewport
 10
101.8116638660431
 20
145.3409149646759
 30
0.0
 40
441.1823485382563
 41
299.3737365081025
 68
     1
 69
     1
 12
101.8116638660431
 22
145.3409149646759
 13
0.0
 23
0.0
 14
10.0
 24
10.0
 15
10.0
 25
10.0
 16
0.0
 26
0.0
 36
1.0
 17
0.0
 27
0.0
 37
0.0
 42
50.0
 43
0.0
 44
0.0
 45
299.3737365081025
 50
0.0
 51
0.0
 72
   100
 90
    32800
  1

281
     0
 71
     1
 74
     0
110
0.0
120
0.0
130
0.0
111
1.0
121
0.0
131
0.0
112
0.0
122
1.0
132
0.0
 79
     0
146
0.0
170
     0
  0
LINE
  5
2DFE
330
2DFA
100
AcDbEntity
 67
     1
  8
Title block
100
AcDbLine
 10
6.951888915795279
 20
283.8168489464879
 30
0.0
 11
6.951888915795279
 21
6.838633292458325
 31
0.0
  0
LINE
  5
2DFF
330
2DFA
100
AcDbEntity
 67
     1
  8
Title block
100
AcDbLine
 10
6.951888915795279
 20
6.838633292458325
 30
0.0
 11
196.9518889157953
 21
6.838633292458325
 31
0.0
  0
LINE
  5
2E00
330
2DFA
100
AcDbEntity
 67
     1
  8
Title block
100
AcDbLine
 10
196.9518889157953
 20
6.838633292458325
 30
0.0
 11
196.9518889157953
 21
283.8168489464879
 31
0.0
  0
LINE
  5
2E01
330
2DFA
100
AcDbEntity
 67
     1
  8
Title block
100
AcDbLine
 10
196.9518889157953
 20
283.8168489464879
 30
0.0
 11
6.951888915795279
 21
283.8168489464879
 31
0.0
  0
LINE
  5
2E04
330
2DFA
100
AcDbEntity
 67
     1
  8
Title block
100
AcDbLine
 10
6.951888915795279
 20
40.14202438687596
 30
0.0
 11
196.9518889157953
 21
40.14202438687607
 31
0.0
  0
LINE
  5
2E06
330
2DFA
100
AcDbEntity
 67
     1
  8
Title block
100
AcDbLine
 10
65.50672904912862
 20
23.06234695750709
 30
0.0
 11
196.9518889157953
 21
23.0623469575072
 31
0.0
  0
LINE
  5
2E07
330
2DFA
100
AcDbEntity
 67
     1
  8
Title block
100
AcDbLine
 10
65.50672904912862
 20
14.02750736796224
 30
0.0
 11
196.9518889157955
 21
14.02750736796235
 31
0.0
  0
TEXT
  5
2E0C
330
2DFA
100
AcDbEntity
 67
     1
  8
0
100
AcDbText
 10
67.98460110383598
 20
17.43954555318214
 30
0.0
 40
2.5
  1
Date:
  7
Title block
100
AcDbText
  0
TEXT
  5
2E0D
330
2DFA
100
AcDbEntity
 67
     1
  8
Text
100
AcDbText
 10
77.07482544134723
 20
17.40376893457017
 30
0.0
 40
3.0
  1
September 2013
  7
Titles
100
AcDbText
  0
TEXT
  5
2E0E
330
2DFA
100
AcDbEntity
 67
     1
  8
0
100
AcDbText
 10
155.2466148486824
 20
17.50037912289372
 30
0.0
 40
2.5
  1
Detail No.
  7
Title block
100
AcDbText
  0
TEXT
  5
2E0F
330
2DFA
100
AcDbEntity
 67
     1
  8
0
100
AcDbText
 10
69.84837998376452
 20
35.68578694642611
 30
0.0
 40
2.5
  1
Title:
  7
Title block
100
AcDbText
  0
VIEWPORT
  5
2E10
330
2DFA
100
AcDbEntity
 67
     1
  8
Viewport
100
AcDbViewport
 10
103.1737828703247
 20
167.6148717074388
 30
0.0
 40
181.3063546741836
 41
241.65363411822
 68
     2
 69
     2
 12
772.1269609709718
 22
14092.34969804184
 13
0.0
 23
0.0
 14
10.0
 24
10.0
 15
10.0
 25
10.0
 16
0.0
 26
0.0
 36
1.0
 17
0.0
 27
0.0
 37
0.0
 42
50.0
 43
0.0
 44
0.0
 45
1208.2681705911
 50
0.0
 51
0.0
 72
   100
 90
    32864
  1

281
     0
 71
     1
 74
     0
110
0.0
120
0.0
130
0.0
111
1.0
121
0.0
131
0.0
112
0.0
122
1.0
132
0.0
 79
     0
146
0.0
170
     0
  0
TEXT
  5
2E11
330
2DFA
100
AcDbEntity
 67
     1
  8
Text
100
AcDbText
 10
78.44850118606382
 20
23.32466128934703
 30
0.0
 40
4.0
  1

  7
Titles
100
AcDbText
  0
TEXT
  5
2E12
330
2DFA
100
AcDbEntity
 67
     1
  8
Text
100
AcDbText
 10
95.0095470622449
 20
29.43947043003419
 30
0.0
 40
4.0
  1
Internal Wall - Slab Thickening 
  7
Titles
100
AcDbText
  0
TEXT
  5
2E13
330
2DFA
100
AcDbEntity
 67
     1
  8
Text
100
AcDbText
 10
171.9439657930801
 20
16.82940466791496
 30
0.0
 40
4.0
  1
BLK -2.1
  7
Titles
100
AcDbText
  0
TEXT
  5
2E15
330
2DFA
100
AcDbEntity
 67
     1
  8
0
100
AcDbText
 10
120.7702889355118
 20
17.50037912289372
 30
0.0
 40
2.5
  1
Scale. 
  7
Title block
100
AcDbText
  0
POINT
  5
2E16
330
2DFA
100
AcDbEntity
 67
     1
  8
Text
100
AcDbPoint
 10
110.238052678061
 20
23.06234695750713
 30
0.0
  0
POINT
  5
2E17
330
2DFA
100
AcDbEntity
 67
     1
  8
Text
100
AcDbPoint
 10
153.5949707969282
 20
23.06234695750716
 30
0.0
  0
LINE
  5
2E18
330
2DFA
100
AcDbEntity
 67
     1
  8
Title block
100
AcDbLine
 10
110.238052678061
 20
23.06234695750713
 30
0.0
 11
110.238052678061
 21
14.02750736796228
 31
0.0
  0
LINE
  5
2E19
330
2DFA
100
AcDbEntity
 67
     1
  8
Title block
100
AcDbLine
 10
153.5949707969282
 20
23.06234695750716
 30
0.0
 11
153.5949707969282
 21
14.02750736796232
 31
0.0
  0
MTEXT
  5
3080
102
{ACAD_XDICTIONARY
360
609E
102
}
330
2DFA
100
AcDbEntity
 67
     1
  8
Text
 48
10.0
100
AcDbMText
 10
23.81229165982654
 20
195.9357485207742
 30
0.0
 40
2.5
 41
46.01243475553359
 71
     1
 72
     5
  3
{\fTahoma|b0|i1|c0|p34;Internal linings plaster board or Supercoat\fTahoma|b1|i0|c0|p34;\U+2122\fTahoma|b0|i1|c0|p34; coating system\P\PSupercrete\fTahoma|b1|i0|c0|p34;\U+2122\fTahoma|b0|i1|c0|p34; block internal walls (150mm minimum thickness)\P\P\P
  1
Timber or MDF skirting & floor finish as specified by client  \P\PConcrete floor slab}
  7
Titles
 73
     1
 44
1.0
1001
ACAD
1000
ACAD_MTEXT_DEFINED_HEIGHT_BEGIN
1070
    46
1040
57.65636313162836
1000
ACAD_MTEXT_DEFINED_HEIGHT_END
  0
MTEXT
  5
3082
102
{ACAD_XDICTIONARY
360
60A0
102
}
330
2DFA
100
AcDbEntity
 67
     1
  8
Text
 48
10.0
100
AcDbMText
 10
148.3750387920219
 20
199.9052980081426
 30
0.0
 40
2.5
 41
43.1301741117831
 71
     1
 72
     5
  3
{\fTahoma|b0|i1|c0|p34;2-3mm of Supercoat\fScript MT Bold|b1|i0|c0|p66;\U+2122\fTahoma|b0|i1|c0|p34; Superbond Adhesive all horizontal & vertical joints\P\P\fISOCPEUR|b0|i1|c0|p34;%%C\fTahoma|b0|i1|c0|p34;12 reinforcing rod centered in \fISOCPEUR|b0|
  1
i1|c0|p34;%%C\fTahoma|b0|i1|c0|p34;50mm drilled grout filled core \P( 15MPa sand grout )\P\P\P\P10mm leveling bed of Supercoat\fTahoma|b1|i0|c0|p34;\U+2122\fTahoma|b0|i1|c0|p34; Superbase render  mortar over DPC slip layer}
  7
Titles
 73
     1
 44
1.0
1001
ACAD
1000
ACAD_MTEXT_DEFINED_HEIGHT_BEGIN
1070
    46
1040
30.29814418993014
1000
ACAD_MTEXT_DEFINED_HEIGHT_END
  0
MTEXT
  5
541D
330
2DFA
100
AcDbEntity
 67
     1
  8
Text
 48
10.0
100
AcDbMText
 10
16.95679782711302
 20
105.4420177526967
 30
0.0
 40
2.0
 41
35.72794412278893
 71
     1
 72
     5
  1
{\fISOCPEUR|b0|i1|c0|p34;\H1.25x;%%C\fTahoma|b0|i1|c0|p34;12 reinforcing rod epoxy grouted 150mm into concrete floor slab\H0.8x;  }
  7
Titles
 73
     1
 44
1.0
 90
        3
 63
   256
 45
1.5
441
  3935037
1001
ACAD
1000
ACAD_MTEXT_DEFINED_HEIGHT_BEGIN
1070
    46
1040
11.45368623336222
1000
ACAD_MTEXT_DEFINED_HEIGHT_END
  0
MTEXT
  5
541E
330
2DFA
100
AcDbEntity
 67
     1
  8
Text
 48
10.0
100
AcDbMText
 10
138.3803209591811
 20
96.28623617596131
 30
0.0
 40
2.5
 41
38.00469024937707
 71
     1
 72
     5
  1
{\fTahoma|b0|i1|c0|p34;2/D12 Longitudinal rods}
  7
Titles
 73
     1
 44
1.0
 90
        3
 63
   256
 45
1.5
441
  3934582
1001
ACAD
1000
ACAD_MTEXT_DEFINED_HEIGHT_BEGIN
1070
    46
1040
3.391759919541192
1000
ACAD_MTEXT_DEFINED_HEIGHT_END
  0
LEADER
  5
541F
330
2DFA
100
AcDbEntity
 67
     1
  8
Text
 48
10.0
100
AcDbLeader
  3
Ben 10
 72
     1
 76
     3
 10
84.77888633305092
 20
188.1094663057096
 30
0.0
 10
78.8920418755697
 20
192.4658076168562
 30
0.0
 10
69.8594294778477
 20
194.4970314770871
 30
0.0
1001
ACAD
1000
DSTYLE
1002
{
1070
    41
1040
3.0
1070
    40
1040
1.0
1070
    77
1070
     0
1002
}
  0
LEADER
  5
5420
330
2DFA
100
AcDbEntity
 67
     1
  8
Text
 48
10.0
100
AcDbLeader
  3
Ben 10
 72
     1
 76
     3
 10
93.15070750964583
 20
170.3601937232327
 30
0.0
 10
76.90701238711267
 20
177.6239417648153
 30
0.0
 10
67.2370725429198
 20
177.7877578314504
 30
0.0
1001
ACAD
1000
DSTYLE
1002
{
1070
    41
1040
3.0
1070
    40
1040
1.0
1070
    77
1070
     0
1002
}
  0
LEADER
  5
5421
330
2DFA
100
AcDbEntity
 67
     1
  8
Text
 48
10.0
100
AcDbLeader
  3
Ben 10
 72
     1
 76
     3
 10
81.49666511238683
 20
145.9705921059212
 30
0.0
 10
75.64176013257929
 20
151.1432316686799
 30
0.0
 10
65.10408328345306
 20
151.9033612812042
 30
0.0
1001
ACAD
1000
DSTYLE
1002
{
1070
    41
1040
3.0
1070
    40
1040
1.0
1070
    77
1070
     0
1002
}
  0
LEADER
  5
5422
330
2DFA
100
AcDbEntity
 67
     1
  8
Text
 48
10.0
100
AcDbLeader
  3
Ben 10
 72
     1
 76
     3
 10
70.43540455520008
 20
135.3902782301541
 30
0.0
 10
71.2963261864561
 20
150.1659214160874
 30
0.0
 10
65.10408328345306
 20
151.9033612812042
 30
0.0
1001
ACAD
1000
DSTYLE
1002
{
1070
    41
1040
3.0
1070
    40
1040
1.0
1070
    77
1070
     0
1002
}
  0
LEADER
  5
5423
330
2DFA
100
AcDbEntity
 67
     1
  8
Text
 48
10.0
100
AcDbLeader
  3
Ben 10
 72
     1
 76
     3
 10
63.17452933806773
 20
131.9053747717395
 30
0.0
 10
58.80359956867437
 20
138.9401769495224
 30
0.0
 10
53.90015700771278
 20
139.355902089499
 30
0.0
1001
ACAD
1000
DSTYLE
1002
{
1070
    41
1040
3.0
1070
    40
1040
1.0
1070
    77
1070
     0
1002
}
  0
LEADER
  5
5426
330
2DFA
100
AcDbEntity
 67
     1
  8
Text
 48
10.0
100
AcDbLeader
  3
Ben 10
 72
     1
 76
     3
 10
99.25120057968667
 20
121.6302768822628
 30
0.0
 10
59.05537336229691
 20
99.30758731220272
 30
0.0
 10
52.32310129304256
 20
99.19484032251592
 30
0.0
1001
ACAD
1000
DSTYLE
1002
{
1070
    41
1040
3.0
1070
    40
1040
1.0
1070
    77
1070
     0
1002
}
  0
LEADER
  5
5427
330
2DFA
100
AcDbEntity
 67
     1
  8
Text
 48
10.0
100
AcDbLeader
  3
Ben 10
 72
     1
 76
     3
 10
82.02044757022941
 20
101.9053747717388
 30
0.0
 10
67.63757218413779
 20
89.17817693016601
 30
0.0
 10
53.45213359335935
 20
83.48804084116
 30
0.0
1001
ACAD
1000
DSTYLE
1002
{
1070
    41
1040
3.0
1070
    40
1040
1.0
1070
    77
1070
     0
1002
}
  0
LEADER
  5
5428
330
2DFA
100
AcDbEntity
 67
     1
  8
Text
 48
10.0
100
AcDbLeader
  3
Ben 10
 72
     1
 76
     3
 10
122.0204475702301
 20
105.7053747717391
 30
0.0
 10
126.0773931807303
 20
97.92183105042703
 30
0.0
 10
136.7300794990042
 20
94.87268934776203
 30
0.0
1001
ACAD
1000
DSTYLE
1002
{
1070
    41
1040
3.0
1070
    40
1040
1.0
1070
    77
1070
     0
1002
}
  0
LEADER
  5
5429
330
2DFA
100
AcDbEntity
 67
     1
  8
Text
 48
10.0
100
AcDbLeader
  3
Ben 10
 72
     1
 76
     3
 10
83.22044757022991
 20
106.9053747717391
 30
0.0
 10
110.6271735596494
 20
99.45301251467583
 30
0.0
 10
136.7300794990042
 20
94.87268934776205
 30
0.0
1001
ACAD
1000
DSTYLE
1002
{
1070
    41
1040
3.0
1070
    40
1040
1.0
1070
    77
1070
     0
1002
}
  0
LEADER
  5
59FE
330
2DFA
100
AcDbEntity
 67
     1
  8
Text
 48
10.0
100
AcDbLeader
  3
Ben 10
 72
     1
 76
     3
 10
113.1989653272023
 20
176.5002051304752
 30
0.0
 10
129.9509257516279
 20
189.3928626435955
 30
0.0
 10
147.3448506563215
 20
193.6698700016671
 30
0.0
1001
ACAD
1000
DSTYLE
1002
{
1070
    41
1040
3.0
1070
    40
1040
1.0
1070
    77
1070
     0
1002
}
  0
MTEXT
  5
5A7E
102
{ACAD_XDICTIONARY
360
604E
102
}
330
2DFA
100
AcDbEntity
 67
     1
  8
Text
 48
10.0
100
AcDbMText
 10
100.3395774909361
 20
99.20000000578822
 30
0.0
 40
5.0
 41
3.416251490449667
 71
     1
 72
     5
  1
{\fISOCPEUR|b0|i0|c0|p34;\U+2104}
  7
Titles
 73
     1
 44
1.0
 90
        3
 63
   256
 45
1.199999999999999
441
  5441080
1001
ACAD
1000
ACAD_MTEXT_DEFINED_HEIGHT_BEGIN
1070
    46
1040
5.343788215235468
1000
ACAD_MTEXT_DEFINED_HEIGHT_END
  0
MTEXT
  5
5D20
330
2DFA
100
AcDbEntity
 67
     1
  8
Text
 48
10.0
100
AcDbMText
 10
16.53256075818588
 20
85.08849810374758
 30
0.0
 40
2.0
 41
38.50708999482345
 71
     1
 72
     5
  1
{\fTahoma|b0|i1|c0|p34;\H1.25x;R 10 Stirrups @ 600 crs\fTahoma|b0|i0|c0|p34;\H0.8x;  }
  7
Titles
 73
     1
 44
1.0
 90
        3
 63
   256
 45
1.5
441
  3934587
1001
ACAD
1000
ACAD_MTEXT_DEFINED_HEIGHT_BEGIN
1070
    46
1040
3.383829909490634
1000
ACAD_MTEXT_DEFINED_HEIGHT_END
  0
LINE
  5
5DF4
330
2DFA
100
AcDbEntity
 67
     1
  8
Text
 48
10.0
100
AcDbLine
 10
102.02044757023
 20
90.90537477173901
 30
0.0
 11
102.02044757023
 21
78.99956793651563
 31
0.0
  0
LINE
  5
5DF5
330
2DFA
100
AcDbEntity
 67
     1
  8
Text
 48
10.0
100
AcDbLine
 10
127.02044757023
 20
90.90537477173901
 30
0.0
 11
127.02044757023
 21
78.99956793651563
 31
0.0
  0
LINE
  5
5DF6
330
2DFA
100
AcDbEntity
 67
     1
  8
Text
 48
10.0
100
AcDbLine
 10
102.02044757023
 20
79.99956793651563
 30
0.0
 11
127.02044757023
 21
79.99956793651563
 31
0.0
  0
INSERT
  5
5DF7
330
2DFA
100
AcDbEntity
 67
     1
  8
Text
 48
10.0
100
AcDbBlockReference
  2
_ArchTick
 10
102.02044757023
 20
79.99956793651563
 30
0.0
 41
3.0
 42
3.0
 43
3.0
 50
180.0
  0
INSERT
  5
5DF8
330
2DFA
100
AcDbEntity
 67
     1
  8
Text
 48
10.0
100
AcDbBlockReference
  2
_ArchTick
 10
127.02044757023
 20
79.99956793651563
 30
0.0
 41
3.0
 42
3.0
 43
3.0
  0
MTEXT
  5
5DF9
330
2DFA
100
AcDbEntity
 67
     1
  8
Text
 48
10.0
100
AcDbMText
 10
114.4334736500174
 20
83.2058765895403
 30
0.0
 40
2.5
 41
5.392398078844053
 71
     5
 72
     1
  1
{\fTahoma|b0|i1|c0|p34;225}
  7
ben 1
 73
     1
 44
1.0
 90
        3
 63
   256
 45
1.5
441
  9049645
1001
ACAD
1000
ACAD_MTEXT_DEFINED_HEIGHT_BEGIN
1070
    46
1040
2.434118732880733
1000
ACAD_MTEXT_DEFINED_HEIGHT_END
  0
LINE
  5
5E54
330
2DFA
100
AcDbEntity
 67
     1
  8
Text
 48
10.0
100
AcDbLine
 10
77.02044757023005
 20
90.90537477173901
 30
0.0
 11
77.02044757023005
 21
78.99956793651563
 31
0.0
  0
LINE
  5
5E55
330
2DFA
100
AcDbEntity
 67
     1
  8
Text
 48
10.0
100
AcDbLine
 10
102.02044757023
 20
90.90537477173901
 30
0.0
 11
102.02044757023
 21
78.99956793651563
 31
0.0
  0
LINE
  5
5E56
330
2DFA
100
AcDbEntity
 67
     1
  8
Text
 48
10.0
100
AcDbLine
 10
77.02044757023005
 20
79.99956793651563
 30
0.0
 11
102.02044757023
 21
79.99956793651563
 31
0.0
  0
INSERT
  5
5E57
330
2DFA
100
AcDbEntity
 67
     1
  8
Text
 48
10.0
100
AcDbBlockReference
  2
_ArchTick
 10
77.02044757023005
 20
79.99956793651563
 30
0.0
 41
3.0
 42
3.0
 43
3.0
 50
180.0
  0
INSERT
  5
5E58
330
2DFA
100
AcDbEntity
 67
     1
  8
Text
 48
10.0
100
AcDbBlockReference
  2
_ArchTick
 10
102.02044757023
 20
79.99956793651563
 30
0.0
 41
3.0
 42
3.0
 43
3.0
  0
MTEXT
  5
5E59
330
2DFA
100
AcDbEntity
 67
     1
  8
Text
 48
10.0
100
AcDbMText
 10
89.43347365001745
 20
83.2058765895403
 30
0.0
 40
2.5
 41
5.392395932320596
 71
     5
 72
     1
  1
{\fTahoma|b0|i1|c0|p34;225}
  7
ben 1
 73
     1
 44
1.0
 90
        3
 63
   256
 45
1.5
441
  3932987
1001
ACAD
1000
ACAD_MTEXT_DEFINED_HEIGHT_BEGIN
1070
    46
1040
2.434117338493024
1000
ACAD_MTEXT_DEFINED_HEIGHT_END
  0
TEXT
  5
603A
330
2DFA
100
AcDbEntity
 67
     1
  8
Text
100
AcDbText
 10
133.7628749208976
 20
16.82940466791496
 30
0.0
 40
3.5
  1
1 : 5
  7
Titles
100
AcDbText
  0
LINE
  5
6160
330
2DFA
100
AcDbEntity
 67
     1
  8
Title block
100
AcDbLine
 10
65.50672904912862
 20
40.15124129245832
 30
0.0
 11
65.50672904912862
 21
6.847850198040582
 31
0.0
  0
TEXT
  5
6161
330
2DFA
100
AcDbEntity
 67
     1
  8
0
100
AcDbText
 10
82.40744167185335
 20
9.216044980522383
 30
0.0
 40
1.9
  1
This drawing must be read in conjunction with the Supercrete Block Design Guide
  7
Title block
100
AcDbText
  0
MTEXT
  5
6164
102
{ACAD_XDICTIONARY
360
6165
102
}
330
2DFA
100
AcDbEntity
 67
     1
  8
Text
100
AcDbMText
 10
9.054863730242367
 20
23.4439092043514
 30
0.0
 40
3.0
 41
55.49050343911358
 71
     1
 72
     5
  1
\pi1.1419;BLOCK CONSTRUCTION
  7
Titles
 73
     1
 44
1.0
1001
ACAD
1000
ACAD_MTEXT_COLUMN_INFO_BEGIN
1070
    75
1070
     2
1070
    79
1070
     0
1070
    76
1070
     1
1070
    78
1070
     0
1070
    48
1040
55.49050343911358
1070
    49
1040
12.5
1070
    50
1070
     1
1040
0.0
1000
ACAD_MTEXT_COLUMN_INFO_END
  0
IMAGE
  5
6254
330
2DFA
100
AcDbEntity
 67
     1
  8
Title block
 48
10.0
 92
      140
310
8C00000001000000840000000600000005000000FD0FCBF7BBCE1B4071E1AD65F0F23A400000000000000000FE0FCBF7BBCE1B40EF6EE8DA2D1244400000000000000000337CAD3F6E605040EF6EE8DA2D1244400000000000000000337CAD3F6E60504071E1AD65F0F23A400000000000000000FD0FCBF7BBCE1B4071E1AD
310
65F0F23A400000000000000000
100
AcDbRasterImage
 90
        0
 10
6.951888915795277
 20
26.94898066992886
 30
0.0
 11
0.0428345575225555
 21
0.0
 31
0.0
 12
0.0
 22
0.0428345575225555
 32
0.0
 13
1367.0
 23
308.0
340
6252
 70
     7
280
     0
281
    50
282
    50
283
     0
360
6255
 71
     1
 91
        2
 14
-0.5
 24
-0.5
 14
1366.5
 24
307.5
  0
DIMENSION
  5
62B2
330
2DFA
100
AcDbEntity
 67
     1
  8
Text
 48
10.0
100
AcDbDimension
  2
*D1
 10
133.1970973497853
 20
135.905374771739
 30
0.0
 11
129.4061862237498
 21
155.905374771739
 31
0.0
 70
    32
  1
{\fTahoma|b0|i1|c0|p34;Varies Determine from bottom\P course of external wall }
 71
     5
 42
39.99999999999997
  3
Ben 10
100
AcDbAlignedDimension
 13
117.02044757023
 23
175.905374771739
 33
0.0
 14
117.0272883431903
 24
135.905374771739
 34
0.0
 50
90.0
100
AcDbRotatedDimension
1001
ACAD
1000
DSTYLE
1002
{
1070
    40
1040
1.0
1002
}
  0
MTEXT
  5
6403
102
{ACAD_XDICTIONARY
360
6404
102
}
330
2DFA
100
AcDbEntity
 67
     1
  8
Text
100
AcDbMText
 10
110.4064441071226
 20
47.35899178136915
 30
0.0
 40
2.5
 41
80.96515538281812
 71
     1
 72
     5
  1
{\fTahoma|b1|i0|c0|p34;\C7;Copyright \U+00A9 Superbuild International Ltd 2013}
  7
ROMANS
 73
     1
 44
1.0
 90
        3
 63
   256
 45
1.5
441
        0
1001
ACAD
1000
ACAD_MTEXT_DEFINED_HEIGHT_BEGIN
1070
    46
1040
3.019389854573114
1000
ACAD_MTEXT_DEFINED_HEIGHT_END
  0
MULTILEADER
  5
64C5
330
2DFA
100
AcDbEntity
 67
     1
  8
Text
 48
10.0
 92
      668
310
9C020000150000000C00000016000000070000C30C00000033000000000000000C00000013000000993A00000C00000033000000000000000C00000010000000050000000C00000016000000070000C30C00000012000000FF7F00000C00000013000000010000000C00000014000000010000005400000007000000030000
310
00C7E10D36183B5C401410A320FC9760400000000000000000E090FFB4BD985B40CC867F17ACCD60400000000000000000C361DA9724555C408F7DF6E836B5604000000000000000000C00000013000000891300005C010000060000000E000000C521F4661E485C40D2C6CC8499A660400000000000000000E4173501CB97
310
5D403258C8ECE845604000000000000000001CEA4BD596EF5E40EF712A38CCAF5F400000000000000000B608CCF8D9935F4066C4709DD55A5F400000000000000000F25070C4A9166040BDB28EC041295F4000000000000000006A5B1FDDDE5B60400439E99414295F4000000000000000004AA8A19094976040A9039E5A51
310
675F4000000000000000008366D502A0CA60404A4CCE6556E05F4000000000000000002008AEB224F86040E79E947F66416040000000000000000075DDDD216E4F614040460AE888FE6040000000000000000024057D0C9D7F614016D1BFC0B0586140000000000000000024F8508B19B76140DD6865DA12A4614000000000
310
0000000072B0FDB318F96140B4BB7193CFD7614000000000000000000928279CCF486240BC775B4A07EB614000000000000000000C00000013000000112700000C00000016000000070000C30C00000012000000FF7F00000C00000017000000000000000C000000130000009A3A00000C00000016000000000000C00C0000
310
0012000000FF7F00000C00000017000000FFFFFFFF0C0000003300000000000000
100
AcDbMLeader
300
CONTEXT_DATA{
 40
1.0
 10
146.2753430142186
 20
143.3446399485091
 30
0.0
 41
2.0
140
3.0
145
1.0
174
     1
175
     6
176
     0
177
     0
290
     1
304

 11
0.0
 21
0.0
 31
1.0
340
1AE9
 12
147.2753430142186
 22
144.3446399485091
 32
0.0
 13
1.0
 23
0.0
 33
0.0
 42
0.0
 43
0.0
 44
0.0
 45
1.0
170
     1
 90
-1023410169
171
     1
172
     5
 91
-1073741824
141
0.0
 92
        0
291
     0
292
     0
173
     0
293
     0
142
0.0
143
0.0
294
     0
295
     0
296
     0
110
110.0978078620999
120
132.7973157502058
130
0.0
111
1.0
121
0.0
131
0.0
112
0.0
122
1.0
132
0.0
297
     0
302
LEADER{
290
     1
291
     1
 10
145.9153430142186
 20
143.3446399485091
 30
0.0
 11
1.0
 21
0.0
 31
0.0
 90
        0
 40
0.36
304
LEADER_LINE{
 10
110.3865787978898
 20
134.4272572985413
 30
0.0
 10
131.7038360614056
 20
124.9286774081778
 30
0.0
 91
        0
305
}
303
}
301
}
340
5CBD
 90
   279552
170
     2
 91
-1023410169
341
14
171
    -2
290
     1
291
     1
 41
0.36
 42
3.0
172
     2
343
1AE9
173
     1
 95
        6
174
     1
175
     0
 92
-1023410169
292
     0
 93
-1056964608
 10
1.0
 20
1.0
 30
1.0
 43
0.0
176
     0
293
     0
294
     0
178
     0
179
     1
 45
1.0
1001
ACAD_MLEADERVER
1070
     2
  0
MULTILEADER
  5
64C7
330
2DFA
100
AcDbEntity
 67
     1
  8
Text
 48
10.0
 92
      668
310
9C020000150000000C00000016000000070000C30C00000033000000000000000C00000013000000993A00000C00000033000000000000000C00000010000000050000000C00000016000000070000C30C00000012000000FF7F00000C00000013000000010000000C00000014000000010000005400000007000000030000
310
00859D4EF134325A40EFADC36680BE65400000000000000000700DF9F8CC79594008974CEBA7DD6540000000000000000071561F78723C5A405B5563DB16DE654000000000000000000C00000013000000891300005C010000060000000E000000FBF9B6B453375A40A58113A14BCE65400000000000000000E42AA8AC60AF
310
5B40598415DFF4996540000000000000000089097F0203255D40DD7586BB186C65400000000000000000F49B204BE8D55D40BE77FD59C46F65400000000000000000DDB92C6D8A7B5E408B9C09A08991654000000000000000008A61A5761A165F40ED2CD5FDA2CE65400000000000000000B65C056866A95F40225D8E1275
310
18664000000000000000001435EBFDB11C604042F4B05BE25F66400000000000000000542451760465604064B9B856CD95664000000000000000007EA92272A5AF604033C4F6F918AB6640000000000000000060CF981518FE604086AC43A26E97664000000000000000008ED1E8981AA66140C45F46947C30664000000000
310
0000000009B7121308FF6140FD752BC88C016640000000000000000090E51D6FD15A6240789172BFDDED654000000000000000000C00000013000000112700000C00000016000000070000C30C00000012000000FF7F00000C00000017000000000000000C000000130000009A3A00000C00000016000000000000C00C0000
310
0012000000FF7F00000C00000017000000FFFFFFFF0C0000003300000000000000
100
AcDbMLeader
300
CONTEXT_DATA{
 40
1.0
 10
146.838065679924
 20
175.4333188283597
 30
0.0
 41
2.0
140
3.0
145
1.0
174
     1
175
     6
176
     0
177
     0
290
     1
304

 11
0.0
 21
0.0
 31
1.0
340
1AE9
 12
147.838065679924
 22
176.4333188283597
 32
0.0
 13
1.0
 23
0.0
 33
0.0
 42
0.0
 43
0.0
 44
0.0
 45
1.0
170
     1
 90
-1023410169
171
     1
172
     5
 91
-1073741824
141
0.0
 92
        0
291
     0
292
     0
173
     0
293
     0
142
0.0
143
0.0
294
     0
295
     0
296
     0
110
101.9031355316308
120
174.9267479415796
130
0.0
111
1.0
121
0.0
131
0.0
112
0.0
122
1.0
132
0.0
297
     0
302
LEADER{
290
     1
291
     1
 10
146.478065679924
 20
175.4333188283597
 30
0.0
 11
1.0
 21
0.0
 31
0.0
 90
        0
 40
0.36
304
LEADER_LINE{
 10
101.9031355316308
 20
174.9267479415796
 30
0.0
 10
120.6541774455283
 20
171.8873226208991
 30
0.0
 10
133.3238007490615
 20
181.343311756685
 30
0.0
 91
        0
305
}
303
}
301
}
340
5CBD
 90
   279552
170
     2
 91
-1023410169
341
14
171
    -2
290
     1
291
     1
 41
0.36
 42
3.0
172
     2
343
1AE9
173
     1
 95
        6
174
     1
175
     0
 92
-1023410169
292
     0
 93
-1056964608
 10
1.0
 20
1.0
 30
1.0
 43
0.0
176
     0
293
     0
294
     0
178
     0
179
     1
 45
1.0
1001
ACAD_MLEADERVER
1070
     2
  0
ENDSEC
  0
SECTION
  2
OBJECTS
  0
DICTIONARY
  5
C
330
0
100
AcDbDictionary
281
     1
  3
ACAD_2007HEADERVARS_RT
350
66B6
  3
ACAD_CIP_PREVIOUS_PRODUCT_INFO
350
606D
  3
ACAD_COLOR
350
1AA1
  3
ACAD_DETAILVIEWSTYLE
350
6060
  3
ACAD_GROUP
350
D
  3
ACAD_IMAGE_DICT
350
5CD0
  3
ACAD_IMAGE_VARS
350
BE
  3
ACAD_LAYOUT
350
1A
  3
ACAD_MATERIAL
350
1AA0
  3
ACAD_MLEADERSTYLE
350
5CBC
  3
ACAD_MLINESTYLE
350
17
  3
ACAD_PLOTSETTINGS
350
19
  3
ACAD_PLOTSTYLENAME
350
E
  3
ACAD_SCALELIST
350
5CAA
  3
ACAD_SECTIONVIEWSTYLE
350
605E
  3
ACAD_TABLESTYLE
350
1AA2
  3
ACAD_VISUALSTYLE
350
5C99
  3
AcadDim
350
2814
  3
ACDB_RECOMPOSE_DATA
350
66B5
  3
AcDbVariableDictionary
350
C2
  3
AcDsDecomposeData
350
66BE
  3
AEC_CLASSIFICATION_SYSTEM_DEFS
350
3B16
  3
AEC_PROPERTY_SET_DEFS
350
3B17
  3
ASE_INDEX_DICTIONARY
350
6259
  0
DICTIONARY
  5
5D5C
330
8
100
AcDbDictionary
280
     1
281
     1
  0
DICTIONARY
  5
105
330
2
100
AcDbDictionary
280
     1
281
     1
  3
ACAD_LAYERFILTERS
360
5BF2
  3
ACAD_LAYERSTATES
360
2B2
  3
ACLYDICTIONARY
360
5BF1
  0
DICTIONARY
  5
5CD7
330
10
100
AcDbDictionary
280
     1
281
     1
  3
ADSK_XREC_LAYER_RECONCILED
360
5CD8
  0
DICTIONARY
  5
5CD9
330
5E
100
AcDbDictionary
280
     1
281
     1
  3
ADSK_XREC_LAYER_RECONCILED
360
5CDA
  0
DICTIONARY
  5
5CDB
330
5F
100
AcDbDictionary
280
     1
281
     1
  3
ADSK_XREC_LAYER_RECONCILED
360
5CDC
  0
DICTIONARY
  5
5CDD
330
60
100
AcDbDictionary
280
     1
281
     1
  3
ADSK_XREC_LAYER_RECONCILED
360
5CDE
  0
DICTIONARY
  5
5CDF
330
62
100
AcDbDictionary
280
     1
281
     1
  3
ADSK_XREC_LAYER_RECONCILED
360
5CE0
  0
DICTIONARY
  5
5CE1
330
65
100
AcDbDictionary
280
     1
281
     1
  3
ADSK_XREC_LAYER_RECONCILED
360
5CE2
  0
DICTIONARY
  5
5CE3
330
F0
100
AcDbDictionary
280
     1
281
     1
  3
ADSK_XREC_LAYER_RECONCILED
360
5CE4
  0
DICTIONARY
  5
5CE5
330
636
100
AcDbDictionary
280
     1
281
     1
  3
ADSK_XREC_LAYER_RECONCILED
360
5CE6
  0
DICTIONARY
  5
5CE7
330
1AE4
100
AcDbDictionary
280
     1
281
     1
  3
ADSK_XREC_LAYER_RECONCILED
360
5CE8
  0
DICTIONARY
  5
5CE9
330
1AE5
100
AcDbDictionary
280
     1
281
     1
  3
ADSK_XREC_LAYER_RECONCILED
360
5CEA
  0
DICTIONARY
  5
5CEB
330
1AE6
100
AcDbDictionary
280
     1
281
     1
  3
ADSK_XREC_LAYER_RECONCILED
360
5CEC
  0
DICTIONARY
  5
C0
330
1F
100
AcDbDictionary
280
     1
281
     1
  3
ACAD_SORTENTS
360
C1
  0
DICTIONARY
  5
5D21
330
2DFA
100
AcDbDictionary
280
     1
281
     1
  3
ACAD_SORTENTS
360
5D22
  0
DICTIONARY
  5
609E
330
3080
100
AcDbDictionary
280
     1
281
     1
  3
ACAD_MTEXT_2008_RT
360
66C2
  0
DICTIONARY
  5
60A0
330
3082
100
AcDbDictionary
280
     1
281
     1
  3
ACAD_MTEXT_2008_RT
360
66C3
  0
DICTIONARY
  5
604E
330
5A7E
100
AcDbDictionary
280
     1
281
     1
  3
ACAD_MTEXT_2008_RT
360
66C4
  0
DICTIONARY
  5
6165
330
6164
100
AcDbDictionary
280
     1
281
     1
  3
ACAD_MTEXT_2008_RT
360
66B4
  0
IMAGEDEF_REACTOR
  5
6255
330
6254
100
AcDbRasterImageDefReactor
 90
        2
330
6254
  0
DICTIONARY
  5
6404
330
6403
100
AcDbDictionary
280
     1
281
     1
  3
ACAD_MTEXT_2008_RT
360
66FC
  0
DICTIONARY
  5
66B6
102
{ACAD_REACTORS
330
C
102
}
330
C
100
AcDbDictionary
281
     1
  3
DIMFXL
350
66B7
  3
DIMJOGANG
350
66B8
  0
XRECORD
  5
606D
102
{ACAD_REACTORS
330
C
102
}
330
C
100
AcDbXrecord
280
     1
300
ACD
300
2013
300
ACD_F_S
  0
DICTIONARY
  5
1AA1
102
{ACAD_REACTORS
330
C
102
}
330
C
100
AcDbDictionary
281
     1
  0
DICTIONARY
  5
6060
102
{ACAD_REACTORS
330
C
102
}
330
C
100
AcDbDictionary
281
     1
  3
Metric50
350
6061
  0
DICTIONARY
  5
D
102
{ACAD_REACTORS
330
C
102
}
330
C
100
AcDbDictionary
281
     1
  0
DICTIONARY
  5
5CD0
102
{ACAD_REACTORS
330
C
102
}
330
C
100
AcDbDictionary
281
     1
  3
hebel Hi Res
350
6251
  3
Supercrete Hi Res
350
6252
  0
RASTERVARIABLES
  5
BE
102
{ACAD_REACTORS
330
C
102
}
330
C
100
AcDbRasterVariables
 90
        0
 70
     1
 71
     1
 72
     1
  0
DICTIONARY
  5
1A
102
{ACAD_REACTORS
330
C
102
}
330
C
100
AcDbDictionary
281
     1
  3
BLK-2.1
350
2E1B
  3
Model
350
22
  0
DICTIONARY
  5
1AA0
102
{ACAD_REACTORS
330
C
102
}
330
C
100
AcDbDictionary
281
     1
  3
ByBlock
350
5C89
  3
ByLayer
350
5C81
  3
Global
350
5C91
  0
DICTIONARY
  5
5CBC
102
{ACAD_REACTORS
330
C
102
}
330
C
100
AcDbDictionary
281
     1
  3
Standard
350
5CBD
  0
DICTIONARY
  5
17
102
{ACAD_REACTORS
330
C
102
}
330
C
100
AcDbDictionary
281
     1
  3
Standard
350
18
  0
DICTIONARY
  5
19
102
{ACAD_REACTORS
330
C
102
}
330
C
100
AcDbDictionary
281
     1
  0
ACDBDICTIONARYWDFLT
  5
E
102
{ACAD_REACTORS
330
C
102
}
330
C
100
AcDbDictionary
281
     1
  3
Normal
350
F
100
AcDbDictionaryWithDefault
340
F
  0
DICTIONARY
  5
5CAA
102
{ACAD_REACTORS
330
C
102
}
330
C
100
AcDbDictionary
281
     1
  3
A0
350
5CAB
  3
A1
350
5CAC
  3
A2
350
5CAD
  3
A3
350
5CAE
  3
A4
350
5CAF
  3
A5
350
5CB0
  3
A6
350
5CB1
  3
A7
350
5CB2
  3
A8
350
5CB3
  3
A9
350
5CB4
  3
B0
350
5CB5
  3
B1
350
5CB6
  3
B2
350
5CB7
  3
B3
350
5CB8
  3
B4
350
5CB9
  3
B5
350
5CBA
  3
B6
350
5CBB
  0
DICTIONARY
  5
605E
102
{ACAD_REACTORS
330
C
102
}
330
C
100
AcDbDictionary
281
     1
  3
Metric50
350
605F
  0
DICTIONARY
  5
1AA2
102
{ACAD_REACTORS
330
C
102
}
330
C
100
AcDbDictionary
281
     1
  3
Standard
350
1AA3
  0
DICTIONARY
  5
5C99
102
{ACAD_REACTORS
330
C
102
}
330
C
100
AcDbDictionary
281
     1
  3
2dWireframe
350
5C9F
  3
3D Hidden
350
5CA1
  3
3dWireframe
350
5CA0
  3
Basic
350
5C9E
  3
Brighten
350
5CA5
  3
ColorChange
350
5CA9
  3
Conceptual
350
5CA2
  3
Dim
350
5CA4
  3
EdgeColorOff
350
605D
  3
Facepattern
350
5CA8
  3
Flat
350
5C9A
  3
FlatWithEdges
350
5C9B
  3
Gouraud
350
5C9C
  3
GouraudWithEdges
350
5C9D
  3
Hidden
350
6055
  3
JitterOff
350
605B
  3
Linepattern
350
5CA7
  3
OverhangOff
350
605C
  3
Realistic
350
5CA3
  3
Shaded
350
605A
  3
Shaded with edges
350
6059
  3
Shades of Gray
350
6056
  3
Sketchy
350
6057
  3
Thicken
350
5CA6
  3
Wireframe
350
6054
  3
X-Ray
350
6058
  0
XRECORD
  5
2814
102
{ACAD_REACTORS
330
C
102
}
330
C
100
AcDbXrecord
280
     1
 90
   990106
  3

 60
     0
 61
     0
 62
     1
 63
     3
 64
     0
 65
     1
 66
     0
 67
     3
 68
     1
 69
     0
 70
     0
 71
     0
 72
     0
 40
0.0
170
     1
  0
XRECORD
  5
66B5
102
{ACAD_REACTORS
330
C
102
}
330
C
100
AcDbXrecord
280
     1
 90
        1
330
1AA3
330
6164
  0
DICTIONARY
  5
C2
102
{ACAD_REACTORS
330
C
102
}
330
C
100
AcDbDictionary
281
     1
  3
CANNOSCALE
350
5D08
  3
CMLEADERSTYLE
350
5D07
  3
CTABLESTYLE
350
2347
  3
CVIEWDETAILSTYLE
350
60DC
  3
CVIEWSECTIONSTYLE
350
60DD
  3
DIMASSOC
350
59F3
  3
PROJECTNAME
350
59F4
  3
SORTENTS
350
C3
  0
DICTIONARY
  5
66BE
102
{ACAD_REACTORS
330
C
102
}
330
C
100
AcDbDictionary
281
     1
  3
AcDsRecords
350
66C0
  3
AcDsSchemas
350
66BF
1001
ACAD
1070
     2
  0
DICTIONARY
  5
3B16
102
{ACAD_REACTORS
330
C
102
}
330
C
100
AcDbDictionary
281
     1
  0
DICTIONARY
  5
3B17
102
{ACAD_REACTORS
330
C
102
}
330
C
100
AcDbDictionary
281
     1
  0
DICTIONARY
  5
6259
102
{ACAD_REACTORS
330
C
102
}
330
C
100
AcDbDictionary
281
     1
  3
ASEBlockHierarchyIndexRecord
350
625A
1001
DCO15
1040
1776600567.476
  0
DICTIONARY
  5
5BF2
102
{ACAD_REACTORS
330
105
102
}
330
105
100
AcDbDictionary
281
     1
  3
1stFloor
350
5BF4
  3
2ndFloor
350
5C2A
  3
3D
350
5C5A
  3
a00
350
5C0E
  3
All levels
350
5C5C
  3
cd
350
5C3C
  3
cd-ht
350
5C0C
  3
ceiling plan
350
5C3E
  3
Combo
350
5C56
  3
Construction
350
5C36
  3
DASHDOT
350
5C00
  3
Elevations
350
5C1C
  3
f
350
5C02
  3
F000
350
5C46
  3
F001
350
5C1A
  3
F002
350
5C48
  3
F100
350
5C5E
  3
F200
350
5BFA
  3
First Floor
350
5C10
  3
Fix
350
5C12
  3
Floor Layers
350
5C50
  3
Frez
350
5C28
  3
Gndfloor
350
5C52
  3
Ground Floor
350
5C04
  3
Groungfloor
350
5C0A
  3
HB_X
350
5C1E
  3
HH
350
5C20
  3
Interiors
350
5C58
  3
JAMES
350
5C34
  3
KRB
350
5C14
  3
L0-1-2-3
350
5BF6
  3
LAYERON
350
5C2C
  3
Lower
350
5BF8
  3
n
350
5BFE
  3
on
350
5C40
  3
R100
350
5C22
  3
RC2
350
5C06
  3
RC_Ground
350
5C38
  3
RED
350
5C08
  3
Roof
350
5C4A
  3
S000
350
5C2E
  3
Section
350
5C16
  3
SiteOnly
350
5C42
  3
t
350
5C18
  3
test
350
5C54
  3
THAW
350
5C3A
  3
THL
350
5C24
  3
TILEEDGE
350
5C4C
  3
TP
350
5C26
  3
viewports
350
5C44
  3
w
350
5C30
  3
waitakere
350
5BFC
  3
WHITE
350
5C32
  3
Xref
350
5C4E
  0
DICTIONARY
  5
2B2
102
{ACAD_REACTORS
330
105
102
}
330
105
100
AcDbDictionary
281
     1
  0
DICTIONARY
  5
5BF1
102
{ACAD_REACTORS
330
105
102
}
330
105
100
AcDbDictionary
281
     1
  3
*A1
350
5BF3
  3
*A10
350
5C4F
  3
*A11
350
5C53
  3
*A12
350
5C3B
  3
*A13
350
5C1D
  3
*A14
350
5BF5
  3
*A15
350
5C31
  3
*A16
350
5C33
  3
*A17
350
5C43
  3
*A18
350
5C57
  3
*A19
350
5C5B
  3
*A2
350
5C45
  3
*A20
350
5C2B
  3
*A21
350
5C05
  3
*A22
350
5C3D
  3
*A23
350
5C3F
  3
*A24
350
5C4D
  3
*A25
350
5BFD
  3
*A26
350
5C01
  3
*A27
350
5C37
  3
*A28
350
5C15
  3
*A29
350
5C47
  3
*A3
350
5C49
  3
*A30
350
5C55
  3
*A31
350
5C0D
  3
*A32
350
5C11
  3
*A33
350
5C41
  3
*A34
350
5C23
  3
*A35
350
5C51
  3
*A36
350
5C5D
  3
*A37
350
5C1B
  3
*A38
350
5C1F
  3
*A39
350
5C4B
  3
*A4
350
5C2F
  3
*A40
350
5C59
  3
*A41
350
5C03
  3
*A42
350
5C29
  3
*A43
350
5BF7
  3
*A44
350
5BFB
  3
*A45
350
5BFF
  3
*A46
350
5C13
  3
*A47
350
5C35
  3
*A48
350
5C07
  3
*A49
350
5C0B
  3
*A5
350
5C0F
  3
*A50
350
5C21
  3
*A51
350
5BF9
  3
*A52
350
5C17
  3
*A53
350
5C19
  3
*A54
350
5C2D
  3
*A6
350
5C09
  3
*A7
350
5C25
  3
*A8
350
5C27
  3
*A9
350
5C39
1001
ACAD
1000
<All
  0
XRECORD
  5
5CD8
102
{ACAD_REACTORS
330
5CD7
102
}
330
5CD7
100
AcDbXrecord
280
     1
290
     1
  0
XRECORD
  5
5CDA
102
{ACAD_REACTORS
330
5CD9
102
}
330
5CD9
100
AcDbXrecord
280
     1
290
     1
  0
XRECORD
  5
5CDC
102
{ACAD_REACTORS
330
5CDB
102
}
330
5CDB
100
AcDbXrecord
280
     1
290
     1
  0
XRECORD
  5
5CDE
102
{ACAD_REACTORS
330
5CDD
102
}
330
5CDD
100
AcDbXrecord
280
     1
290
     1
  0
XRECORD
  5
5CE0
102
{ACAD_REACTORS
330
5CDF
102
}
330
5CDF
100
AcDbXrecord
280
     1
290
     1
  0
XRECORD
  5
5CE2
102
{ACAD_REACTORS
330
5CE1
102
}
330
5CE1
100
AcDbXrecord
280
     1
290
     1
  0
XRECORD
  5
5CE4
102
{ACAD_REACTORS
330
5CE3
102
}
330
5CE3
100
AcDbXrecord
280
     1
290
     1
  0
XRECORD
  5
5CE6
102
{ACAD_REACTORS
330
5CE5
102
}
330
5CE5
100
AcDbXrecord
280
     1
290
     1
  0
XRECORD
  5
5CE8
102
{ACAD_REACTORS
330
5CE7
102
}
330
5CE7
100
AcDbXrecord
280
     1
290
     1
  0
XRECORD
  5
5CEA
102
{ACAD_REACTORS
330
5CE9
102
}
330
5CE9
100
AcDbXrecord
280
     1
290
     1
  0
XRECORD
  5
5CEC
102
{ACAD_REACTORS
330
5CEB
102
}
330
5CEB
100
AcDbXrecord
280
     1
290
     1
  0
SORTENTSTABLE
  5
C1
102
{ACAD_REACTORS
330
C0
102
}
330
C0
100
AcDbSortentsTable
330
1F
331
2E2D
  5
3056
331
302C
  5
3026
331
3028
  5
3022
331
306F
  5
3178
331
306B
  5
307D
331
53DD
  5
53DF
331
3067
  5
3079
331
3063
  5
3075
331
53D5
  5
5913
331
5914
  5
2D8C
331
2DAE
  5
2E34
331
3024
  5
301E
331
3020
  5
3061
331
301C
  5
3052
331
2D9A
  5
2DE6
331
305F
  5
3071
331
305B
  5
306D
331
3057
  5
3069
331
3053
  5
3065
331
53C5
  5
305A
331
2D8A
  5
2DE5
331
2D82
  5
2D83
331
304F
  5
304A
331
304B
  5
3046
331
3047
  5
3041
331
3043
  5
303D
331
539D
  5
3057
331
2DE5
  5
3051
331
2E34
  5
305D
331
2E30
  5
3058
331
303F
  5
3039
331
307E
  5
53D4
331
303B
  5
3035
331
307A
  5
53C7
331
3076
  5
31A0
331
3037
  5
3031
331
3072
  5
317C
331
3033
  5
302D
331
302F
  5
3029
331
302B
  5
3025
331
306E
  5
3177
331
53DC
  5
53E2
331
306A
  5
307C
331
3066
  5
3078
331
53D8
  5
5A0D
331
4C4D
  5
53D9
331
3062
  5
3074
331
53D4
  5
5912
331
5913
  5
2DAF
331
3027
  5
3021
331
2DAD
  5
2D82
331
3023
  5
2F8E
331
301F
  5
3060
331
305E
  5
3070
331
305A
  5
306C
331
3056
  5
3068
331
53C8
  5
305E
331
53C4
  5
2D84
331
3052
  5
3064
331
2D8D
  5
2E30
331
2D85
  5
2DAE
331
304E
  5
3049
331
304A
  5
3045
331
3046
  5
3040
331
3042
  5
303C
331
2E9B
  5
3055
331
2DE8
  5
3054
331
2DE4
  5
304D
331
2E33
  5
3059
331
307D
  5
53D3
331
303E
  5
3038
331
535C
  5
53DC
331
303A
  5
3034
331
3079
  5
53C6
331
3075
  5
319F
331
3036
  5
3030
331
592E
  5
2D8B
331
3071
  5
317B
331
53F3
  5
305C
331
3032
  5
302C
331
302E
  5
3028
331
2DB0
  5
304B
331
302A
  5
3024
331
306D
  5
3176
331
3069
  5
307B
331
5916
  5
2DE3
331
53D7
  5
5A04
331
3065
  5
3077
331
5912
  5
2D8A
331
53D3
  5
5911
331
3061
  5
3073
331
3026
  5
3020
331
3022
  5
2EFF
331
301E
  5
305F
331
305D
  5
306F
331
3059
  5
306B
331
3055
  5
3067
331
53C7
  5
3050
331
5A0D
  5
5DD9
331
53C3
  5
53F4
331
3051
  5
3063
331
2D8C
  5
2E2D
331
2D88
  5
2DE4
331
2EFE
  5
305B
331
2D84
  5
2D8D
331
304D
  5
3048
331
53AF
  5
2E2F
331
3049
  5
3044
331
3045
  5
303F
331
3041
  5
303B
331
2DE7
  5
3053
331
2DE3
  5
304C
331
303D
  5
3037
331
307C
  5
53D2
331
535B
  5
53DE
331
3039
  5
3033
331
3078
  5
4DF5
331
3074
  5
319E
331
3035
  5
302F
331
3070
  5
3179
331
3031
  5
302B
331
5925
  5
2D88
331
302D
  5
3027
331
3029
  5
3023
331
306C
  5
307E
331
3068
  5
307A
331
5915
  5
2D9B
331
3064
  5
3076
331
5911
  5
2D8E
331
53D2
  5
53FC
331
3060
  5
3072
331
3025
  5
301F
331
3021
  5
2E9C
331
305C
  5
306E
331
3058
  5
306A
331
3054
  5
3066
331
53C6
  5
2DE8
331
3050
  5
3062
331
5A04
  5
5DD6
331
2F8D
  5
2E35
331
2D8B
  5
2DE7
331
2D83
  5
2D85
331
304C
  5
3047
331
53AE
  5
2E33
331
3048
  5
3042
331
3044
  5
303E
331
3040
  5
303A
331
303C
  5
3036
331
307B
  5
53C8
331
3038
  5
3032
331
3077
  5
4DF4
331
3073
  5
317D
331
3034
  5
302E
331
3030
  5
302A
  0
SORTENTSTABLE
  5
5D22
102
{ACAD_REACTORS
330
5D21
102
}
330
5D21
100
AcDbSortentsTable
330
2DFA
331
2E00
  5
2E00
331
5DF8
  5
5DF9
331
2E12
  5
2E12
331
5421
  5
5421
331
541F
  5
541F
331
5429
  5
5428
331
2DFF
  5
2DFF
331
5DF7
  5
5DF8
331
5420
  5
5420
331
3082
  5
3082
331
2E11
  5
2E11
331
2E07
  5
2E07
331
5A7E
  5
5E56
331
541E
  5
541E
331
5428
  5
5427
331
2DFE
  5
2DFE
331
5DF6
  5
5DF7
331
2E10
  5
2E10
331
2E06
  5
2E06
331
541D
  5
541D
331
5427
  5
5E59
331
5DF5
  5
5DF6
331
3080
  5
3080
331
5D20
  5
5E58
331
5E59
  5
5DF4
331
2E0F
  5
2E0F
331
2E19
  5
2E19
331
5426
  5
5426
331
5E57
  5
5CD3
331
2E17
  5
2E17
331
5DF4
  5
5DF5
331
2DFC
  5
2DFC
331
5E58
  5
5D20
331
2E0E
  5
2E0E
331
2E04
  5
2E04
331
2E18
  5
2E18
331
5E56
  5
5A7E
331
2E16
  5
2E16
331
59FE
  5
5E55
331
2E0D
  5
2E0D
331
5E55
  5
59FE
331
2E15
  5
2E15
331
2E0C
  5
2E0C
331
5E54
  5
5707
331
5423
  5
5423
331
2E01
  5
2E01
331
5DF9
  5
5E54
331
2E13
  5
2E13
331
5422
  5
5422
  0
XRECORD
  5
66C2
102
{ACAD_REACTORS
330
609E
102
}
330
609E
100
AcDbXrecord
280
     1
 40
5156769.0
  1
{\fTahoma|b0|i1|c0|p34;Internal linings plaster board or Supercoat\fTahoma|b1|i0|c0|p34;™\fTahoma|b0|i1|c0|p34; coating system\P\PSupercrete\fTahoma|b1|i0|c0|p34;™\fTahoma|b0|i1|c0|p34; block internal walls (150mm minimum thickness)\P\P\PTimber or MD
  1
F skirting & floor finish as specified by client  \P\PConcrete floor slab}
  0
XRECORD
  5
66C3
102
{ACAD_REACTORS
330
60A0
102
}
330
60A0
100
AcDbXrecord
280
     1
 40
9943162.0
  1
{\fTahoma|b0|i1|c0|p34;2-3mm of Supercoat\fScript MT Bold|b1|i0|c0|p66;™\fTahoma|b0|i1|c0|p34; Superbond Adhesive all horizontal & vertical joints\P\P\fISOCPEUR|b0|i1|c0|p34;%%C\fTahoma|b0|i1|c0|p34;12 reinforcing rod centered in \fISOCPEUR|b0|i1|c0|
  1
p34;%%C\fTahoma|b0|i1|c0|p34;50mm drilled grout filled core \P( 15MPa sand grout )\P\P\P\P10mm leveling bed of Supercoat\fTahoma|b1|i0|c0|p34;™\fTahoma|b0|i1|c0|p34; Superbase render  mortar over DPC slip layer}
  0
XRECORD
  5
66C4
102
{ACAD_REACTORS
330
604E
102
}
330
604E
100
AcDbXrecord
280
     1
 40
43191.0
  1
{\fISOCPEUR|b0|i0|c0|p34;\U+2104}
  0
XRECORD
  5
66B4
102
{ACAD_REACTORS
330
6165
102
}
330
6165
100
AcDbXrecord
280
     1
 40
29599.0
  1
\pxqc;BLOCK CONSTRUCTION
  0
XRECORD
  5
66FC
102
{ACAD_REACTORS
330
6404
102
}
330
6404
100
AcDbXrecord
280
     1
 40
274088.0
  1
{\fTahoma|b1|i0|c0|p34;\C7;Copyright © Superbuild International Ltd 2013}
  0
XRECORD
  5
66B7
102
{ACAD_REACTORS
330
66B6
102
}
330
66B6
100
AcDbXrecord
280
     1
 40
1.25
  0
XRECORD
  5
66B8
102
{ACAD_REACTORS
330
66B6
102
}
330
66B6
100
AcDbXrecord
280
     1
 40
1.570796326794896
  0
ACDBDETAILVIEWSTYLE
  5
6061
102
{ACAD_REACTORS
330
6060
102
}
330
6060
100
AcDbModelDocViewStyle
 70
     0
  3
Metric50
290
     0
100
AcDbDetailViewStyle
 70
     0
 71
     0
 90
        3
 71
     1
340
11
 62
   256
 40
5.0
340
0
 62
   256
 40
5.0
300

 40
0.0
280
     1
 71
     2
340
16
 90
       25
 62
   256
 71
     3
340
11
 62
   256
 40
5.0
 90
        0
 40
15.0
 90
        1
300
%<\AcVar ViewDetailId>% (%<\AcVar ViewScale \f "%sn">%)
 71
     4
340
16
 90
       25
 62
   256
340
16
 90
       25
 62
   256
280
     0
  0
IMAGEDEF
  5
6251
102
{ACAD_REACTORS
330
5CD0
102
}
330
5CD0
100
AcDbRasterImageDef
 90
        0
  1
M:\LOGISTICS and PRICING\logos & letter head\Graphics\Hebel Letterheads & Logos\hebel Hi Res.jpg
 10
1366.0
 20
474.0
 11
0.0846666666666667
 21
0.0846666666666667
280
     1
281
     5
  0
IMAGEDEF
  5
6252
102
{ACAD_REACTORS
330
5CD0
330
6255
102
}
330
5CD0
100
AcDbRasterImageDef
 90
        0
  1
M:\LOGISTICS and PRICING\logos & letter head\Graphics\Hebel Letterheads & Logos\Supercrete Hi Res.jpg
 10
1367.0
 20
308.0
 11
0.0846666666666667
 21
0.0846666666666667
280
     1
281
     5
  0
LAYOUT
  5
2E1B
102
{ACAD_XDICTIONARY
360
2E1C
102
}
102
{ACAD_REACTORS
330
1A
102
}
330
1A
100
AcDbPlotSettings
  1

  2
Adobe PDF.pc3
  4
A4
  6

 40
3.174999952316284
 41
3.174999952316284
 42
3.175003051757812
 43
3.17498779296875
 44
209.9733276367187
 45
297.0318298339844
 46
0.0
 47
0.0
 48
0.0
 49
0.0
140
0.0
141
0.0
142
1.0
143
1.0
 70
   688
 72
     1
 73
     0
 74
     5
  7
Hebel monochrome.ctb
 75
    16
147
1.0
 76
     0
 77
     2
 78
   300
148
0.0
149
0.0
100
AcDbLayout
  1
BLK-2.1
 70
     0
 71
     1
 10
-3.174999952316284
 20
-3.174999952316284
 11
206.7983276844024
 21
293.8568298816681
 12
0.0
 22
0.0
 32
0.0
 14
6.943039010819859
 24
6.832420799032661
 34
-0.0000000000112498
 15
196.9526244901365
 25
288.4497417456663
 35
0.0000000000002956
146
0.0
 13
0.0
 23
0.0
 33
0.0
 16
1.0
 26
0.0
 36
0.0
 17
0.0
 27
1.0
 37
0.0
 76
     0
330
2DFA
331
2DFC
1001
ACAD_PSEXT
1000
Adobe PDF.pc3
1000
Adobe PDF Converter
1000
Documents\*.pdf
1000

1070
     0
  0
LAYOUT
  5
22
102
{ACAD_REACTORS
330
1A
102
}
330
1A
100
AcDbPlotSettings
  1

  2
none_device
  4
ANSI_A_(8.50_x_11.00_Inches)
  6

 40
6.349999904632568
 41
19.04999923706055
 42
6.350006103515625
 43
19.04998779296875
 44
215.8999938964844
 45
279.3999938964844
 46
0.0
 47
0.0
 48
0.0
 49
0.0
140
0.0
141
0.0
142
1.0
143
78.436453180766
 70
 11952
 72
     0
 73
     1
 74
     0
  7

 75
     0
147
0.0127491741332998
 76
     0
 77
     2
 78
   300
148
0.0
149
0.0
100
AcDbLayout
  1
Model
 70
     1
 71
     0
 10
0.0
 20
0.0
 11
12.0
 21
9.0
 12
0.0
 22
0.0
 32
0.0
 14
0.0
 24
0.0
 34
0.0
 15
0.0
 25
0.0
 35
0.0
146
0.0
 13
0.0
 23
0.0
 33
0.0
 16
1.0
 26
0.0
 36
0.0
 17
0.0
 27
1.0
 37
0.0
 76
     0
330
1F
  0
MATERIAL
  5
5C89
102
{ACAD_XDICTIONARY
360
5C8A
102
}
102
{ACAD_REACTORS
330
1AA0
102
}
330
1AA0
100
AcDbMaterial
  1
ByBlock
 72
     0
 43
0.0008202099737533
 43
0.0
 43
0.0
 43
0.0
 43
0.0
 43
0.0008202099737533
 43
0.0
 43
0.0
 43
0.0
 43
0.0
 43
1.0
 43
0.0
 43
0.0
 43
0.0
 43
0.0
 43
1.0
 77
     0
 47
0.0008202099737533
 47
0.0
 47
0.0
 47
0.0
 47
0.0
 47
0.0008202099737533
 47
0.0
 47
0.0
 47
0.0
 47
0.0
 47
1.0
 47
0.0
 47
0.0
 47
0.0
 47
0.0
 47
1.0
171
     0
 49
0.0008202099737533
 49
0.0
 49
0.0
 49
0.0
 49
0.0
 49
0.0008202099737533
 49
0.0
 49
0.0
 49
0.0
 49
0.0
 49
1.0
 49
0.0
 49
0.0
 49
0.0
 49
0.0
 49
1.0
175
     0
142
0.0008202099737533
142
0.0
142
0.0
142
0.0
142
0.0
142
0.0008202099737533
142
0.0
142
0.0
142
0.0
142
0.0
142
1.0
142
0.0
142
0.0
142
0.0
142
0.0
142
1.0
179
     0
144
0.0008202099737533
144
0.0
144
0.0
144
0.0
144
0.0
144
0.0008202099737533
144
0.0
144
0.0
144
0.0
144
0.0
144
1.0
144
0.0
144
0.0
144
0.0
144
0.0
144
1.0
147
0.0008202099737533
147
0.0
147
0.0
147
0.0
147
0.0
147
0.0008202099737533
147
0.0
147
0.0
147
0.0
147
0.0
147
1.0
147
0.0
147
0.0
147
0.0
147
0.0
147
1.0
  0
MATERIAL
  5
5C81
102
{ACAD_XDICTIONARY
360
5C82
102
}
102
{ACAD_REACTORS
330
1AA0
102
}
330
1AA0
100
AcDbMaterial
  1
ByLayer
 72
     0
 43
0.0008202099737533
 43
0.0
 43
0.0
 43
0.0
 43
0.0
 43
0.0008202099737533
 43
0.0
 43
0.0
 43
0.0
 43
0.0
 43
1.0
 43
0.0
 43
0.0
 43
0.0
 43
0.0
 43
1.0
 77
     0
 47
0.0008202099737533
 47
0.0
 47
0.0
 47
0.0
 47
0.0
 47
0.0008202099737533
 47
0.0
 47
0.0
 47
0.0
 47
0.0
 47
1.0
 47
0.0
 47
0.0
 47
0.0
 47
0.0
 47
1.0
171
     0
 49
0.0008202099737533
 49
0.0
 49
0.0
 49
0.0
 49
0.0
 49
0.0008202099737533
 49
0.0
 49
0.0
 49
0.0
 49
0.0
 49
1.0
 49
0.0
 49
0.0
 49
0.0
 49
0.0
 49
1.0
175
     0
142
0.0008202099737533
142
0.0
142
0.0
142
0.0
142
0.0
142
0.0008202099737533
142
0.0
142
0.0
142
0.0
142
0.0
142
1.0
142
0.0
142
0.0
142
0.0
142
0.0
142
1.0
179
     0
144
0.0008202099737533
144
0.0
144
0.0
144
0.0
144
0.0
144
0.0008202099737533
144
0.0
144
0.0
144
0.0
144
0.0
144
1.0
144
0.0
144
0.0
144
0.0
144
0.0
144
1.0
147
0.0008202099737533
147
0.0
147
0.0
147
0.0
147
0.0
147
0.0008202099737533
147
0.0
147
0.0
147
0.0
147
0.0
147
1.0
147
0.0
147
0.0
147
0.0
147
0.0
147
1.0
  0
MATERIAL
  5
5C91
102
{ACAD_XDICTIONARY
360
5C92
102
}
102
{ACAD_REACTORS
330
1AA0
102
}
330
1AA0
100
AcDbMaterial
  1
Global
 72
     0
 43
0.0008202099737533
 43
0.0
 43
0.0
 43
0.0
 43
0.0
 43
0.0008202099737533
 43
0.0
 43
0.0
 43
0.0
 43
0.0
 43
1.0
 43
0.0
 43
0.0
 43
0.0
 43
0.0
 43
1.0
 77
     0
 47
0.0008202099737533
 47
0.0
 47
0.0
 47
0.0
 47
0.0
 47
0.0008202099737533
 47
0.0
 47
0.0
 47
0.0
 47
0.0
 47
1.0
 47
0.0
 47
0.0
 47
0.0
 47
0.0
 47
1.0
171
     0
 49
0.0008202099737533
 49
0.0
 49
0.0
 49
0.0
 49
0.0
 49
0.0008202099737533
 49
0.0
 49
0.0
 49
0.0
 49
0.0
 49
1.0
 49
0.0
 49
0.0
 49
0.0
 49
0.0
 49
1.0
175
     0
142
0.0008202099737533
142
0.0
142
0.0
142
0.0
142
0.0
142
0.0008202099737533
142
0.0
142
0.0
142
0.0
142
0.0
142
1.0
142
0.0
142
0.0
142
0.0
142
0.0
142
1.0
179
     0
144
0.0008202099737533
144
0.0
144
0.0
144
0.0
144
0.0
144
0.0008202099737533
144
0.0
144
0.0
144
0.0
144
0.0
144
1.0
144
0.0
144
0.0
144
0.0
144
0.0
144
1.0
147
0.0008202099737533
147
0.0
147
0.0
147
0.0
147
0.0
147
0.0008202099737533
147
0.0
147
0.0
147
0.0
147
0.0
147
1.0
147
0.0
147
0.0
147
0.0
147
0.0
147
1.0
  0
MLEADERSTYLE
  5
5CBD
102
{ACAD_REACTORS
330
5CBC
330
64C5
330
64C7
102
}
330
5CBC
100
AcDbMLeaderStyle
170
     2
171
     1
172
     0
 90
        4
 40
0.0
 41
0.0
173
     2
 91
-1023410169
340
14
 92
       -2
290
     1
 42
1.0
291
     1
 43
0.36
  3
Standard
 44
3.0
300

342
1AE9
174
     1
178
     6
175
     1
176
     0
 93
-1023410169
 45
2.0
292
     0
297
     0
 46
4.0
 94
-1056964608
 47
1.0
 49
1.0
140
1.0
293
     1
141
0.0
294
     1
177
     0
142
1.0
295
     0
296
     0
143
0.125
1001
ACAD_MLEADERVER
1070
     2
  0
MLINESTYLE
  5
18
102
{ACAD_REACTORS
330
17
102
}
330
17
100
AcDbMlineStyle
  2
STANDARD
 70
     0
  3

 62
   256
 51
90.0
 52
90.0
 71
     2
 49
0.5
 62
   256
  6
BYLAYER
 49
-0.5
 62
   256
  6
BYLAYER
  0
ACDBPLACEHOLDER
  5
F
102
{ACAD_REACTORS
330
E
102
}
330
E
  0
SCALE
  5
5CAB
102
{ACAD_REACTORS
330
5CAA
102
}
330
5CAA
100
AcDbScale
 70
     0
300
1:1
140
1.0
141
1.0
290
     1
  0
SCALE
  5
5CAC
102
{ACAD_REACTORS
330
5CAA
102
}
330
5CAA
100
AcDbScale
 70
     0
300
1:2
140
1.0
141
2.0
290
     0
  0
SCALE
  5
5CAD
102
{ACAD_REACTORS
330
5CAA
102
}
330
5CAA
100
AcDbScale
 70
     0
300
1:4
140
1.0
141
4.0
290
     0
  0
SCALE
  5
5CAE
102
{ACAD_REACTORS
330
5CAA
102
}
330
5CAA
100
AcDbScale
 70
     0
300
1:5
140
1.0
141
5.0
290
     0
  0
SCALE
  5
5CAF
102
{ACAD_REACTORS
330
5CAA
102
}
330
5CAA
100
AcDbScale
 70
     0
300
1:8
140
1.0
141
8.0
290
     0
  0
SCALE
  5
5CB0
102
{ACAD_REACTORS
330
5CAA
102
}
330
5CAA
100
AcDbScale
 70
     0
300
1:10
140
1.0
141
10.0
290
     0
  0
SCALE
  5
5CB1
102
{ACAD_REACTORS
330
5CAA
102
}
330
5CAA
100
AcDbScale
 70
     0
300
1:16
140
1.0
141
16.0
290
     0
  0
SCALE
  5
5CB2
102
{ACAD_REACTORS
330
5CAA
102
}
330
5CAA
100
AcDbScale
 70
     0
300
1:20
140
1.0
141
20.0
290
     0
  0
SCALE
  5
5CB3
102
{ACAD_REACTORS
330
5CAA
102
}
330
5CAA
100
AcDbScale
 70
     0
300
1:30
140
1.0
141
30.0
290
     0
  0
SCALE
  5
5CB4
102
{ACAD_REACTORS
330
5CAA
102
}
330
5CAA
100
AcDbScale
 70
     0
300
1:40
140
1.0
141
40.0
290
     0
  0
SCALE
  5
5CB5
102
{ACAD_REACTORS
330
5CAA
102
}
330
5CAA
100
AcDbScale
 70
     0
300
1:50
140
1.0
141
50.0
290
     0
  0
SCALE
  5
5CB6
102
{ACAD_REACTORS
330
5CAA
102
}
330
5CAA
100
AcDbScale
 70
     0
300
1:100
140
1.0
141
100.0
290
     0
  0
SCALE
  5
5CB7
102
{ACAD_REACTORS
330
5CAA
102
}
330
5CAA
100
AcDbScale
 70
     0
300
2:1
140
2.0
141
1.0
290
     0
  0
SCALE
  5
5CB8
102
{ACAD_REACTORS
330
5CAA
102
}
330
5CAA
100
AcDbScale
 70
     0
300
4:1
140
4.0
141
1.0
290
     0
  0
SCALE
  5
5CB9
102
{ACAD_REACTORS
330
5CAA
102
}
330
5CAA
100
AcDbScale
 70
     0
300
8:1
140
8.0
141
1.0
290
     0
  0
SCALE
  5
5CBA
102
{ACAD_REACTORS
330
5CAA
102
}
330
5CAA
100
AcDbScale
 70
     0
300
10:1
140
10.0
141
1.0
290
     0
  0
SCALE
  5
5CBB
102
{ACAD_REACTORS
330
5CAA
102
}
330
5CAA
100
AcDbScale
 70
     0
300
100:1
140
100.0
141
1.0
290
     0
  0
ACDBSECTIONVIEWSTYLE
  5
605F
102
{ACAD_REACTORS
330
605E
102
}
330
605E
100
AcDbModelDocViewStyle
 70
     0
  3
Metric50
290
     0
100
AcDbSectionViewStyle
 70
     0
 71
     0
 90
      102
 71
     1
340
11
 62
   256
 40
5.0
340
0
340
0
 62
   256
 40
5.0
300
I, O, Q, S, X, Z
 40
10.0
 90
        0
 40
2.5
 90
        0
 71
     2
340
16
 90
       25
 62
   256
340
16
 90
       50
 62
   256
 40
5.0
 40
2.5
 40
5.0
 71
     3
340
11
 62
   256
 40
5.0
 90
        0
 40
15.0
 90
        1
300
%<\AcVar ViewSectionStartId>%-%<\AcVar ViewSectionEndId>% (%<\AcVar ViewScale \f "%sn">%)
 71
     4
 62
   256
 62
   257
300
ANSI31
 40
1.0
 90
        0
290
     0
290
     0
 90
        6
 40
0.0
 40
1.570796326794896
 40
0.2617993877991494
 40
1.308996938995747
 40
-0.2617993877991494
 40
1.832595714594046
  0
TABLESTYLE
  5
1AA3
102
{ACAD_XDICTIONARY
360
5D56
102
}
102
{ACAD_REACTORS
330
1AA2
102
}
330
1AA2
100
AcDbTableStyle
  3
Standard
 70
     0
 71
     0
 40
1.5
 41
1.5
280
     0
281
     0
  7
Standard
140
4.5
170
     2
 62
     0
 63
     7
283
     0
274
    -2
284
     1
 64
     0
275
    -2
285
     1
 65
     0
276
    -2
286
     1
 66
     0
277
    -2
287
     1
 67
     0
278
    -2
288
     1
 68
     0
279
    -2
289
     1
 69
     0
  7
Standard
140
6.0
170
     5
 62
     0
 63
     7
283
     0
274
    -2
284
     1
 64
     0
275
    -2
285
     1
 65
     0
276
    -2
286
     1
 66
     0
277
    -2
287
     1
 67
     0
278
    -2
288
     1
 68
     0
279
    -2
289
     1
 69
     0
  7
Standard
140
4.5
170
     5
 62
     0
 63
     7
283
     0
274
    -2
284
     1
 64
     0
275
    -2
285
     1
 65
     0
276
    -2
286
     1
 66
     0
277
    -2
287
     1
 67
     0
278
    -2
288
     1
 68
     0
279
    -2
289
     1
 69
     0
  0
VISUALSTYLE
  5
5C9F
102
{ACAD_XDICTIONARY
360
66D2
102
}
102
{ACAD_REACTORS
330
5C99
102
}
330
5C99
100
AcDbVisualStyle
  2
2dWireframe
 70
     4
 71
     0
 72
     2
 73
     0
 90
        0
 40
-0.6
 41
-30.0
 62
     5
 63
     7
421
 16777215
 74
     1
 91
        4
 64
     7
 65
   257
 75
     1
175
     1
 42
1.0
 92
        0
 66
   257
 43
1.0
 76
     1
 77
     6
 78
     2
 67
     7
 79
     5
170
     0
171
     0
290
     0
174
     0
 93
        1
 44
0.0
173
     0
291
     0
 45
0.0
1001
ACAD
1000
AcDbSavedByObjectVersion
1070
     0
  0
VISUALSTYLE
  5
5CA1
102
{ACAD_XDICTIONARY
360
66D6
102
}
102
{ACAD_REACTORS
330
5C99
102
}
330
5C99
100
AcDbVisualStyle
  2
3D Hidden
 70
     6
 71
     1
 72
     2
 73
     2
 90
        0
 40
-0.6
 41
-30.0
 62
     5
 63
     7
421
 16777215
 74
     2
 91
        2
 64
     7
 65
   257
 75
     2
175
     1
 42
40.0
 92
        0
 66
   257
 43
1.0
 76
     1
 77
     6
 78
     2
 67
     7
 79
     3
170
     0
171
     0
290
     0
174
     0
 93
        1
 44
0.0
173
     0
291
     0
 45
0.0
1001
ACAD
1000
AcDbSavedByObjectVersion
1070
     0
  0
VISUALSTYLE
  5
5CA0
102
{ACAD_XDICTIONARY
360
66D4
102
}
102
{ACAD_REACTORS
330
5C99
102
}
330
5C99
100
AcDbVisualStyle
  2
3dWireframe
 70
     5
 71
     0
 72
     2
 73
     0
 90
        0
 40
-0.6
 41
-30.0
 62
     5
 63
     7
421
 16777215
 74
     1
 91
        4
 64
     7
 65
   257
 75
     1
175
     1
 42
1.0
 92
        0
 66
   257
 43
1.0
 76
     1
 77
     6
 78
     2
 67
     7
 79
     5
170
     0
171
     0
290
     0
174
     0
 93
        1
 44
0.0
173
     0
291
     0
 45
0.0
1001
ACAD
1000
AcDbSavedByObjectVersion
1070
     0
  0
VISUALSTYLE
  5
5C9E
102
{ACAD_XDICTIONARY
360
66D0
102
}
102
{ACAD_REACTORS
330
5C99
102
}
330
5C99
100
AcDbVisualStyle
  2
Basic
 70
     7
 71
     1
 72
     0
 73
     1
 90
        0
 40
-0.6
 41
-30.0
 62
     5
 63
     7
421
 16777215
 74
     0
 91
        4
 64
     7
 65
   257
 75
     1
175
     1
 42
1.0
 92
        8
 66
     7
 43
1.0
 76
     1
 77
     6
 78
     2
 67
     7
 79
     5
170
     0
171
     0
290
     0
174
     0
 93
        1
 44
0.0
173
     0
291
     1
 45
0.0
1001
ACAD
1000
AcDbSavedByObjectVersion
1070
     0
  0
VISUALSTYLE
  5
5CA5
102
{ACAD_XDICTIONARY
360
66DE
102
}
102
{ACAD_REACTORS
330
5C99
102
}
330
5C99
100
AcDbVisualStyle
  2
Brighten
 70
    12
 71
     2
 72
     2
 73
     0
 90
        0
 40
-0.6
 41
-30.0
 62
     5
 63
     7
421
 16777215
 74
     1
 91
        4
 64
     7
 65
   257
 75
     1
175
     1
 42
1.0
 92
        8
 66
     7
 43
1.0
 76
     1
 77
     6
 78
     2
 67
     7
 79
     5
170
     0
171
     0
290
     0
174
     0
 93
        1
 44
50.0
173
     0
291
     1
 45
0.0
1001
ACAD
1000
AcDbSavedByObjectVersion
1070
     0
  0
VISUALSTYLE
  5
5CA9
102
{ACAD_XDICTIONARY
360
66E6
102
}
102
{ACAD_REACTORS
330
5C99
102
}
330
5C99
100
AcDbVisualStyle
  2
ColorChange
 70
    16
 71
     2
 72
     2
 73
     3
 90
        0
 40
-0.6
 41
-30.0
 62
     5
 63
     8
421
  8421504
 74
     1
 91
        4
 64
     7
 65
   257
 75
     1
175
     1
 42
1.0
 92
        8
 66
     8
424
  8421504
 43
1.0
 76
     1
 77
     6
 78
     2
 67
     7
 79
     5
170
     0
171
     0
290
     0
174
     0
 93
        1
 44
0.0
173
     0
291
     1
 45
0.0
1001
ACAD
1000
AcDbSavedByObjectVersion
1070
     0
  0
VISUALSTYLE
  5
5CA2
102
{ACAD_XDICTIONARY
360
66D8
102
}
102
{ACAD_REACTORS
330
5C99
102
}
330
5C99
100
AcDbVisualStyle
  2
Conceptual
 70
     9
 71
     3
 72
     2
 73
     0
 90
        0
 40
-0.6
 41
-30.0
 62
     5
 63
     7
421
 16777215
 74
     2
 91
        2
 64
     7
 65
   257
 75
     1
175
     1
 42
40.0
 92
        8
 66
     7
 43
1.0
 76
     1
 77
     6
 78
     2
 67
     7
 79
     3
170
     0
171
     0
290
     0
174
     0
 93
        1
 44
0.0
173
     0
291
     0
 45
0.0
1001
ACAD
1000
AcDbSavedByObjectVersion
1070
     0
  0
VISUALSTYLE
  5
5CA4
102
{ACAD_XDICTIONARY
360
66DC
102
}
102
{ACAD_REACTORS
330
5C99
102
}
330
5C99
100
AcDbVisualStyle
  2
Dim
 70
    11
 71
     2
 72
     2
 73
     0
 90
        0
 40
-0.6
 41
-30.0
 62
     5
 63
     7
421
 16777215
 74
     1
 91
        4
 64
     7
 65
   257
 75
     1
175
     1
 42
1.0
 92
        8
 66
     7
 43
1.0
 76
     1
 77
     6
 78
     2
 67
     7
 79
     5
170
     0
171
     0
290
     0
174
     0
 93
        1
 44
-50.0
173
     0
291
     1
 45
0.0
1001
ACAD
1000
AcDbSavedByObjectVersion
1070
     0
  0
VISUALSTYLE
  5
605D
102
{ACAD_XDICTIONARY
360
66FA
102
}
102
{ACAD_REACTORS
330
5C99
102
}
330
5C99
100
AcDbVisualStyle
  2
EdgeColorOff
 70
    22
 71
     2
 72
     2
 73
     0
 90
        0
 40
-0.6
 41
-30.0
 62
     5
 63
     7
421
 16777215
 74
     1
 91
        4
 64
     7
 65
   257
 75
     1
175
     1
 42
1.0
 92
        8
 66
     7
 43
1.0
 76
     1
 77
     6
 78
     2
 67
     7
 79
     5
170
     0
171
     0
290
     0
174
     0
 93
        1
 44
0.0
173
     0
291
     1
 45
0.0
1001
ACAD
1000
AcDbSavedByObjectVersion
1070
     0
  0
VISUALSTYLE
  5
5CA8
102
{ACAD_XDICTIONARY
360
66E4
102
}
102
{ACAD_REACTORS
330
5C99
102
}
330
5C99
100
AcDbVisualStyle
  2
Facepattern
 70
    15
 71
     2
 72
     2
 73
     0
 90
        0
 40
-0.6
 41
-30.0
 62
     5
 63
     7
421
 16777215
 74
     1
 91
        4
 64
     7
 65
   257
 75
     1
175
     1
 42
1.0
 92
        8
 66
     7
 43
1.0
 76
     1
 77
     6
 78
     2
 67
     7
 79
     5
170
     0
171
     0
290
     0
174
     0
 93
        1
 44
0.0
173
     0
291
     1
 45
0.0
1001
ACAD
1000
AcDbSavedByObjectVersion
1070
     0
  0
VISUALSTYLE
  5
5C9A
102
{ACAD_XDICTIONARY
360
66C8
102
}
102
{ACAD_REACTORS
330
5C99
102
}
330
5C99
100
AcDbVisualStyle
  2
Flat
 70
     0
 71
     2
 72
     1
 73
     1
 90
        2
 40
-0.6
 41
30.0
 62
     5
 63
     7
421
 16777215
 74
     0
 91
        4
 64
     7
 65
   257
 75
     1
175
     1
 42
1.0
 92
        8
 66
     7
 43
1.0
 76
     1
 77
     6
 78
     2
 67
     7
 79
     5
170
     0
171
     0
290
     0
174
     0
 93
       13
 44
0.0
173
     0
291
     1
 45
0.0
1001
ACAD
1000
AcDbSavedByObjectVersion
1070
     0
  0
VISUALSTYLE
  5
5C9B
102
{ACAD_XDICTIONARY
360
66CA
102
}
102
{ACAD_REACTORS
330
5C99
102
}
330
5C99
100
AcDbVisualStyle
  2
FlatWithEdges
 70
     1
 71
     2
 72
     1
 73
     1
 90
        2
 40
-0.6
 41
30.0
 62
     5
 63
     7
421
 16777215
 74
     1
 91
        4
 64
     7
 65
   257
 75
     1
175
     1
 42
1.0
 92
        0
 66
   257
 43
1.0
 76
     1
 77
     6
 78
     2
 67
     7
 79
     5
170
     0
171
     0
290
     0
174
     0
 93
       13
 44
0.0
173
     0
291
     1
 45
0.0
1001
ACAD
1000
AcDbSavedByObjectVersion
1070
     0
  0
VISUALSTYLE
  5
5C9C
102
{ACAD_XDICTIONARY
360
66CC
102
}
102
{ACAD_REACTORS
330
5C99
102
}
330
5C99
100
AcDbVisualStyle
  2
Gouraud
 70
     2
 71
     2
 72
     2
 73
     1
 90
        2
 40
-0.6
 41
30.0
 62
     5
 63
     7
421
 16777215
 74
     0
 91
        4
 64
     7
 65
   257
 75
     1
175
     1
 42
1.0
 92
        0
 66
     7
 43
1.0
 76
     1
 77
     6
 78
     2
 67
     7
 79
     5
170
     0
171
     0
290
     0
174
     0
 93
       13
 44
0.0
173
     0
291
     1
 45
0.0
1001
ACAD
1000
AcDbSavedByObjectVersion
1070
     0
  0
VISUALSTYLE
  5
5C9D
102
{ACAD_XDICTIONARY
360
66CE
102
}
102
{ACAD_REACTORS
330
5C99
102
}
330
5C99
100
AcDbVisualStyle
  2
GouraudWithEdges
 70
     3
 71
     2
 72
     2
 73
     1
 90
        2
 40
-0.6
 41
30.0
 62
     5
 63
     7
421
 16777215
 74
     1
 91
        4
 64
     7
 65
   257
 75
     1
175
     1
 42
1.0
 92
        0
 66
   257
 43
1.0
 76
     1
 77
     6
 78
     2
 67
     7
 79
     5
170
     0
171
     0
290
     0
174
     0
 93
       13
 44
0.0
173
     0
291
     1
 45
0.0
1001
ACAD
1000
AcDbSavedByObjectVersion
1070
     0
  0
VISUALSTYLE
  5
6055
102
{ACAD_XDICTIONARY
360
66EA
102
}
102
{ACAD_REACTORS
330
5C99
102
}
330
5C99
100
AcDbVisualStyle
  2
Hidden
 70
     6
 71
     1
 72
     2
 73
     2
 90
        0
 40
-0.6
 41
-30.0
 62
     5
 63
     7
421
 16777215
 74
     2
 91
        2
 64
     7
 65
   257
 75
     2
175
     1
 42
40.0
 92
        0
 66
   257
 43
1.0
 76
     1
 77
     6
 78
     2
 67
     7
 79
     3
170
     0
171
     0
290
     0
174
     0
 93
        1
 44
0.0
173
     0
291
     0
 45
0.0
1001
ACAD
1000
AcDbSavedByObjectVersion
1070
     0
  0
VISUALSTYLE
  5
605B
102
{ACAD_XDICTIONARY
360
66F6
102
}
102
{ACAD_REACTORS
330
5C99
102
}
330
5C99
100
AcDbVisualStyle
  2
JitterOff
 70
    20
 71
     2
 72
     2
 73
     0
 90
        0
 40
-0.6
 41
-30.0
 62
     5
 63
     7
421
 16777215
 74
     1
 91
        4
 64
     7
 65
   257
 75
     1
175
     1
 42
1.0
 92
       10
 66
     7
 43
1.0
 76
     1
 77
     6
 78
     2
 67
     7
 79
     5
170
     0
171
     0
290
     0
174
     0
 93
        1
 44
0.0
173
     0
291
     1
 45
0.0
1001
ACAD
1000
AcDbSavedByObjectVersion
1070
     0
  0
VISUALSTYLE
  5
5CA7
102
{ACAD_XDICTIONARY
360
66E2
102
}
102
{ACAD_REACTORS
330
5C99
102
}
330
5C99
100
AcDbVisualStyle
  2
Linepattern
 70
    14
 71
     2
 72
     2
 73
     0
 90
        0
 40
-0.6
 41
-30.0
 62
     5
 63
     7
421
 16777215
 74
     1
 91
        4
 64
     7
 65
   257
 75
     7
175
     7
 42
1.0
 92
        8
 66
     7
 43
1.0
 76
     1
 77
     6
 78
     2
 67
     7
 79
     5
170
     0
171
     0
290
     0
174
     0
 93
        1
 44
0.0
173
     0
291
     1
 45
0.0
1001
ACAD
1000
AcDbSavedByObjectVersion
1070
     0
  0
VISUALSTYLE
  5
605C
102
{ACAD_XDICTIONARY
360
66F8
102
}
102
{ACAD_REACTORS
330
5C99
102
}
330
5C99
100
AcDbVisualStyle
  2
OverhangOff
 70
    21
 71
     2
 72
     2
 73
     0
 90
        0
 40
-0.6
 41
-30.0
 62
     5
 63
     7
421
 16777215
 74
     1
 91
        4
 64
     7
 65
   257
 75
     1
175
     1
 42
1.0
 92
        9
 66
     7
 43
1.0
 76
     1
 77
     6
 78
     2
 67
     7
 79
     5
170
     0
171
     0
290
     0
174
     0
 93
        1
 44
0.0
173
     0
291
     1
 45
0.0
1001
ACAD
1000
AcDbSavedByObjectVersion
1070
     0
  0
VISUALSTYLE
  5
5CA3
102
{ACAD_XDICTIONARY
360
66DA
102
}
102
{ACAD_REACTORS
330
5C99
102
}
330
5C99
100
AcDbVisualStyle
  2
Realistic
 70
     8
 71
     2
 72
     2
 73
     0
 90
        0
 40
-0.6
 41
-30.0
 62
     5
 63
     7
421
 16777215
 74
     1
 91
        0
 64
     7
 65
   257
 75
     1
175
     1
 42
1.0
 92
        8
 66
     8
424
  7895160
 43
1.0
 76
     1
 77
     6
 78
     2
 67
     7
 79
     5
170
     0
171
     0
290
     0
174
     0
 93
       13
 44
0.0
173
     0
291
     0
 45
0.0
1001
ACAD
1000
AcDbSavedByObjectVersion
1070
     0
  0
VISUALSTYLE
  5
605A
102
{ACAD_XDICTIONARY
360
66F4
102
}
102
{ACAD_REACTORS
330
5C99
102
}
330
5C99
100
AcDbVisualStyle
  2
Shaded
 70
    27
 71
     2
 72
     2
 73
     1
 90
        2
 40
-0.6
 41
30.0
 62
     5
 63
     7
421
 16777215
 74
     0
 91
        4
 64
     7
 65
   257
 75
     1
175
     1
 42
1.0
 92
        8
 66
   257
 43
1.0
 76
     1
 77
     6
 78
     2
 67
     8
425
  7895160
 79
     3
170
     0
171
     0
290
     0
174
     0
 93
        5
 44
0.0
173
     0
291
     0
 45
0.0
1001
ACAD
1000
AcDbSavedByObjectVersion
1070
     0
  0
VISUALSTYLE
  5
6059
102
{ACAD_XDICTIONARY
360
66F2
102
}
102
{ACAD_REACTORS
330
5C99
102
}
330
5C99
100
AcDbVisualStyle
  2
Shaded with edges
 70
    26
 71
     2
 72
     2
 73
     1
 90
        2
 40
-0.6
 41
30.0
 62
     5
 63
     7
421
 16777215
 74
     1
 91
       10
 64
     7
 65
   257
 75
     2
175
     1
 42
1.0
 92
        8
 66
   257
 43
1.0
 76
     1
 77
     6
 78
     2
 67
     7
 79
     3
170
     0
171
     0
290
     0
174
     0
 93
        5
 44
0.0
173
     0
291
     0
 45
0.0
1001
ACAD
1000
AcDbSavedByObjectVersion
1070
     0
  0
VISUALSTYLE
  5
6056
102
{ACAD_XDICTIONARY
360
66EC
102
}
102
{ACAD_REACTORS
330
5C99
102
}
330
5C99
100
AcDbVisualStyle
  2
Shades of Gray
 70
    23
 71
     2
 72
     2
 73
     3
 90
        0
 40
-0.6
 41
-30.0
 62
     5
 63
     7
421
 16777215
 74
     2
 91
        2
 64
     7
 65
     7
 75
     1
175
     1
 42
40.0
 92
        8
 66
     7
 43
1.0
 76
     1
 77
     6
 78
     2
 67
     7
 79
     3
170
     0
171
     0
290
     0
174
     0
 93
        1
 44
0.0
173
     0
291
     0
 45
0.0
1001
ACAD
1000
AcDbSavedByObjectVersion
1070
     0
  0
VISUALSTYLE
  5
6057
102
{ACAD_XDICTIONARY
360
66EE
102
}
102
{ACAD_REACTORS
330
5C99
102
}
330
5C99
100
AcDbVisualStyle
  2
Sketchy
 70
    24
 71
     1
 72
     2
 73
     2
 90
        0
 40
-0.6
 41
-30.0
 62
     5
 63
     7
421
 16777215
 74
     2
 91
        2
 64
     7
 65
     7
 75
     1
175
     1
 42
40.0
 92
       11
 66
     7
 43
1.0
 76
     1
 77
     6
 78
     2
 67
     7
 79
     6
170
     0
171
     0
290
     0
174
     0
 93
        1
 44
0.0
173
     0
291
     0
 45
0.0
1001
ACAD
1000
AcDbSavedByObjectVersion
1070
     0
  0
VISUALSTYLE
  5
5CA6
102
{ACAD_XDICTIONARY
360
66E0
102
}
102
{ACAD_REACTORS
330
5C99
102
}
330
5C99
100
AcDbVisualStyle
  2
Thicken
 70
    13
 71
     2
 72
     2
 73
     0
 90
        0
 40
-0.6
 41
-30.0
 62
     5
 63
     7
421
 16777215
 74
     1
 91
        4
 64
     7
 65
   257
 75
     1
175
     1
 42
1.0
 92
       12
 66
     7
 43
1.0
 76
     1
 77
     6
 78
     2
 67
     7
 79
     5
170
     0
171
     0
290
     0
174
     0
 93
        1
 44
0.0
173
     0
291
     1
 45
0.0
1001
ACAD
1000
AcDbSavedByObjectVersion
1070
     0
  0
VISUALSTYLE
  5
6054
102
{ACAD_XDICTIONARY
360
66E8
102
}
102
{ACAD_REACTORS
330
5C99
102
}
330
5C99
100
AcDbVisualStyle
  2
Wireframe
 70
     5
 71
     0
 72
     2
 73
     0
 90
        0
 40
-0.6
 41
-30.0
 62
     5
 63
     7
421
 16777215
 74
     1
 91
        4
 64
     7
 65
   257
 75
     1
175
     1
 42
1.0
 92
        0
 66
   257
 43
1.0
 76
     1
 77
     6
 78
     2
 67
     7
 79
     3
170
     0
171
     0
290
     0
174
     0
 93
        1
 44
0.0
173
     0
291
     0
 45
0.0
1001
ACAD
1000
AcDbSavedByObjectVersion
1070
     0
  0
VISUALSTYLE
  5
6058
102
{ACAD_XDICTIONARY
360
66F0
102
}
102
{ACAD_REACTORS
330
5C99
102
}
330
5C99
100
AcDbVisualStyle
  2
X-Ray
 70
    25
 71
     2
 72
     2
 73
     1
 90
        1
 40
0.5
 41
-30.0
 62
     5
 63
     7
421
 16777215
 74
     1
 91
        0
 64
     7
 65
   257
 75
     1
175
     1
 42
1.0
 92
        8
 66
     7
 43
1.0
 76
     1
 77
     6
 78
     2
 67
     7
 79
     3
170
     0
171
     0
290
     0
174
     0
 93
       13
 44
0.0
173
     0
291
     0
 45
0.0
1001
ACAD
1000
AcDbSavedByObjectVersion
1070
     0
  0
DICTIONARYVAR
  5
5D08
102
{ACAD_REACTORS
330
C2
102
}
330
C2
100
DictionaryVariables
280
     0
  1
1:1
  0
DICTIONARYVAR
  5
5D07
102
{ACAD_REACTORS
330
C2
102
}
330
C2
100
DictionaryVariables
280
     0
  1
STANDARD
  0
DICTIONARYVAR
  5
2347
102
{ACAD_REACTORS
330
C2
102
}
330
C2
100
DictionaryVariables
280
     0
  1
STANDARD
  0
DICTIONARYVAR
  5
60DC
102
{ACAD_REACTORS
330
C2
102
}
330
C2
100
DictionaryVariables
280
     0
  1
Metric50
  0
DICTIONARYVAR
  5
60DD
102
{ACAD_REACTORS
330
C2
102
}
330
C2
100
DictionaryVariables
280
     0
  1
Metric50
  0
DICTIONARYVAR
  5
59F3
102
{ACAD_REACTORS
330
C2
102
}
330
C2
100
DictionaryVariables
280
     0
  1
1
  0
DICTIONARYVAR
  5
59F4
102
{ACAD_REACTORS
330
C2
102
}
330
C2
100
DictionaryVariables
280
     0
  1

  0
DICTIONARYVAR
  5
C3
102
{ACAD_REACTORS
330
C2
102
}
330
C2
100
DictionaryVariables
280
     0
  1
112
  0
DICTIONARY
  5
66C0
102
{ACAD_REACTORS
330
66BE
102
}
330
66BE
100
AcDbDictionary
281
     1
  0
DICTIONARY
  5
66BF
102
{ACAD_REACTORS
330
66BE
102
}
330
66BE
100
AcDbDictionary
281
     1
  3
8796087893264
350
66B9
  3
8796087893280
350
66BA
  3
8796087893296
350
66BB
  3
8796087893312
350
66BC
  3
8796087893328
350
66BD
  0
XRECORD
  5
625A
102
{ACAD_REACTORS
330
6259
102
}
330
6259
100
AcDbXrecord
280
     1
330
5DF7
330
5DF8
330
5E57
330
5E58
330
0
330
0
  0
XRECORD
  5
5BF4
102
{ACAD_REACTORS
330
5BF2
102
}
330
5BF2
100
AcDbXrecord
280
     1
  1
1stFloor
  1
*F1
  1
*
  1
*
 70
     0
  1
*
  1
*
1001
ACAD
1000
( NAME== "*F1" )
  0
XRECORD
  5
5C2A
102
{ACAD_REACTORS
330
5BF2
102
}
330
5BF2
100
AcDbXrecord
280
     1
  1
2ndFloor
  1
*F2
  1
*
  1
*
 70
     0
  1
*
  1
*
1001
ACAD
1000
( NAME== "*F2" )
  0
XRECORD
  5
5C5A
102
{ACAD_REACTORS
330
5BF2
102
}
330
5BF2
100
AcDbXrecord
280
     1
  1
3D
  1
3D *
  1
*
  1
*
 70
     0
  1
*
  1
*
1001
ACAD
1000
( NAME== "3D *" )
  0
XRECORD
  5
5C0E
102
{ACAD_REACTORS
330
5BF2
102
}
330
5BF2
100
AcDbXrecord
280
     1
  1
a00
  1
a00*
  1
*
  1
*
 70
     0
  1
*
  1
*
1001
ACAD
1000
( NAME== "a00*" )
  0
XRECORD
  5
5C5C
102
{ACAD_REACTORS
330
5BF2
102
}
330
5BF2
100
AcDbXrecord
280
     1
  1
All levels
  1
F* *
  1
*
  1
*
 70
     0
  1
*
  1
*
1001
ACAD
1000
( NAME== "F* *" )
  0
XRECORD
  5
5C3C
102
{ACAD_REACTORS
330
5BF2
102
}
330
5BF2
100
AcDbXrecord
280
     1
  1
cd
  1
cd_*
  1
*
  1
*
 70
     0
  1
*
  1
*
1001
ACAD
1000
( NAME== "cd_*" )
  0
XRECORD
  5
5C0C
102
{ACAD_REACTORS
330
5BF2
102
}
330
5BF2
100
AcDbXrecord
280
     1
  1
cd-ht
  1
??_*
  1
*
  1
*
 70
     0
  1
*
  1
*
1001
ACAD
1000
( NAME== "??_*" )
  0
XRECORD
  5
5C3E
102
{ACAD_REACTORS
330
5BF2
102
}
330
5BF2
100
AcDbXrecord
280
     1
  1
ceiling plan
  1
*
  1
*
  1
*
 70
     0
  1
*
  1
*
1001
ACAD
1000
NAME=="*"
  0
XRECORD
  5
5C56
102
{ACAD_REACTORS
330
5BF2
102
}
330
5BF2
100
AcDbXrecord
280
     1
  1
Combo
  1
*Fc
  1
*
  1
*
 70
     0
  1
*
  1
*
1001
ACAD
1000
( NAME== "*Fc" )
  0
XRECORD
  5
5C36
102
{ACAD_REACTORS
330
5BF2
102
}
330
5BF2
100
AcDbXrecord
280
     1
  1
Construction
  1
Fst_*,Gnd_*
  1
*
  1
*
 70
     0
  1
*
  1
*
1001
ACAD
1000
( NAME== "Fst_*" or NAME== "Gnd_*" )
  0
XRECORD
  5
5C00
102
{ACAD_REACTORS
330
5BF2
102
}
330
5BF2
100
AcDbXrecord
280
     1
  1
DASHDOT
  1
*
  1
*
  1
DASHDOT
 70
     0
  1
*
  1
*
1001
ACAD
1000
( LINETYPE== "DASHDOT" )
  0
XRECORD
  5
5C1C
102
{ACAD_REACTORS
330
5BF2
102
}
330
5BF2
100
AcDbXrecord
280
     1
  1
Elevations
  1
E-*
  1
*
  1
*
 70
     0
  1
*
  1
*
1001
ACAD
1000
( NAME== "E-*" )
  0
XRECORD
  5
5C02
102
{ACAD_REACTORS
330
5BF2
102
}
330
5BF2
100
AcDbXrecord
280
     1
  1
f
  1
*
  1
*
  1
*
 70
    16
  1
*
  1
*
1001
ACAD
1000
VPFROZEN == "TRUE"
  0
XRECORD
  5
5C46
102
{ACAD_REACTORS
330
5BF2
102
}
330
5BF2
100
AcDbXrecord
280
     1
  1
F000
  1
F000*
  1
*
  1
*
 70
     0
  1
*
  1
*
1001
ACAD
1000
( NAME== "F000*" )
  0
XRECORD
  5
5C1A
102
{ACAD_REACTORS
330
5BF2
102
}
330
5BF2
100
AcDbXrecord
280
     1
  1
F001
  1
F001*
  1
*
  1
*
 70
     0
  1
*
  1
*
1001
ACAD
1000
( NAME== "F001*" )
  0
XRECORD
  5
5C48
102
{ACAD_REACTORS
330
5BF2
102
}
330
5BF2
100
AcDbXrecord
280
     1
  1
F002
  1
F002*
  1
*
  1
*
 70
     0
  1
*
  1
*
1001
ACAD
1000
( NAME== "F002*" )
  0
XRECORD
  5
5C5E
102
{ACAD_REACTORS
330
5BF2
102
}
330
5BF2
100
AcDbXrecord
280
     1
  1
F100
  1
F100*
  1
*
  1
*
 70
     0
  1
*
  1
*
1001
ACAD
1000
( NAME== "F100*" )
  0
XRECORD
  5
5BFA
102
{ACAD_REACTORS
330
5BF2
102
}
330
5BF2
100
AcDbXrecord
280
     1
  1
F200
  1
F200*
  1
*
  1
*
 70
     0
  1
*
  1
*
1001
ACAD
1000
( NAME== "F200*" )
  0
XRECORD
  5
5C10
102
{ACAD_REACTORS
330
5BF2
102
}
330
5BF2
100
AcDbXrecord
280
     1
  1
First Floor
  1
Fst*
  1
*
  1
*
 70
     0
  1
*
  1
*
1001
ACAD
1000
( NAME== "Fst*" )
  0
XRECORD
  5
5C12
102
{ACAD_REACTORS
330
5BF2
102
}
330
5BF2
100
AcDbXrecord
280
     1
  1
Fix
  1
*fix*
  1
*
  1
*
 70
     0
  1
*
  1
*
1001
ACAD
1000
( NAME== "*fix*" )
  0
XRECORD
  5
5C50
102
{ACAD_REACTORS
330
5BF2
102
}
330
5BF2
100
AcDbXrecord
280
     1
  1
Floor Layers
  1
F*
  1
*
  1
*
 70
     0
  1
*
  1
*
1001
ACAD
1000
( NAME== "F*" )
  0
XRECORD
  5
5C28
102
{ACAD_REACTORS
330
5BF2
102
}
330
5BF2
100
AcDbXrecord
280
     1
  1
Frez
  1
*Frez
  1
*
  1
*
 70
     0
  1
*
  1
*
1001
ACAD
1000
( NAME== "*Frez" )
  0
XRECORD
  5
5C52
102
{ACAD_REACTORS
330
5BF2
102
}
330
5BF2
100
AcDbXrecord
280
     1
  1
Gndfloor
  1
*gnd*
  1
*
  1
*
 70
     0
  1
*
  1
*
1001
ACAD
1000
( NAME== "*gnd*" )
  0
XRECORD
  5
5C04
102
{ACAD_REACTORS
330
5BF2
102
}
330
5BF2
100
AcDbXrecord
280
     1
  1
Ground Floor
  1
Gnd*
  1
*
  1
*
 70
     0
  1
*
  1
*
1001
ACAD
1000
( NAME== "Gnd*" )
  0
XRECORD
  5
5C0A
102
{ACAD_REACTORS
330
5BF2
102
}
330
5BF2
100
AcDbXrecord
280
     1
  1
Groungfloor
  1
Ground*
  1
*
  1
*
 70
     0
  1
*
  1
*
1001
ACAD
1000
( NAME== "Ground*" )
  0
XRECORD
  5
5C1E
102
{ACAD_REACTORS
330
5BF2
102
}
330
5BF2
100
AcDbXrecord
280
     1
  1
HB_X
  1
HB_X*
  1
*
  1
*
 70
     0
  1
*
  1
*
1001
ACAD
1000
( NAME== "HB_X*" )
  0
XRECORD
  5
5C20
102
{ACAD_REACTORS
330
5BF2
102
}
330
5BF2
100
AcDbXrecord
280
     1
  1
HH
  1
*
  1
*
  1
*
 70
    80
  1
*
  1
*
1001
ACAD
1000
VPFROZEN == "TRUE" and NEWVPFROZEN == "TRUE"
  0
XRECORD
  5
5C58
102
{ACAD_REACTORS
330
5BF2
102
}
330
5BF2
100
AcDbXrecord
280
     1
  1
Interiors
  1
intel_*
  1
*
  1
*
 70
     0
  1
*
  1
*
1001
ACAD
1000
( NAME== "intel_*" )
  0
XRECORD
  5
5C34
102
{ACAD_REACTORS
330
5BF2
102
}
330
5BF2
100
AcDbXrecord
280
     1
  1
JAMES
  1
*
  1
*
  1
*
 70
    16
  1
*
  1
*
1001
ACAD
1000
VPFROZEN == "TRUE"
  0
XRECORD
  5
5C14
102
{ACAD_REACTORS
330
5BF2
102
}
330
5BF2
100
AcDbXrecord
280
     1
  1
KRB
  1
*KRB*
  1
*
  1
*
 70
     0
  1
*
  1
*
1001
ACAD
1000
( NAME== "*KRB*" )
  0
XRECORD
  5
5BF6
102
{ACAD_REACTORS
330
5BF2
102
}
330
5BF2
100
AcDbXrecord
280
     1
  1
L0-1-2-3
  1
L*
  1
*
  1
*
 70
     0
  1
*
  1
*
1001
ACAD
1000
( NAME== "L*" )
  0
XRECORD
  5
5C2C
102
{ACAD_REACTORS
330
5BF2
102
}
330
5BF2
100
AcDbXrecord
280
     1
  1
LAYERON
  1
*
  1
*
  1
*
 70
    12
  1
*
  1
*
1001
ACAD
1000
FROZEN == "FALSE"
  0
XRECORD
  5
5BF8
102
{ACAD_REACTORS
330
5BF2
102
}
330
5BF2
100
AcDbXrecord
280
     1
  1
Lower
  1
*low*
  1
*
  1
*
 70
     0
  1
*
  1
*
1001
ACAD
1000
( NAME== "*low*" )
  0
XRECORD
  5
5BFE
102
{ACAD_REACTORS
330
5BF2
102
}
330
5BF2
100
AcDbXrecord
280
     1
  1
n
  1
*
  1
*
  1
*
 70
    64
  1
*
  1
*
1001
ACAD
1000
NEWVPFROZEN == "TRUE"
  0
XRECORD
  5
5C40
102
{ACAD_REACTORS
330
5BF2
102
}
330
5BF2
100
AcDbXrecord
280
     1
  1
on
  1
*
  1
*
  1
*
 70
    13
  1
*
  1
*
1001
ACAD
1000
OFF == "FALSE" and FROZEN == "FALSE"
  0
XRECORD
  5
5C22
102
{ACAD_REACTORS
330
5BF2
102
}
330
5BF2
100
AcDbXrecord
280
     1
  1
R100
  1
R100*
  1
*
  1
*
 70
     0
  1
*
  1
*
1001
ACAD
1000
( NAME== "R100*" )
  0
XRECORD
  5
5C06
102
{ACAD_REACTORS
330
5BF2
102
}
330
5BF2
100
AcDbXrecord
280
     1
  1
RC2
  1
*
  1
*
  1
*
 70
    48
  1
*
  1
*
1001
ACAD
1000
VPFROZEN == "FALSE"
  0
XRECORD
  5
5C38
102
{ACAD_REACTORS
330
5BF2
102
}
330
5BF2
100
AcDbXrecord
280
     1
  1
RC_Ground
  1
*
  1
*
  1
*
 70
    60
  1
*
  1
*
1001
ACAD
1000
FROZEN == "FALSE" and VPFROZEN == "FALSE"
  0
XRECORD
  5
5C08
102
{ACAD_REACTORS
330
5BF2
102
}
330
5BF2
100
AcDbXrecord
280
     1
  1
RED
  1
*
  1
6
  1
*
 70
     0
  1
*
  1
*
1001
ACAD
1000
( COLOR== "6" )
  0
XRECORD
  5
5C4A
102
{ACAD_REACTORS
330
5BF2
102
}
330
5BF2
100
AcDbXrecord
280
     1
  1
Roof
  1
*Rf
  1
*
  1
*
 70
     0
  1
*
  1
*
1001
ACAD
1000
( NAME== "*Rf" )
  0
XRECORD
  5
5C2E
102
{ACAD_REACTORS
330
5BF2
102
}
330
5BF2
100
AcDbXrecord
280
     1
  1
S000
  1
S000*
  1
*
  1
*
 70
     0
  1
*
  1
*
1001
ACAD
1000
( NAME== "S000*" )
  0
XRECORD
  5
5C16
102
{ACAD_REACTORS
330
5BF2
102
}
330
5BF2
100
AcDbXrecord
280
     1
  1
Section
  1
Section*
  1
*
  1
*
 70
     0
  1
*
  1
*
1001
ACAD
1000
( NAME== "Section*" )
  0
XRECORD
  5
5C42
102
{ACAD_REACTORS
330
5BF2
102
}
330
5BF2
100
AcDbXrecord
280
     1
  1
SiteOnly
  1
*S-*
  1
*
  1
*
 70
     0
  1
*
  1
*
1001
ACAD
1000
( NAME== "*S-*" )
  0
XRECORD
  5
5C18
102
{ACAD_REACTORS
330
5BF2
102
}
330
5BF2
100
AcDbXrecord
280
     1
  1
t
  1
*
  1
*
  1
*
 70
     4
  1
*
  1
*
1001
ACAD
1000
FROZEN == "TRUE"
  0
XRECORD
  5
5C54
102
{ACAD_REACTORS
330
5BF2
102
}
330
5BF2
100
AcDbXrecord
280
     1
  1
test
  1
*
  1
*
  1
*
 70
     1
  1
*
  1
*
1001
ACAD
1000
OFF == "FALSE"
  0
XRECORD
  5
5C3A
102
{ACAD_REACTORS
330
5BF2
102
}
330
5BF2
100
AcDbXrecord
280
     1
  1
THAW
  1
*
  1
*
  1
*
 70
    12
  1
*
  1
*
1001
ACAD
1000
FROZEN == "FALSE"
  0
XRECORD
  5
5C24
102
{ACAD_REACTORS
330
5BF2
102
}
330
5BF2
100
AcDbXrecord
280
     1
  1
THL
  1
TP*
  1
*
  1
*
 70
     0
  1
*
  1
*
1001
ACAD
1000
( NAME== "TP*" )
  0
XRECORD
  5
5C4C
102
{ACAD_REACTORS
330
5BF2
102
}
330
5BF2
100
AcDbXrecord
280
     1
  1
TILEEDGE
  1
*
  1
*
  1
*
 70
     0
  1
*
  1
*
1001
ACAD
1000
NAME=="*"
  0
XRECORD
  5
5C26
102
{ACAD_REACTORS
330
5BF2
102
}
330
5BF2
100
AcDbXrecord
280
     1
  1
TP
  1
TP*
  1
*
  1
*
 70
     0
  1
*
  1
*
1001
ACAD
1000
( NAME== "TP*" )
  0
XRECORD
  5
5C44
102
{ACAD_REACTORS
330
5BF2
102
}
330
5BF2
100
AcDbXrecord
280
     1
  1
viewports
  1
*
  1
*
  1
*
 70
    16
  1
*
  1
*
1001
ACAD
1000
VPFROZEN == "TRUE"
  0
XRECORD
  5
5C30
102
{ACAD_REACTORS
330
5BF2
102
}
330
5BF2
100
AcDbXrecord
280
     1
  1
w
  1
*w*
  1
*
  1
*
 70
     0
  1
*
  1
*
1001
ACAD
1000
( NAME== "*w*" )
  0
XRECORD
  5
5BFC
102
{ACAD_REACTORS
330
5BF2
102
}
330
5BF2
100
AcDbXrecord
280
     1
  1
waitakere
  1
wait*
  1
*
  1
*
 70
     0
  1
*
  1
*
1001
ACAD
1000
( NAME== "wait*" )
  0
XRECORD
  5
5C32
102
{ACAD_REACTORS
330
5BF2
102
}
330
5BF2
100
AcDbXrecord
280
     1
  1
WHITE
  1
*
  1
7
  1
*
 70
     0
  1
*
  1
*
1001
ACAD
1000
( COLOR== "7" )
  0
XRECORD
  5
5C4E
102
{ACAD_REACTORS
330
5BF2
102
}
330
5BF2
100
AcDbXrecord
280
     1
  1
Xref
  1
X_*
  1
*
  1
*
 70
     0
  1
*
  1
*
1001
ACAD
1000
( NAME== "X_*" )
  0
XRECORD
  5
5BF3
102
{ACAD_REACTORS
330
5BF1
102
}
330
5BF1
100
AcDbXrecord
280
     1
  1
AcLyLayerFilter
 90
        1
300
1stFloor
301
( NAME== "*F1" )
  0
XRECORD
  5
5C4F
102
{ACAD_REACTORS
330
5BF1
102
}
330
5BF1
100
AcDbXrecord
280
     1
  1
AcLyLayerFilter
 90
        1
300
Floor Layers
301
( NAME== "F*" )
  0
XRECORD
  5
5C53
102
{ACAD_REACTORS
330
5BF1
102
}
330
5BF1
100
AcDbXrecord
280
     1
  1
AcLyLayerFilter
 90
        1
300
test
301
OFF == "FALSE"
  0
XRECORD
  5
5C3B
102
{ACAD_REACTORS
330
5BF1
102
}
330
5BF1
100
AcDbXrecord
280
     1
  1
AcLyLayerFilter
 90
        1
300
cd
301
( NAME== "cd_*" )
  0
XRECORD
  5
5C1D
102
{ACAD_REACTORS
330
5BF1
102
}
330
5BF1
100
AcDbXrecord
280
     1
  1
AcLyLayerFilter
 90
        1
300
HB_X
301
( NAME== "HB_X*" )
  0
XRECORD
  5
5BF5
102
{ACAD_REACTORS
330
5BF1
102
}
330
5BF1
100
AcDbXrecord
280
     1
  1
AcLyLayerFilter
 90
        1
300
L0-1-2-3
301
( NAME== "L*" )
  0
XRECORD
  5
5C31
102
{ACAD_REACTORS
330
5BF1
102
}
330
5BF1
100
AcDbXrecord
280
     1
  1
AcLyLayerFilter
 90
        1
300
WHITE
301
( COLOR== "7" )
  0
XRECORD
  5
5C33
102
{ACAD_REACTORS
330
5BF1
102
}
330
5BF1
100
AcDbXrecord
280
     1
  1
AcLyLayerFilter
 90
        1
300
JAMES
301
VPFROZEN == "TRUE"
  0
XRECORD
  5
5C43
102
{ACAD_REACTORS
330
5BF1
102
}
330
5BF1
100
AcDbXrecord
280
     1
  1
AcLyLayerFilter
 90
        1
300
viewports
301
VPFROZEN == "TRUE"
  0
XRECORD
  5
5C57
102
{ACAD_REACTORS
330
5BF1
102
}
330
5BF1
100
AcDbXrecord
280
     1
  1
AcLyLayerFilter
 90
        1
300
Interiors
301
( NAME== "intel_*" )
  0
XRECORD
  5
5C5B
102
{ACAD_REACTORS
330
5BF1
102
}
330
5BF1
100
AcDbXrecord
280
     1
  1
AcLyLayerFilter
 90
        1
300
All levels
301
( NAME== "F* *" )
  0
XRECORD
  5
5C45
102
{ACAD_REACTORS
330
5BF1
102
}
330
5BF1
100
AcDbXrecord
280
     1
  1
AcLyLayerFilter
 90
        1
300
F000
301
( NAME== "F000*" )
  0
XRECORD
  5
5C2B
102
{ACAD_REACTORS
330
5BF1
102
}
330
5BF1
100
AcDbXrecord
280
     1
  1
AcLyLayerFilter
 90
        1
300
LAYERON
301
FROZEN == "FALSE"
  0
XRECORD
  5
5C05
102
{ACAD_REACTORS
330
5BF1
102
}
330
5BF1
100
AcDbXrecord
280
     1
  1
AcLyLayerFilter
 90
        1
300
RC2
301
VPFROZEN == "FALSE"
  0
XRECORD
  5
5C3D
102
{ACAD_REACTORS
330
5BF1
102
}
330
5BF1
100
AcDbXrecord
280
     1
  1
AcLyLayerFilter
 90
        1
300
ceiling plan
301
NAME=="*"
  0
XRECORD
  5
5C3F
102
{ACAD_REACTORS
330
5BF1
102
}
330
5BF1
100
AcDbXrecord
280
     1
  1
AcLyLayerFilter
 90
        1
300
on
301
OFF == "FALSE" and FROZEN == "FALSE"
  0
XRECORD
  5
5C4D
102
{ACAD_REACTORS
330
5BF1
102
}
330
5BF1
100
AcDbXrecord
280
     1
  1
AcLyLayerFilter
 90
        1
300
Xref
301
( NAME== "X_*" )
  0
XRECORD
  5
5BFD
102
{ACAD_REACTORS
330
5BF1
102
}
330
5BF1
100
AcDbXrecord
280
     1
  1
AcLyLayerFilter
 90
        1
300
n
301
NEWVPFROZEN == "TRUE"
  0
XRECORD
  5
5C01
102
{ACAD_REACTORS
330
5BF1
102
}
330
5BF1
100
AcDbXrecord
280
     1
  1
AcLyLayerFilter
 90
        1
300
f
301
VPFROZEN == "TRUE"
  0
XRECORD
  5
5C37
102
{ACAD_REACTORS
330
5BF1
102
}
330
5BF1
100
AcDbXrecord
280
     1
  1
AcLyLayerFilter
 90
        1
300
RC_Ground
301
FROZEN == "FALSE" and VPFROZEN == "FALSE"
  0
XRECORD
  5
5C15
102
{ACAD_REACTORS
330
5BF1
102
}
330
5BF1
100
AcDbXrecord
280
     1
  1
AcLyLayerFilter
 90
        1
300
Section
301
( NAME== "Section*" )
  0
XRECORD
  5
5C47
102
{ACAD_REACTORS
330
5BF1
102
}
330
5BF1
100
AcDbXrecord
280
     1
  1
AcLyLayerFilter
 90
        1
300
F002
301
( NAME== "F002*" )
  0
XRECORD
  5
5C49
102
{ACAD_REACTORS
330
5BF1
102
}
330
5BF1
100
AcDbXrecord
280
     1
  1
AcLyLayerFilter
 90
        1
300
Roof
301
( NAME== "*Rf" )
  0
XRECORD
  5
5C55
102
{ACAD_REACTORS
330
5BF1
102
}
330
5BF1
100
AcDbXrecord
280
     1
  1
AcLyLayerFilter
 90
        1
300
Combo
301
( NAME== "*Fc" )
  0
XRECORD
  5
5C0D
102
{ACAD_REACTORS
330
5BF1
102
}
330
5BF1
100
AcDbXrecord
280
     1
  1
AcLyLayerFilter
 90
        1
300
a00
301
( NAME== "a00*" )
  0
XRECORD
  5
5C11
102
{ACAD_REACTORS
330
5BF1
102
}
330
5BF1
100
AcDbXrecord
280
     1
  1
AcLyLayerFilter
 90
        1
300
Fix
301
( NAME== "*fix*" )
  0
XRECORD
  5
5C41
102
{ACAD_REACTORS
330
5BF1
102
}
330
5BF1
100
AcDbXrecord
280
     1
  1
AcLyLayerFilter
 90
        1
300
SiteOnly
301
( NAME== "*S-*" )
  0
XRECORD
  5
5C23
102
{ACAD_REACTORS
330
5BF1
102
}
330
5BF1
100
AcDbXrecord
280
     1
  1
AcLyLayerFilter
 90
        1
300
THL
301
( NAME== "TP*" )
  0
XRECORD
  5
5C51
102
{ACAD_REACTORS
330
5BF1
102
}
330
5BF1
100
AcDbXrecord
280
     1
  1
AcLyLayerFilter
 90
        1
300
Gndfloor
301
( NAME== "*gnd*" )
  0
XRECORD
  5
5C5D
102
{ACAD_REACTORS
330
5BF1
102
}
330
5BF1
100
AcDbXrecord
280
     1
  1
AcLyLayerFilter
 90
        1
300
F100
301
( NAME== "F100*" )
  0
XRECORD
  5
5C1B
102
{ACAD_REACTORS
330
5BF1
102
}
330
5BF1
100
AcDbXrecord
280
     1
  1
AcLyLayerFilter
 90
        1
300
Elevations
301
( NAME== "E-*" )
  0
XRECORD
  5
5C1F
102
{ACAD_REACTORS
330
5BF1
102
}
330
5BF1
100
AcDbXrecord
280
     1
  1
AcLyLayerFilter
 90
        1
300
HH
301
VPFROZEN == "TRUE" and NEWVPFROZEN == "TRUE"
  0
XRECORD
  5
5C4B
102
{ACAD_REACTORS
330
5BF1
102
}
330
5BF1
100
AcDbXrecord
280
     1
  1
AcLyLayerFilter
 90
        1
300
TILEEDGE
301
NAME=="*"
  0
XRECORD
  5
5C2F
102
{ACAD_REACTORS
330
5BF1
102
}
330
5BF1
100
AcDbXrecord
280
     1
  1
AcLyLayerFilter
 90
        1
300
w
301
( NAME== "*w*" )
  0
XRECORD
  5
5C59
102
{ACAD_REACTORS
330
5BF1
102
}
330
5BF1
100
AcDbXrecord
280
     1
  1
AcLyLayerFilter
 90
        1
300
3D
301
( NAME== "3D *" )
  0
XRECORD
  5
5C03
102
{ACAD_REACTORS
330
5BF1
102
}
330
5BF1
100
AcDbXrecord
280
     1
  1
AcLyLayerFilter
 90
        1
300
Ground Floor
301
( NAME== "Gnd*" )
  0
XRECORD
  5
5C29
102
{ACAD_REACTORS
330
5BF1
102
}
330
5BF1
100
AcDbXrecord
280
     1
  1
AcLyLayerFilter
 90
        1
300
2ndFloor
301
( NAME== "*F2" )
  0
XRECORD
  5
5BF7
102
{ACAD_REACTORS
330
5BF1
102
}
330
5BF1
100
AcDbXrecord
280
     1
  1
AcLyLayerFilter
 90
        1
300
Lower
301
( NAME== "*low*" )
  0
XRECORD
  5
5BFB
102
{ACAD_REACTORS
330
5BF1
102
}
330
5BF1
100
AcDbXrecord
280
     1
  1
AcLyLayerFilter
 90
        1
300
waitakere
301
( NAME== "wait*" )
  0
XRECORD
  5
5BFF
102
{ACAD_REACTORS
330
5BF1
102
}
330
5BF1
100
AcDbXrecord
280
     1
  1
AcLyLayerFilter
 90
        1
300
DASHDOT
301
( LINETYPE== "DASHDOT" )
  0
XRECORD
  5
5C13
102
{ACAD_REACTORS
330
5BF1
102
}
330
5BF1
100
AcDbXrecord
280
     1
  1
AcLyLayerFilter
 90
        1
300
KRB
301
( NAME== "*KRB*" )
  0
XRECORD
  5
5C35
102
{ACAD_REACTORS
330
5BF1
102
}
330
5BF1
100
AcDbXrecord
280
     1
  1
AcLyLayerFilter
 90
        1
300
Construction
301
( NAME== "Gnd_*" or NAME== "Fst_*" )
  0
XRECORD
  5
5C07
102
{ACAD_REACTORS
330
5BF1
102
}
330
5BF1
100
AcDbXrecord
280
     1
  1
AcLyLayerFilter
 90
        1
300
RED
301
( COLOR== "6" )
  0
XRECORD
  5
5C0B
102
{ACAD_REACTORS
330
5BF1
102
}
330
5BF1
100
AcDbXrecord
280
     1
  1
AcLyLayerFilter
 90
        1
300
cd-ht
301
( NAME== "??_*" )
  0
XRECORD
  5
5C0F
102
{ACAD_REACTORS
330
5BF1
102
}
330
5BF1
100
AcDbXrecord
280
     1
  1
AcLyLayerFilter
 90
        1
300
First Floor
301
( NAME== "Fst*" )
  0
XRECORD
  5
5C21
102
{ACAD_REACTORS
330
5BF1
102
}
330
5BF1
100
AcDbXrecord
280
     1
  1
AcLyLayerFilter
 90
        1
300
R100
301
( NAME== "R100*" )
  0
XRECORD
  5
5BF9
102
{ACAD_REACTORS
330
5BF1
102
}
330
5BF1
100
AcDbXrecord
280
     1
  1
AcLyLayerFilter
 90
        1
300
F200
301
( NAME== "F200*" )
  0
XRECORD
  5
5C17
102
{ACAD_REACTORS
330
5BF1
102
}
330
5BF1
100
AcDbXrecord
280
     1
  1
AcLyLayerFilter
 90
        1
300
t
301
FROZEN == "TRUE"
  0
XRECORD
  5
5C19
102
{ACAD_REACTORS
330
5BF1
102
}
330
5BF1
100
AcDbXrecord
280
     1
  1
AcLyLayerFilter
 90
        1
300
F001
301
( NAME== "F001*" )
  0
XRECORD
  5
5C2D
102
{ACAD_REACTORS
330
5BF1
102
}
330
5BF1
100
AcDbXrecord
280
     1
  1
AcLyLayerFilter
 90
        1
300
S000
301
( NAME== "S000*" )
  0
XRECORD
  5
5C09
102
{ACAD_REACTORS
330
5BF1
102
}
330
5BF1
100
AcDbXrecord
280
     1
  1
AcLyLayerFilter
 90
        1
300
Groungfloor
301
( NAME== "Ground*" )
  0
XRECORD
  5
5C25
102
{ACAD_REACTORS
330
5BF1
102
}
330
5BF1
100
AcDbXrecord
280
     1
  1
AcLyLayerFilter
 90
        1
300
TP
301
( NAME== "TP*" )
  0
XRECORD
  5
5C27
102
{ACAD_REACTORS
330
5BF1
102
}
330
5BF1
100
AcDbXrecord
280
     1
  1
AcLyLayerFilter
 90
        1
300
Frez
301
( NAME== "*Frez" )
  0
XRECORD
  5
5C39
102
{ACAD_REACTORS
330
5BF1
102
}
330
5BF1
100
AcDbXrecord
280
     1
  1
AcLyLayerFilter
 90
        1
300
THAW
301
FROZEN == "FALSE"
  0
DICTIONARY
  5
2E1C
330
2E1B
100
AcDbDictionary
280
     1
281
     1
  3
ADSK_XREC_LAYOUTTHUMBNAIL
360
2E1D
  0
DICTIONARY
  5
5C8A
330
5C89
100
AcDbDictionary
280
     1
281
     1
  3
ACAD_XREC_ROUNDTRIP
360
66C6
  3
BUMPTILE
360
5C8C
  3
DIFFUSETILE
360
5C8B
  3
OPACITYTILE
360
5C8F
  3
REFLECTIONTILE
360
5C8E
  3
REFRACTIONTILE
360
5C90
  3
SPECULARTILE
360
5C8D
  0
DICTIONARY
  5
5C82
330
5C81
100
AcDbDictionary
280
     1
281
     1
  3
ACAD_XREC_ROUNDTRIP
360
66C5
  3
BUMPTILE
360
5C84
  3
DIFFUSETILE
360
5C83
  3
OPACITYTILE
360
5C87
  3
REFLECTIONTILE
360
5C86
  3
REFRACTIONTILE
360
5C88
  3
SPECULARTILE
360
5C85
  0
DICTIONARY
  5
5C92
330
5C91
100
AcDbDictionary
280
     1
281
     1
  3
ACAD_XREC_ROUNDTRIP
360
66C7
  3
BUMPTILE
360
5C94
  3
DIFFUSETILE
360
5C93
  3
OPACITYTILE
360
5C97
  3
REFLECTIONTILE
360
5C96
  3
REFRACTIONTILE
360
5C98
  3
SPECULARTILE
360
5C95
  0
DICTIONARY
  5
5D56
330
1AA3
100
AcDbDictionary
280
     1
281
     1
  3
ACAD_ROUNDTRIP_2008_TABLESTYLE_CELLSTYLEMAP
360
66B3
  3
ACAD_XREC_ROUNDTRIP
360
66C1
  0
DICTIONARY
  5
66D2
330
5C9F
100
AcDbDictionary
280
     1
281
     1
  3
ACAD_XREC_ROUNDTRIP
360
66D3
  0
DICTIONARY
  5
66D6
330
5CA1
100
AcDbDictionary
280
     1
281
     1
  3
ACAD_XREC_ROUNDTRIP
360
66D7
  0
DICTIONARY
  5
66D4
330
5CA0
100
AcDbDictionary
280
     1
281
     1
  3
ACAD_XREC_ROUNDTRIP
360
66D5
  0
DICTIONARY
  5
66D0
330
5C9E
100
AcDbDictionary
280
     1
281
     1
  3
ACAD_XREC_ROUNDTRIP
360
66D1
  0
DICTIONARY
  5
66DE
330
5CA5
100
AcDbDictionary
280
     1
281
     1
  3
ACAD_XREC_ROUNDTRIP
360
66DF
  0
DICTIONARY
  5
66E6
330
5CA9
100
AcDbDictionary
280
     1
281
     1
  3
ACAD_XREC_ROUNDTRIP
360
66E7
  0
DICTIONARY
  5
66D8
330
5CA2
100
AcDbDictionary
280
     1
281
     1
  3
ACAD_XREC_ROUNDTRIP
360
66D9
  0
DICTIONARY
  5
66DC
330
5CA4
100
AcDbDictionary
280
     1
281
     1
  3
ACAD_XREC_ROUNDTRIP
360
66DD
  0
DICTIONARY
  5
66FA
330
605D
100
AcDbDictionary
280
     1
281
     1
  3
ACAD_XREC_ROUNDTRIP
360
66FB
  0
DICTIONARY
  5
66E4
330
5CA8
100
AcDbDictionary
280
     1
281
     1
  3
ACAD_XREC_ROUNDTRIP
360
66E5
  0
DICTIONARY
  5
66C8
330
5C9A
100
AcDbDictionary
280
     1
281
     1
  3
ACAD_XREC_ROUNDTRIP
360
66C9
  0
DICTIONARY
  5
66CA
330
5C9B
100
AcDbDictionary
280
     1
281
     1
  3
ACAD_XREC_ROUNDTRIP
360
66CB
  0
DICTIONARY
  5
66CC
330
5C9C
100
AcDbDictionary
280
     1
281
     1
  3
ACAD_XREC_ROUNDTRIP
360
66CD
  0
DICTIONARY
  5
66CE
330
5C9D
100
AcDbDictionary
280
     1
281
     1
  3
ACAD_XREC_ROUNDTRIP
360
66CF
  0
DICTIONARY
  5
66EA
330
6055
100
AcDbDictionary
280
     1
281
     1
  3
ACAD_XREC_ROUNDTRIP
360
66EB
  0
DICTIONARY
  5
66F6
330
605B
100
AcDbDictionary
280
     1
281
     1
  3
ACAD_XREC_ROUNDTRIP
360
66F7
  0
DICTIONARY
  5
66E2
330
5CA7
100
AcDbDictionary
280
     1
281
     1
  3
ACAD_XREC_ROUNDTRIP
360
66E3
  0
DICTIONARY
  5
66F8
330
605C
100
AcDbDictionary
280
     1
281
     1
  3
ACAD_XREC_ROUNDTRIP
360
66F9
  0
DICTIONARY
  5
66DA
330
5CA3
100
AcDbDictionary
280
     1
281
     1
  3
ACAD_XREC_ROUNDTRIP
360
66DB
  0
DICTIONARY
  5
66F4
330
605A
100
AcDbDictionary
280
     1
281
     1
  3
ACAD_XREC_ROUNDTRIP
360
66F5
  0
DICTIONARY
  5
66F2
330
6059
100
AcDbDictionary
280
     1
281
     1
  3
ACAD_XREC_ROUNDTRIP
360
66F3
  0
DICTIONARY
  5
66EC
330
6056
100
AcDbDictionary
280
     1
281
     1
  3
ACAD_XREC_ROUNDTRIP
360
66ED
  0
DICTIONARY
  5
66EE
330
6057
100
AcDbDictionary
280
     1
281
     1
  3
ACAD_XREC_ROUNDTRIP
360
66EF
  0
DICTIONARY
  5
66E0
330
5CA6
100
AcDbDictionary
280
     1
281
     1
  3
ACAD_XREC_ROUNDTRIP
360
66E1
  0
DICTIONARY
  5
66E8
330
6054
100
AcDbDictionary
280
     1
281
     1
  3
ACAD_XREC_ROUNDTRIP
360
66E9
  0
DICTIONARY
  5
66F0
330
6058
100
AcDbDictionary
280
     1
281
     1
  3
ACAD_XREC_ROUNDTRIP
360
66F1
  0
XRECORD
  5
66B9
102
{ACAD_REACTORS
330
66BF
102
}
330
66BF
100
AcDbXrecord
280
     1
  1
AcDb_Thumbnail_Schema
102
{ATTRRECORD
341
66BA
  2
AcDbDs::TreatedAsObjectData
280
     1
291
     1
102
ATTRRECORD}
102
{ATTRRECORD
341
66BB
  2
AcDbDs::Legacy
280
     1
291
     1
102
ATTRRECORD}
  2
AcDbDs::ID
280
    10
 91
        8
102
{ATTRRECORD
341
66BC
  2
AcDs:Indexable
280
     1
291
     1
102
ATTRRECORD}
102
{ATTRRECORD
341
66BD
  2
AcDbDs::HandleAttribute
280
     7
282
     1
102
ATTRRECORD}
  2
Thumbnail_Data
280
    15
 91
        0
  0
XRECORD
  5
66BA
102
{ACAD_REACTORS
330
66BF
102
}
330
66BF
100
AcDbXrecord
280
     1
  1
AcDbDs::TreatedAsObjectDataSchema
  2
AcDbDs::TreatedAsObjectData
280
     1
 91
        0
  0
XRECORD
  5
66BB
102
{ACAD_REACTORS
330
66BF
102
}
330
66BF
100
AcDbXrecord
280
     1
  1
AcDbDs::LegacySchema
  2
AcDbDs::Legacy
280
     1
 91
        0
  0
XRECORD
  5
66BC
102
{ACAD_REACTORS
330
66BF
102
}
330
66BF
100
AcDbXrecord
280
     1
  1
AcDbDs::IndexedPropertySchema
  2
AcDs:Indexable
280
     1
 91
        0
  0
XRECORD
  5
66BD
102
{ACAD_REACTORS
330
66BF
102
}
330
66BF
100
AcDbXrecord
280
     1
  1
AcDbDs::HandleAttributeSchema
  2
AcDbDs::HandleAttribute
280
     7
 91
        1
284
     1
  0
XRECORD
  5
2E1D
102
{ACAD_REACTORS
330
2E1C
102
}
330
2E1C
100
AcDbXrecord
280
     1
310
28000000680000008C0000000100080000000000E0380000010000000100000000010000000000004C00390000000000C8C8C8FF000000FF000000FF000000FF000000FF000000FF000000FF000000FF000000FF330000FF660000FF990000FFCC0000FFFF0000FF003300FF333300FF663300FF993300FFCC3300FFFF3300
310
FF006600FF336600FF666600FF996600FFCC6600FFFF6600FF009900FF339900FF669900FF999900FFCC9900FFFF9900FF00CC00FF33CC00FF66CC00FF99CC00FFCCCC00FFFFCC00FF00FF00FF33FF00FF66FF00FF99FF00FFCCFF00FFFFFF00FF000033FF330033FF660033FF990033FFCC0033FFFF0033FF003333FF3333
310
33FF663333FF993333FFCC3333FFFF3333FF006633FF336633FF666633FF996633FFCC6633FFFF6633FF009933FF339933FF669933FF999933FFCC9933FFFF9933FF00CC33FF33CC33FF66CC33FF99CC33FFCCCC33FFFFCC33FF00FF33FF33FF33FF66FF33FF99FF33FFCCFF33FFFFFF33FF000066FF330066FF660066FF99
310
0066FFCC0066FFFF0066FF003366FF333366FF663366FF993366FFCC3366FFFF3366FF006666FF336666FF666666FF996666FFCC6666FFFF6666FF009966FF339966FF669966FF999966FFCC9966FFFF9966FF00CC66FF33CC66FF66CC66FF99CC66FFCCCC66FFFFCC66FF00FF66FF33FF66FF66FF66FF99FF66FFCCFF66FF
310
FFFF66FF000099FF330099FF660099FF990099FFCC0099FFFF0099FF003399FF333399FF663399FF993399FFCC3399FFFF3399FF006699FF336699FF666699FF996699FFCC6699FFFF6699FF009999FF339999FF669999FF999999FFCC9999FFFF9999FF00CC99FF33CC99FF66CC99FF99CC99FFCCCC99FFFFCC99FF00FF99
310
FF33FF99FF66FF99FF99FF99FFCCFF99FFFFFF99FF0000CCFF3300CCFF6600CCFF9900CCFFCC00CCFFFF00CCFF0033CCFF3333CCFF6633CCFF9933CCFFCC33CCFFFF33CCFF0066CCFF3366CCFF6666CCFF9966CCFFCC66CCFFFF66CCFF0099CCFF3399CCFF6699CCFF9999CCFFCC99CCFFFF99CCFF00CCCCFF33CCCCFF66CC
310
CCFF99CCCCFFCCCCCCFFFFCCCCFF00FFCCFF33FFCCFF66FFCCFF99FFCCFFCCFFCCFFFFFFCCFF0000FFFF3300FFFF6600FFFF9900FFFFCC00FFFFFF00FFFF0033FFFF3333FFFF6633FFFF9933FFFFCC33FFFFFF33FFFF0066FFFF3366FFFF6666FFFF9966FFFFCC66FFFFFF66FFFF0099FFFF3399FFFF6699FFFF9999FFFFCC
310
99FFFFFF99FFFF00CCFFFF33CCFFFF66CCFFFF99CCFFFFCCCCFFFFFFCCFFFF00FFFFFF33FFFFFF66FFFFFF99FFFFFFCCFFFFFFFFFFFFFF000000FF0D0D0DFF1A1A1AFF282828FF353535FF434343FF505050FF5D5D5DFF6B6B6BFF787878FF868686FF939393FFA1A1A1FFAEAEAEFFBBBBBBFFC9C9C9FFD6D6D6FFE4E4E4FF
310
F1F1F1FFFFFFFFFF000000FF000000FF000000FF000000FF000000FF000000FF000000FF000000FF000000FF000000FF00000000000000000000000000000000000000000000000000000000000000000000000000000000000000000000000000000000000000000000000000000000000000000000000000000000000000
310
00000000000000000000000000000000000000000000000000000000000000000000000000000000000000000000000000000000000000000000000000000000000000000000000000000000000000000000000000000000000000000000000000000000000000000000000000000000000000000000000000000000000000
310
00000000000000000000000000000000000000000000000000000000000000000000000000000000000000000000000000000000000000000000000000000000000000000000000000000000000000000000000000000000000000000000000000000000000000000000000000000000000000000000000000000000000000
310
00000000000000000000000000000000000000000000000000000000000000000000000000000000000000000000000000000000000000000000000000000000000000000000000000000000000000000000000000000000000000000000000000000000000000000000000000000000000000000000000000000000000000
310
0000000000000000000000000000000000000000000000000000000000000000000000000000000000000000000000000000000000000000000000000000000000F5F5F5F5F5F5F5F5F5F5F5F5F5F5F5F5F5F5F5F5F5F5F5F5F5F5F5F5F5F5F5F5F5F5F5F5F5F5F5F5F5F5F5F5F5F5F5F5F5F5F5F5F5F5F5F5F5F5F5F5F5F5
310
F5F5F5F5F5F5F5F5F5F5F5F5F5F5F5F5F5F5F5F5F5F5F5F5F5F5F5F50000000000000000000000000000F5F5F5F5F5F5F5F5F5F5F5F5F5F5F5F5F5F5F5F5F5F5F5F5F5F5F5F5F5F5F5F5F5F5F5F5F5F5F5F5F5F5F5F5F5F5F5F5F5F5F5F5F5F5F5F5F5F5F5F5F5F5F5F5F5F5F5F5F5F5F5F5F5F5F5F5F5F5F5F5F5F5F5F5F5
310
F5F5F5F5F50000000000000000000000000000F5F500000000000000000000000000000000000000000000000000F5F50000000000000000000000000000000000000000000000000000000000000000000000000000000000000000000000000000000000000000000000F5F50000000000000000000000000000F5F50000
310
0000000000000000000000000000000000000000000000F5F5F5F5F5F5F5F5F5F5F5F5F5F5F5F5F5F5F5F5F5F5F5F5F5F5F5F5F5F5F5F5F5F5F5F5F5F5F5F5F5F5F5F5F5F5F5F5F5F5F5F5F5F5F5F5F5F5F5F5F5F5F50000000000000000000000000000F5F500000000000000000000000000000000000000000000000000
310
F5F5F5F5F5F5F5F5F5F5F5F5F5F5F5F5F5F5F5F5F5F5F5F5F5F5F5F5F5F5F5F5F5F5F5F5F5F5F5F5F5F5F5F5F5F5F5F5F5F5F5F5F5F5F5F5F5F5F5F5F5F5F50000000000000000000000000000F5F500000000000000000000000000000000000000000000000000F5F5F5F5F5F5F5F5F5F5F5F5F5F5F5F5F5F5F5F500F5F5
310
000000F5F5F5F50000F5F5F5F50000000000F5F5F5F5F5F5F5F500F5F5F5F5F5F5F5F5F5F5F5F5F50000000000000000000000000000F5F5F5F5F5F5F5F5F5F5F5F5F5F5F5F5F5F5F5F5F5F5F5F5F5F500F5F5F5F5F5F5F5F5F5F5F5F5F5F5F5F5F5F5F5F500F5F5000000F5F5F5F50000F5F5F5F50000000000F5F5F5F5F5
310
F5F5F500F5F5F5F5F5F5F5F5F5F5F5F5F50000000000000000000000000000F5F5F5F5F5F5F5F5F5F5F5F5F5F5F5F5F5F5F5F5F5F5F5F5F5F500F5F500000000000000000000000000000000000000F5F5000000000000000000000000000000000000F5F5000000000000000000000000000000000000F5F5000000000000
310
0000000000000000F5F500000000000000000000000000000000000000000000000000F5F5F5F5F5F5F5F5F5F5F5F5F5F5F5F5F5F5F5F5F5F5F5F5F5F5F5F5F5F5F5F5F5F5F5F5F5F5F5F5F5F5F5F5F5F5F5F5F5F5F5F5F5F5F5F5F5F5F5F5F5F5F50000000000000000000000000000F5F5F5F5F5F5F5F5F5F5F5F5F5F5F5
310
F5F5F5F5F5F5F5F5F5F5F5F5F5F5F5F5F5F5F5F5F5F5F5F5F5F5F5F5F5F5F5F5F5F5F5F5F5F5F5F5F5F5F5F5F5F5F5F5F5F5F5F5F5F5F5F5F5F5F5F5F5F5F5F5F5F5F5F5F5F5F5F5F5F5F50000000000000000000000000000F5F5F5F5F5F5F5F5F5F5F5F5F5F5F5F5F5F5F5F5F5F5F5F5F5F5F5F5F5000000000000000000
310
000000F5F5F5F5F5F5F5F5F5F5F5F5F5F5F5F5F5F5F5F5F5F5F5F5F5F5F5F5F5F5F5F5F5F5F5F5F5F5000000000000000000F5F50000000000000000000000000000F5F5E19BC4E1E1A7BFF4C5E1CCE1F4A1E1C5F4F49BE1A1BFF4C4E1F5F5000000000000000000000000F5F5F5F5F5F5F5F5F5F5F5F5F5F5F5F5F5F5F5F5
310
F5F5F5F5F5F5F5F5F5F5F5F5F5F5F5F5F5F5000000000000000000F5F50000000000000000000000000000F5F5C5E1F4BFF4CC9AE1C5A2C49BBFA0BF9AE1BFF4C59AE1C5E19BF5F5000000000000000000000000F5F5F5F5F5F5F5F5F5F5F5F5F5F5F5F5F5F5F5F5F5F5F5F5F5F5F5F5F5F5F5F5F5F5F5F5F5F50000000000
310
00000000F5F50000000000000000000000000000F5F5F4A0E1C5F4C6E1F4C5F4E1C4F4C5E1E1E1E19AC5E1E19AF4C5F5F5F5F5F5F500000000000000000000000000000000000000000000000000000000000000000000000000000000000000000000000000000000000000F5F50000000000000000000000000000F5F5C5
310
F4C59AC59BC49BC59AC59BC49BC59AC59AC59BC4E19BC5BEF5F5F5F5F5F500000000000000000000000000000000000000000000000000000000000000000000000000000000000000000000000000000000000000F5F50000000000000000000000000000F5F5A1BFC49BC5BEC5A0BFC5C49BC5BEC5A0BFC5C49BC5BEC5A0
310
BFF5F50000000000000000000000000000000000000000000000000000000000000000000000000000000000000000000000000000000000000000000000F5F50000000000000000000000000000F5F5F5F5F5F5F5F5F5F5F5F5F5F5F5F5F5F5F5F5F5F5F5F5F5F5F5F5F5F5F5F5F5F5F5F5F5F5F5F5F5F5F5F5F5F5F5F5F5
310
F5F5F5F5F5F5F5F5F5F5F5F5F5F5F5F5F5F5F5F5F5F5F5F5F5F5F5F5F5F5F5F5F5F5F5F5F5F5F5F5F50000000000000000000000000000F5F5F5F5F5F5F5F5F5F5F5F5F5F5F5F5F5F5F5F5F5F5F5F5F5F5F5F5F5F5F5F5F5F5F5F5F5F5F5F5F5F5F5F5F5F5F52FF5F5F5F5F5F5F5F5F5F5F5F5F5F5F5F5F5F5F5F5F5F5F5F5
310
F5F5F5F5F5F5F5F5F5F5F5F5F5F52FF5F5F50000000000000000000000000000F5F50000000000000000000000000000000000000000000000000000000000000000000000000000000000000000002FF5F5F5F5F5F5F5F5F5F5F5F5F5F5F5F5F5F5F5F5F5F5F5F5F5F5F5F5F5F5F5F5F5F5F5F5F5F52F00F5F50000000000
310
000000000000000000F5F5F5F5F5F5F5F5F5F5F5F5F5F5F5F5F5F5F5F5F5F5F5F5F5F5F5F5F5F5F5F5F5F5F5F5F5F5F5F5F5F5F5F5F5F5F52F2F2F2F2F2F2F2F2F2F2F2F2F2F2F2F2F2F2F2F2F2F2F2F2F2F2F2F2F2F2F2F2F2F2F2F2F2F2F2FF5F5F50000000000000000000000000000F5F5F50000000000000000000000
310
0000000000000000000000000000000000000000000000000000000000000000002F2F2F2F2F2F2F2F2F2F2F2F2F2F2F2F2F2F2F2F2F2F2F2F2F2F2F2F2F2F2F2F2F2F2F2F2F2F2F2FF5F5F50000000000000000000000000000F5F5F50000DC00DCDCDC00DCDCDC00DCDC00DCDCDC00DCDCDC00DCDCDCDCDC00DCDCDC00DC
310
DC00DCDCDC00DCDCDC00DCDCDC00DC00DCDCDC00DCDCDC00DCDC00DCDCDC00DCDCDC00DCDCDCDCDC00DCDCDC00DCDCDC0000F5F5F50000000000000000000000000000F5F5F50000DCDC00DC00DC00DC00DC00DCDCDC00DCDCDC00DCDCDCDCDCDC00DC00DC00DC00DCDCDC00DCDCDC00DCDCDCDCDCDCDCDC00DC00DC00DC00
310
DC00DCDCDC00DCDCDC00DCDCDCDCDCDC00DC00DC00DC00DC000000F5F5F50000000000000000000000000000F5F5F50000DC00DC00DC00DC00DC00DC00DCDCDC00DCDCDCDCDCDC00DC00DC00DC00DC00DC00DC00DC00DCDCDC00DCDC00DCDCDC00DC00DC00DC00DC00DC00DCDCDC00DCDCDCDCDCDC00DC00DC00DC00DC00DC
310
00DC0000F5F5F50000000000000000000000000000F5F5F50000DCDC00DC00DC00DC00DC00DCDCDCDCDCDCDCDC00DC00DC00DC00DC00DC00DC00DC00DCDCDCDCDCDCDCDC00DC00DC00DC00DC00DC00DC00DC00DCDCDCDCDCDCDCDC00DC00DC00DC00DC00DC00DC00DCDC0000F5F5F50000000000000000000000000000F5F5
310
F50000DC00DCDCDC00DCDCDC00DCDCDC00DCDCDC00DCDCDCDCDCDCDCDC00DCDCDC00DCDCDC00DCDCDC00DCDCDCDCDCDCDCDC00DCDCDC00DCDCDC00DCDCDC00DCDCDC00DCDCDCDCDCDCDCDC00DCDCDC00DCDCDC0000F5F5F50000000000000000000000000000F5F5F5000000DCDCDC00DCDCDC00DCDCDC00DCDCDC00DCDCDC
310
DCDCDCDCDC00DCDCDC00DCDCDC00DCDCDC00DCDCDC00DCDCDCDCDCDCDCDC00DCDCDC00DCDCDC00DCDCDC00DCDCDCDCDCDCDCDC00DCDCDC00DCDCDC000000F5F5F50000000000000000000000000000F5F5F50000DC00DCDCDC00DCDCDC00DCDCDCDCDCDCDCDCDCDCDCDC00DCDCDC00DCDCDC00DCDCDC00DCDCDCDCDCDCDCDC
310
00DCDCDC00DCDCDC00DCDCDC00DCDCDCDCDCDCDCDCDCDCDCDC00DCDCDC00DCDCDC00DCDCDC0000F5F5F50000000000000000000000000000F5F5F50000DCDC00DCDCDC00DCDCDC00DCDCDCDCDCDCDCDC00DCDCDC00DCDCDC00DCDCDC00DCDCDCDCDCDCDCDCDCDCDCDC00DCDCDC00DCDCDC00DCDCDC00DCDCDCDCDCDCDCDC00
310
DCDCDC00DCDCDC00DCDCDC00DCDC0000F5F5F50000000000000000000000000000F5F5F50000DC00DCDCDC00DCDCDC00DCDCDC00DCDCDC00DCDCDCDCDCDCDCDC00DCDCDC00DCDC00DCDCDCDCDCDCDCDCDCDCDCDCDC00DCDCDC00DCDCDC00DCDCDC00DCDCDC00DCDCDCDCDCDCDCDC00DCDCDC00DCDC000000F5F5F500000000
310
00000000000000000000F5F5F5000000DCDCDC00DCDCDC00DCDCDC00DCDCDC00DCDCDCDCDCDCDC2828282828282828282828282828282828282828282828282828282828282828DCDC00DCDCDC00DCDCDCDCDCDCDCDC00DCDCDC00DCDCDCDC0000F5F5F50000000000000000000000000000F5F5F50000DC00DCDCDC00DCDC
310
DC00DCDCDCDCDCDCDCDCDCDCDCDC0028DCDCDCDCDCDCDCDCDCDCDCDCDCDCDC2DDCDCDCDCDCDCDCDCDCDCDCDCDCDCDCDC28DCDCDCDCDCDCDCDCDCDCDC00DCDCDC00DCDCDC00DCDCDC0000F5F5F50000000000000000000000000000F5F5F50000DCDCDC00DCDCDC00DCDCDC00DCDCDC00DCDCDCDCDCDC28DC00DCDCDC00DCDC
310
DCDC00DCDCDCDC002DDCDC0000DCDCDC00DCDCDCDC00DCDCDCDC28DCDCDC00DCDCDCDCDCDCDCDC00DCDCDC00DCDCDC00DC0000F5F5F50000000000000000000000000000F5F5F50000DCDCDCDC00DCDCDC00DCDCDCDCDCDCDCDCDCDCDCDC2800DCDCDC00F5DCDCDC00DCDCDC0000DCF52D0000DCDCDC0000DCDCDCF5DCDCDC
310
0000DCDC28DCDCDCDCDCDCDCDC00DCDCDC00DCDCDC00DCDCDC000000F5F5F50000000000000000000000000000F5F5F5002F2F2F2F2F2F2F2F2F2F2F2F2F2F2F2F2F2F2F2F2828DCDCDCDCDCDCF5F5F5F52F2F2F2F2FF5F5F5F5F5F5F52F2F2F2F2FF5F5F5F5DCDCDCDCDCDCDC28DCDCDCDCDCDC00DCDCDC00DCDCDC00DCDC
310
DC00DC0000F5F5F50000000000000000000000000000F5F5F500F5F5F5F5F5F5F5F5F5F5F5F5F5F5F5F5F52F2F2FDC00DCDCDCDC00DCF5F5DCDC2FF5F5F52FDCDCDCF5F5DCDCF5F5F52F2FDCDCDCF5F500DCDCDCDC00DC28DCDCDC00DCDCDCDCDCDCDCDC00DCDCDC00DCDC0000F5F5F50000000000000000000000000000F5
310
F5F500F5F5F5F5F5F5F5F5F5F5F5F5F5F5F5F5F5F5F52FDCDCDCDCDCDCDCDCF5DCDCDC2FF5F5F52FDCDCDCF5DCDCDCF5F5F52F2FDCDCDCF5DCDCDCDCDCDCDCDCDC28DCDCDCDCDCDCDCDC00DCDCDC00DCDCDC00DC0000F5F5F50000000000000000000000000000F5F5F5002F2F2F2F2F2F2F2F2F2F2F2F2F2F2F2F2F2F2FF5
310
F5F500DCDCDCDC00F5DCDCDC2F2F2F2F2F00DCDCF500DCDC2F2F2F2F2FDCDC00F5DCDCDC00DCDCDC00DCDC28DCDC00DC00DC00DC00DC00DC00DC00DC000000F5F5F50000000000000000000000000000F5F5F50000DC00DC00DC00DC00DC00DC00DC00DC28DC00DCDCDCF5F5DCDCDC00F5DCDCDC00DCDCDC0000DCDCF50000
310
DCDCDC0000DCDCDC00F5DCDC0000DCDCDC0000DCDC28DCDC00DCDCDC00DC00DC00DC00DC00DC0000F5F5F50000000000000000000000000000F5F5F50000282828282828282828282828282828DCDCDCDCDCDCDCDCF5DCDCDCF528282828282828282828F5F5F528282828282828282828F5DCDCDCDCDCDCDCDCDCDCDCDC28
310
2828282828282828282828282828280000F5F5F50000000000000000000000000000F5F5F5002F2F2F2F2F2F2F2F2F2F2F2F2F2F2F2F2F2F2FDCDC00DCDCDCF5F5DC28EDEDEDEDEDEDEDEDEDEDF5F5F5EDEDEDEDEDEDEDEDEDEDED2800DC2FF5F5F5F5F5F5F5F5F5F5F5F5F5F5F5F5F52F2FDCDC00DCDC0000F5F5F5000000
310
0000000000000000000000F5F5F500F5F5F5F5F5F5F5F5F5F5F5F5F5F5F5F5F52F2FDCDCDCDCDCDCDCDCF5EDDC000000000000000000F5F5F5000000DCDC00000000DCDCEDF5F5F5F5F5F5F5F5F5F5F5F5F5F5F5F5F5F5F5F52F2FDCDCDCDCDC0000F5F5F50000000000000000000000000000F5F5F500F5F5F5F5F5F5F5F5
310
F5F5F5F5F5F5F5F52F2F2FDCDCDC00DCDCDC28EDF5F5000000DC0000DC0000F5F5F50000DC00DC00F5F5F5F5F5F5F5282F2F2F2F2F2F2F2F2F2F2F2F2F2F2F2F2F2F2F2FDCDCDC00DC0000F5F5F50000000000000000000000000000F5F5F500F5F5F5F5F5F5F5F5F5F5F5F5F5F5F5F52FF5F5F5F5F5F500DC28EDDCDCDCF5
310
0000DCDCDCDC0000F5F5F500F5F5F5F5F5000000F500DC00ED28DCDCDC0000DCDCDC00DCDCDC0000DCDCDC0000DCDCDC00000000F5F5F50000000000000000000000000000F5F5F500F5F5F5F5F5F5F5F5F5F5F5F5F5F52F2F2F2F2FDCDCDCDCF5F5ED00DC0000F5F52D2D2D2D2D2D2D2F2F2FF52D2D2D2D2D2D2D2DF5DCDC
310
0000ED28DCDCDCDCDCDCDCDCDCDCDCDCDCDCDCDCDCDCDCDCDCDCDC0000F5F5F50000000000000000000000000000F5F5F500F5F5F5F5F5F5F5F5F5F5F5F5F5F52F2F2F2F2FDCDCDCDC28EDF5F5F500DC2D2D2D2D2DF5F5F5F52D2D2D2D2D2D2D2D2D2D2DF52D00000000DCED2800DCDCDCDCDCDCDCDCDCDCDCDCDCDCDCDCDC
310
DC00DCDC0000F5F5F50000000000000000000000000000F5F5F5002F2F2F2F2F2F2F2F2F2F2F2F2F2F2F2F2F2F2FDC00DC28ED000000DCF52D2DBEBEF5F500DC0000DC2DDC00000000000000F5BE2D2D000000DCDCED28DCDC00DCDCDCDC00DCDCDCDC00DCDCDC00DCDCDCDC0000F5F5F50000000000000000000000000000
310
F5F5F500002DDC0000DCDCDC00DCDCDCDC00DCDCDCDC00DCDC28ED00000000DCDCF500F5F5DC0000000000DC2D2D0000DC00000000BEBE002D000000000000ED28DCDCDCDC00DCDCDCDC00DCDCDC0000DCDCDC002D0000F5F5F50000000000000000000000000000F5F5F500002DDCDC00DCDCDCDCDCDCDCDCDCDCDCDCDC00
310
DC28ED000000000000DC2DF50000000000000000002D2D000000DC00000000002D2D00000000000000ED28DCDCDCDCDCDCDCDC00DCDCDCDC00DCDCDCDC2D0000F5F5F50000000000000000000000000000F5F5F500002D282828282828282828282828282828282828EDDC000000DC0000DCDC2DF5F52D0000000000002D2D
310
00000000002D2D2D2D2D0000DC00000000DCDCED2828282828282828282828282828282828282D0000F5F5F50000000000000000000000000000F5F5F500002D00DC00000000000000DC000000DC0000000000000000000000DC00000000DCF5F500DC0000002D2D0000000000DC00DC00DC00DC000000DC00DCDC00000000
310
00DC00000000000000000000DC00002D0000F5F5F50000000000000000000000000000F5F5F500002DDCDC00DC000000DC0000000000DC0000DC000000DC0000000000DC000000DCDCDCF5000000DC2D2DDCDC00000000000000DC0000000000000000000000DC0000000000DC00000000DC00000000002D0000F5F5F50000
310
000000000000000000000000F5F5F500002D00DC0000000000DC000000DC00DCDC0000000000000000DCDC00000000000000DC00F50000002D2D00DC00DC00DC0000DC000000000000000000000000000000000000DC0000000000DCDC0000002D0000F5F5F50000000000000000000000000000F5F5F500002D0000000000
310
00DC0000000000000000DC0000DCDC000000DCDC00000000000000000000F5F5F52D2D000000000000000000DC0000DC0000DC00DC000000000000000000000000000000DCDCDC00002D0000F5F5F50000000000000000000000000000F5F5F5002D2D2DDC00000000DCDC0000000000DC00DC000000000000000000DCDC00
310
00DC00DC0000000000002D2DDC0000000000000000000000000000DCDCDC0000DC00DC000000000000DC0000000000DC002D2D2D00F5F5F50000000000000000000000000000F5F5F500DC2D0000DC000000DCDC000000000000000000000000DC0000DC00000000000000DC00DC0000DCDC2D2DDC0000DC0000000000F5F5
310
F5F50000000000000000DCDC000000DCDC0000DC00DC00000000002D0000F5F5F50000000000000000000000000000F5F5F500002D0000000000DCDC0000000000DCDCDC000000DC000000DCDCDC0000DC000000000000000000002D2D00DC00DCDC0000DCF5F5000000F5000000000000DC00DC0000000000DC00000000DC
310
00DC00002D0000F5F5F50000000000000000000000000000F5F5F500002D0000000000DCDC000000000000000000DCDC00DC00DCDC0000000000DC000000000000DC00002D2D000000000000F5F5DCDCDC0000F5F500000000000000000000DC00DC00000000DCDC00DC00002D0000F5F5F500000000000000000000000000
310
00F5F5F500002DEDEDEDEDEDEDEDEDEDEDEDEDEDEDEDEDEDEDEDEDF5EDEDEDEDEDEDED28EDEDEDEDEDEDEDEDED2D2DEDEDEDEDF5F5EDEDEDEDEDEDEDEDF5EDEDEDEDEDEDEDEDEDEDEDEDEDEDEDEDEDEDEDEDEDEDED2D0000F5F5F50000000000000000000000000000F5F5F500002828282828282828282828282828282828
310
282828F5F52828282828282828D62828282828282828BEBE2828F5F528282828D628282828F528F528282828282828282828282828282828282828282828280000F5F5F50000000000000000000000000000F5F5F500002828282828282828282828282828282828282828F5282828F52828282828DC282828282828ED28BE
310
BE28ED282828F5F5F5F5F5F5F5F5F528F528282828282828282828282828282828282828282828280000F5F5F50000000000000000000000000000F5F5F500002D00F5F5F5F5F5F5F5F5F5F5F5F5F5F5000000F5F5000000F5F5000000D6DC28F5DCDC0000ED00BEBEDCEDDCDCDCF52828DCF5F500F5F50000F5000000F5F5
310
F5F5F5F5F5F5F5F5F5F5F500000000002D0000F5F5F50000000000000000000000000000F5F5F500000000F5F5F5F5F5F5F5F5F5F5F5F5F5F500F5F5000000000000F5000000D62D28F52D2D2DDCED00BEBEDCEDDC2D2D2D2D2D2DF5F50000F50000F5000000F5F5F5F5F5F5F5F5F5F5F5F5F50000000000000000F5F5F500
310
00000000000000000000000000F5F5F5000000000000000000000000000000000000000000000000000000F5000000D6DC28F500DCDCDCEDDCBEBEDCEDDCDC00F52828DCF5F5F500F5000000F5F500F5F5F5F5F5F5F5F5F5F5F5F5F5F5F5F5F5F5000000F5F5F50000000000000000000000000000F5F5F500000000000000
310
0000000000000000000000000000000000000000F5000000D6DC28F5DC00DC00EDDCBEBEDCEDDCDCDCF52828DCF5F5F500F50000000000F5F5F5F5F5F5F5F5F5F5F5F5F5F5F5F5F5F5F5000000F5F5F50000000000000000000000000000F5F5F50000000000F5F5F5F5000000000000000000000000000000000000F50000
310
0000F528F5DCDCDC00ED00BEBE00EDDCDC00F52828D6F5F5F500F5000000000000F5F5F5F5F5F5F5F5F5F5F5F5F5F500000000000000F5F5F50000000000000000000000000000F5F5F50000000000F5F5F5F5000000000000000000000000000000000000F50000F5F50028F5DCDCDCDCEDDCBEBEDCEDDC0000F5282800F5
310
F5F500F5000000000000F5F5F5F5F5F5F5F5F5F5F5F5F5F500000000000000F5F5F50000000000000000000000000000F5F5F50000000000F5F5F5F5F5F5F5F5F5F5F5F5F5F5F5F5F5F50000F5F5F5F5F500000028F50000DCDCED00BEBEDCEDDCDCDCF5282800F5F5F500F500000000000000000000000000000000000000
310
0000000000000000F5F5F50000000000000000000000000000F5F5F50000000000F5F5F5F5F5F5F5F5F5F5F5F5F5F5F5F5F5F500F5F5F5F5F50000000028F5DC00DCDCEDDCBEBE00ED0000DCF5282800F5F5F500F5000000000000000000000000000000000000000000000000000000F5F5F5000000000000000000000000
310
0000F5F5F500000000F5F5F5F5F5F5F5F5F5F5F5F5F5F5F5F5F5F5000000000000000000000028F5DCDCDCDCEDDCBEBEDCEDDC00DCF5282800F5F5F500F5000000000000000000000000000000000000000000000000000000F5F5F50000000000000000000000000000F5F5F500000000F5F5F5F5F5F5F5F5F5F5F5F5F5F5
310
F5F5F5F5000000000000000000000028F5DC00DC00EDDCBEBEDCEDDCDCDCF5282800F5F5F500F5000000000000000000000000000000000000000000000000000000F5F5F50000000000000000000000000000F5F5F500000000000000000000000000000000000000000000000000000000000000000028F5DC0000DCEDDC
310
BEBEDCED00DC00F5282800F5F5F500F5000000000000000000000000000000000000000000000000000000F5F5F50000000000000000000000000000F5F5F500000000000000000000000000000000000000000000000000000000000000000028F5DCDCDCDCEDDCBEBE00ED00DC00F5282800F5F5F500F500000000000000
310
0000000000000000000000000000000000000000F5F5F50000000000000000000000000000F5F5F500000000000000000000000000000000000000000000000000000000000000000028F5DCDC00DCEDDCBEBEDCEDDCDCDCF5282800F5F5F500F5000000000000000000000000000000000000000000000000000000F5F5F5
310
0000000000000000000000000000F5F5F500000000000000000000000000000000000000000000000000000000000000000028F500DCDCDCEDDCBEBE00EDDCDC00F5282800F5F5F500F5000000000000F5F5F5F5F5F5F5F5F5F5F5F5F5F5F5000000000000F5F5F50000000000000000000000000000F5F5F50000000000F5
310
F5F5F5F5F5F500000000000000000000000000000000000000000028F5DCDCDCDCEDDCBEBEDCEDDC00DCF5282800F5F5F500F5000000000000F5F5F5F5F5F5F5F5F5F5F5F5F5F5F5000000000000F5F5F50000000000000000000000000000F5F5F50000000000F5F5F5F5F5F5F50000000000000000000000000000000000
310
0000000028F5DCF5F5DCEDDCBEBEDCEDDCDCDCF5282800F5F50000F5000000000000F5F5F5F5F5F5F5F5F5F5F500000000000000000000F5F5F50000000000000000000000000000F5F5F500000000F5F5F5F5F5F5F5F5F5F5F5F5F5F5F5F5F5F5000000000000000000000028F5F5F5DC00EDDCBEBE00EDF5F5F5F5F5F500
310
F5F50000F5000000000000F5F5F5F5F5F5F5F5F5F5F500000000000000000000F5F5F50000000000000000000000000000F5F5F500000000F5F5F5F5F5F5F5F5F5F5F5F5F5F5F5F5F5F50000000000000000000000F5F5DCDCDCDCED00F5F5F5F5DC00DCF52828F500000000F50000000000F5F5F5F5F5F5F5F5F5F5F5F5F5
310
F5F5F5F5F5F5F50000F5F5F50000000000000000000000000000F5F5F50000000000F5F5F5F5F5F5F5F5F5F5F5F5F5F5F5F5F5F5F500000000000000F5F528F5F5F5F5F5EDDCBEBEDCEDF5F5F5F5F5F5F5F5F5F5F5F50000F5F5F500F5F5F5F5F5F5F5F5F5F5F5F5F5F5F5F5F5F5F50000F5F5F50000000000000000000000
310
000000F5F5F50000000000F5F5F5F5F5F5F50000F5F5F5F5F5F5F5F5F5F500F5F5F5F5F5F500002828DCDC00DCED00BEBE00ED0000F5F52828000000F5000000F5000000F5F5F5F5F5F5F5F5F5F5F5F5F5F50000000000000000F5F5F50000000000000000000000000000F5F5F50000000000000000000000000000000000
310
000000000000000000000000000000002828DCDCDC00EDDCBEBEDCED00DCDCF52828000000F5F5F5F500000000F5F5F5F5F5F5F5F5F5F5F5F5F5F50000000000000000F5F5F50000000000000000000000000000F5F5F50000000000000000000000000000000000000000000000000000000000000000002828DCDCDCDCED
310
DCBEBEDCEDDCDCDCF5F5F5000000000000000000000000000000000000000000000000000000000000000000F5F5F50000000000000000000000000000F5F5F50000000000F5F5F5F5F500000000000000000000000000000000000000000000002828DCDC0000EDDCBEBEDCED00DC00F52828F50000000000000000000000
310
000000000000000000000000000000000000000000F5F5F50000000000000000000000000000F5F5F50000000000F5F5F5F5F500000000F5F50000000000000000000000000000000000F528DCDC00DCEDDCBEBEDCED00DCDCF5282800F5F5000000000000000000F5F5F5F5F5F5F5F5F5F5F5F5F5F5F5F5F5F5000000F5F5
310
F50000000000000000000000000000F5F5F50000000000F5F5F5F5F5F5F5F5F5F5F5F5F5F5F5F50000000000000000000000F5282800DCDC00EDDCBEBEDCEDDCDCDCF52828000000F5F500000000000000F5F5F5F5F5F5F5F5F5F5F5F5F5F5F5F5F5F5000000F5F5F50000000000000000000000000000F5F5F50000000000
310
F5F5F5F5F5F5F5F5F5F5F5F5F5F5F5F5F5F5F5F5000000000000F50028280000DCDCED00BEBEDCEDDCDC00F528280000000000F5F5F5F5000000F5F5F5F5F5F5F5F5F5F5F5F5F5F5F5F50000000000F5F5F50000000000000000000000000000F5F5F50000000000F5F5F5F5F5F5F5F5F5F5F5F5F5F5F5F5F5F5F5F500F5F5
310
F5F5F500002828DCDCDCDCEDDCBEBEDCEDDC00DCF52828000000000000000000F5F5F5F5F5F5F5F5F5F5F5F5F5F5F5F5F5F5F50000000000F5F5F50000000000000000000000000000F5F5F50000000000000000000000000000000000000000000000000000000000000000002828DCDC0000EDDCBEBE00EDDCDCDCF52828
310
000000000000000000000000F5F5F5F5F5F5F5F5F5F5F5F5F5F5F5F5F500000000F5F5F50000000000000000000000000000F5F5F500000000000000000000000000000000000000000000000000000000000000000028280000DCDCED00BEBEDCED0000DCF52828000000000000000000000000F5F5F5F5F5F5F5F5F5F5F5
310
F5F5F5F5F5F500000000F5F5F50000000000000000000000000000F5F5F50000000000000000000000000000000000000000000000000000000000000000002828DCDCDC00EDDCBEBEDCEDDCDCDCF52828000000000000000000000000000000000000000000000000000000000000000000F5F5F500000000000000000000
310
00000000F5F5F50000000000000000000000000000000000000000000000000000000000000000002828DCDC00DCEDDCBEBE00EDDCDCDCF52828000000000000000000000000000000000000000000000000000000000000000000F5F5F50000000000000000000000000000F5F5F500000000000000000000000000000000
310
0000000000000000000000000000000000282800DC0000EDDCBEBEDCEDDC00DCF52828000000000000000000000000000000000000000000000000000000000000000000F5F5F50000000000000000000000000000F5F5F50000000000000000000000000000000000000000000000000000000000000000002828DCDCDCDC
310
EDDCBEBEDCED00DCDCF52828000000000000000000000000000000000000000000000000000000000000000000F5F5F50000000000000000000000000000F5F5F500000000000000000000000000000000000000000000000000000000000000000028280000DC00ED00BEBEDCEDDCDCDCF528280000000000000000000000
310
00000000000000000000000000000000000000000000F5F5F50000000000000000000000000000F5F5F50000000000000000000000000000000000000000000000000000000000000000002828DCDC00DCEDDCBEBEDCEDDCDCDCF52828000000000000000000000000000000000000000000000000000000000000000000F5
310
F5F50000000000000000000000000000F5F5F50000000000000000000000000000000000000000000000000000000000000000002828DCDCDCDCEDDCBEBEDCED0000DCF52828000000000000000000000000000000000000000000000000000000000000000000F5F5F50000000000000000000000000000F5F5F500000000
310
0000000000000000000000000000000000000000000000000000000000282800DC00DCED00BEBEDCEDDCDCDCF52828000000000000000000000000000000000000000000000000000000000000000000F5F5F50000000000000000000000000000F5F5F5000000000000000000000000000000000000000000000000000000
310
0000000000002828F5F5F5F5ED00BEBEDCEDF5F5F5F52828000000000000000000000000000000000000000000000000000000000000000000F5F5F50000000000000000000000000000F5F5F50000000000000000000000000000000000000000000000000000000000000000002828DCDCDC00EDDCBEBEDCEDDC0000F528
310
28000000000000000000000000000000000000000000000000000000000000000000F5F5F50000000000000000000000000000F5F5F50000000000000000000000000000000000000000000000000000000000000000002828DC00DCDCED00BEBEDCEDDCDCDCF5282800000000000000000000000000000000000000000000
310
0000000000000000000000F5F5F50000000000000000000000000000F5F5F5000000000000000000000000000000000000000000000000000000000000000000282800DCDC00EDDCBEBEDCED00DCDCF52828000000000000000000000000000000000000000000000000000000000000000000F5F5F5000000000000000000
310
0000000000F5F5F50000000000000000000000000000000000000000000000000000000000000000002828DCDCDCDCEDDCBEBEDCEDDC00DCF52828000000000000000000000000000000000000000000000000000000000000000000F5F5F50000000000000000000000000000F5F5F5000000000000000000000000000000
310
000000000000000000000000000000000000282800DCDCDCED00BEBEDCEDDCDCDCF52828000000000000000000000000000000000000000000000000000000000000000000F5F5F50000000000000000000000000000F5F5F50000000000000000000000000000000000000000000000000000000000000000002828DCDC00
310
00EDDCBEBEDCEDDCDCDCF52828000000000000000000000000000000000000000000000000000000000000000000F5F5F50000000000000000000000000000F5F5F50000000000000000000000000000000000000000000000000000000000000000002828DCDCDC00EDDCBEBEDCED00DC00F5282800000000000000000000
310
0000000000000000000000000000000000000000000000F5F5F50000000000000000000000000000F5F5F5000000000000000000000000000000000000000000000000000000000000000000282800DCDCDCED00BEBEDCEDDC00DCF52828000000000000000000000000000000000000000000000000000000000000000000
310
F5F5F50000000000000000000000000000F5F5F50000000000000000000000000000000000000000000000000000000000000000002828DCDCDCDCEDDCBEBEDCEDDCDCDCF52828000000000000000000000000000000000000000000000000000000000000000000F5F5F50000000000000000000000000000F5F5F5000000
310
0000000000000000000000000000000000000000000000000000000000002828DCDC0000ED00BEBEDCEDDC0000F52828000000000000000000000000000000000000000000000000000000000000000000F5F5F50000000000000000000000000000F5F5F50000000000000000000000000000000000000000000000000000
310
00000000000000282800DCDCDCED00BEBEDCED0000DCF52828000000000000000000000000000000000000000000000000000000000000000000F5F5F50000000000000000000000000000F5F5F500000000000000000000000000000000000000000000000000000000000000000028280000DCDCEDDCBEBEDCEDDCDCDCF5
310
2828000000000000000000000000000000000000000000000000000000000000000000F5F5F50000000000000000000000000000F5F5F50000000000000000000000000000000000000000000000000000000000000000002828DCDCDCDCED00BEBEDCEDDCDC00F52828000000000000000000000000000000000000000000
310
000000000000000000000000F5F5F50000000000000000000000000000F5F5F50000000000000000000000000000000000000000000000000000000000000000002828DCDCDCDCEDDCBEBEDCED00DC00F52828000000000000000000000000000000000000000000000000000000000000000000F5F5F50000000000000000
310
000000000000F5F5F50000000000000000000000000000000000000000000000000000000000000000002828DCDCDCDCEDDCBEBEDCEDDC00DCF52828000000000000000000000000000000000000000000000000000000000000000000F5F5F50000000000000000000000000000F5F5F50000000000000000000000000000
310
000000000000000000000000000000000000002828DC00DC00EDDCBEBE00ED00DC00F52828000000000000000000000000000000000000000000000000000000000000000000F5F5F50000000000000000000000000000F5F5F50000000000000000000000000000000000000000000000000000000000000000002828DCDC
310
DCDCEDDCBEBEDCEDDC00DCF52828000000000000000000000000000000000000000000000000000000000000000000F5F5F50000000000000000000000000000F5F5F50000000000000000000000000000000000000000000000000000000000000000002828DCDCDC00EDDCBEBE00ED00DCDCF52828000000000000000000
310
000000000000000000000000000000000000000000000000F5F5F50000000000000000000000000000F5F5F500000000000000000000000000000000000000000000000000000000000000000028F5F5F5F5F5EDDCBEBEDCEDF5F5F5F528280000000000000000000000000000000000000000000000000000000000000000
310
00F5F5F50000000000000000000000000000F5F5F500000000000000000000000000000000000000000000000000000000000000000028F500DCDCDCEDDCBEBE00ED000000F52828000000000000000000000000000000000000000000000000000000000000000000F5F5F50000000000000000000000000000F5F5F50000
310
0000000000000000000000000000000000000000000000000000000000000028F5DC00DCDCED00BEBE00EDDCDCDCF52828000000000000000000000000000000000000000000000000000000000000000000F5F5F50000000000000000000000000000F5F5F500000000000000000000000000000000000000000000000000
310
000000000000000028F5DCDC00DCED00BEBEDCED00DCDCF52828000000000000000000000000000000000000000000000000000000000000000000F5F5F50000000000000000000000000000F5F5F500000000000000000000000000000000000000000000000000000000000000000028F500DCDCDCED00BEBEDCED00DCDC
310
F52828000000000000000000000000000000000000000000000000000000000000000000F5F5F50000000000000000000000000000F5F5F500000000000000000000000000000000000000000000000000000000000000000028F5DC00DCDCEDDCBEBEDCEDDC00DCF528280000000000000000000000000000000000000000
310
00000000000000000000000000F5F5F50000000000000000000000000000F5F5F500000000000000000000000000000000000000000000000000000000000000000028F50000DCDCEDDCBEBEDCED00DCDCF52828000000000000000000000000000000000000000000000000000000000000000000F5F5F500000000000000
310
00000000000000F5F5F500000000000000000000000000000000000000000000000000000000000000000028F5DCDCDCDCEDDCBEBEDCED00DCDCF52828000000000000000000000000000000000000000000000000000000000000000000F5F5F50000000000000000000000000000F5F5F500000000000000000000000000
310
000000000000000000000000000000000000000028F500DC0000EDDCBEBEDCED00DCDCF52828000000000000000000000000000000000000000000000000000000000000000000F5F5F50000000000000000000000000000F5F5F50000000000000000000000000000000000000000000000000000000000002D2D2D2D2D2D
310
2D2D2DED2DBEBE2DED2D2D2D2D2D2D2D2D2D000000000000000000000000000000000000000000000000000000000000F5F5F50000000000000000000000000000F5F5F500000000000000000000000000000000000000000000000000000000000000000000000000000000002D0000000000000000000000000000000000
310
00000000000000000000000000000000000000000000000000F5F5F50000000000000000000000000000F5F5F500000000000000000000000000000000000000000000000000000000000000000000000000000000000000000000000000000000000000000000000000000000000000000000000000000000000000000000
310
0000F5F5F50000000000000000000000000000F5F5F5F5F5F5F5F5F5F5F5F5F5F5F5F5F5F5F5F5F5F5F5F5F5F5F5F5F5F5F5F5F5F5F5F5F5F5F5F5F5F5F5F5F5F5F5F5F5F5F5F5F5F5F5F5F5F5F5F5F5F5F5F5F5F5F5F5F5F5F5F5F5F5F5F5F5F5F5F5F5F5F5F5F5F5F5F5F5F50000000000000000000000000000F5F5F5F5
310
F5F5F5F5F5F5F5F5F5F5F5F5F5F5F5F5F5F5F5F5F5F5F5F5F5F5F5F5F5F5F5F5F5F5F5F5F5F5F5F5F5F5F5F5F5F5F5F5F5F5F5F5F5F5F5F5F5F5F5F5F5F5F5F5F5F5F5F5F5F5F5F5F5F5F5F5F5F5F5F5F5F5F5F5F50000000000000000000000000000000000F5F5F5F5F5F5F5F5F5F5F5F5F5F5F5F5F5F5F5F5F5F5F5F5F5
310
F5F5F5F5F5F5F5F5F5F5F5F5F5F5F5F5F5F5F5F5F5F5F5F5F5F5F5F5F5F5F5F5F5F5F5F5F5F5F5F5F5F5F5F5F5F5F5F5F5F5F5F5F5F5F5F5F5F5F5F5F5000000000000000000000000000000000000000000000000000000000000000000000000000000000000000000000000000000000000000000000000000000000000
310
00000000000000000000000000000000000000000000000000000000000000000000000000000000000000000000000000000000000000000000000000000000000000000000000000000000000000000000000000000000000000000000000000000000000000000000000000000000000000000000000000000000000000
310
00000000000000000000000000000000000000000000000000000000000000000000000000000000000000000000000000000000000000000000000000000000000000000000000000000000000000000000000000000000000000000000000000000000000000000000000000000000000000000000000000000000000000
310
000000
  0
XRECORD
  5
66C6
102
{ACAD_REACTORS
330
5C8A
102
}
330
5C8A
100
AcDbXrecord
280
     1
102
MATERIAL
148
0.0
149
0.0
149
0.0
 93
        0
 94
      127
282
     0
 72
     0
 77
     0
171
     0
175
     0
179
     0
273
     0
  0
XRECORD
  5
5C8C
102
{ACAD_REACTORS
330
5C8A
102
}
330
5C8A
100
AcDbXrecord
280
     1
270
     1
271
     1
  0
XRECORD
  5
5C8B
102
{ACAD_REACTORS
330
5C8A
102
}
330
5C8A
100
AcDbXrecord
280
     1
270
     1
271
     1
  0
XRECORD
  5
5C8F
102
{ACAD_REACTORS
330
5C8A
102
}
330
5C8A
100
AcDbXrecord
280
     1
270
     1
271
     1
  0
XRECORD
  5
5C8E
102
{ACAD_REACTORS
330
5C8A
102
}
330
5C8A
100
AcDbXrecord
280
     1
270
     1
271
     1
  0
XRECORD
  5
5C90
102
{ACAD_REACTORS
330
5C8A
102
}
330
5C8A
100
AcDbXrecord
280
     1
270
     1
271
     1
  0
XRECORD
  5
5C8D
102
{ACAD_REACTORS
330
5C8A
102
}
330
5C8A
100
AcDbXrecord
280
     1
270
     1
271
     1
  0
XRECORD
  5
66C5
102
{ACAD_REACTORS
330
5C82
102
}
330
5C82
100
AcDbXrecord
280
     1
102
MATERIAL
148
0.0
149
0.0
149
0.0
 93
        0
 94
      127
282
     0
 72
     0
 77
     0
171
     0
175
     0
179
     0
273
     0
  0
XRECORD
  5
5C84
102
{ACAD_REACTORS
330
5C82
102
}
330
5C82
100
AcDbXrecord
280
     1
270
     1
271
     1
  0
XRECORD
  5
5C83
102
{ACAD_REACTORS
330
5C82
102
}
330
5C82
100
AcDbXrecord
280
     1
270
     1
271
     1
  0
XRECORD
  5
5C87
102
{ACAD_REACTORS
330
5C82
102
}
330
5C82
100
AcDbXrecord
280
     1
270
     1
271
     1
  0
XRECORD
  5
5C86
102
{ACAD_REACTORS
330
5C82
102
}
330
5C82
100
AcDbXrecord
280
     1
270
     1
271
     1
  0
XRECORD
  5
5C88
102
{ACAD_REACTORS
330
5C82
102
}
330
5C82
100
AcDbXrecord
280
     1
270
     1
271
     1
  0
XRECORD
  5
5C85
102
{ACAD_REACTORS
330
5C82
102
}
330
5C82
100
AcDbXrecord
280
     1
270
     1
271
     1
  0
XRECORD
  5
66C7
102
{ACAD_REACTORS
330
5C92
102
}
330
5C92
100
AcDbXrecord
280
     1
102
MATERIAL
148
0.0
149
0.0
149
0.0
 93
        0
 94
      127
282
     0
 72
     0
 77
     0
171
     0
175
     0
179
     0
273
     0
  0
XRECORD
  5
5C94
102
{ACAD_REACTORS
330
5C92
102
}
330
5C92
100
AcDbXrecord
280
     1
270
     1
271
     1
  0
XRECORD
  5
5C93
102
{ACAD_REACTORS
330
5C92
102
}
330
5C92
100
AcDbXrecord
280
     1
270
     1
271
     1
  0
XRECORD
  5
5C97
102
{ACAD_REACTORS
330
5C92
102
}
330
5C92
100
AcDbXrecord
280
     1
270
     1
271
     1
  0
XRECORD
  5
5C96
102
{ACAD_REACTORS
330
5C92
102
}
330
5C92
100
AcDbXrecord
280
     1
270
     1
271
     1
  0
XRECORD
  5
5C98
102
{ACAD_REACTORS
330
5C92
102
}
330
5C92
100
AcDbXrecord
280
     1
270
     1
271
     1
  0
XRECORD
  5
5C95
102
{ACAD_REACTORS
330
5C92
102
}
330
5C92
100
AcDbXrecord
280
     1
270
     1
271
     1
  0
CELLSTYLEMAP
  5
66B3
102
{ACAD_REACTORS
330
5D56
102
}
330
5D56
100
AcDbCellStyleMap
 90
        3
300
CELLSTYLE
  1
TABLEFORMAT_BEGIN
 90
        5
170
     1
 91
        0
 92
    32768
 62
   257
 93
        1
300
CONTENTFORMAT
  1
CONTENTFORMAT_BEGIN
 90
        0
 91
        0
 92
        4
 93
        0
300

 40
0.0
140
1.0
 94
        5
 62
     0
340
11
144
6.0
309
CONTENTFORMAT_END
171
     1
301
MARGIN
  1
CELLMARGIN_BEGIN
 40
1.5
 40
1.5
 40
1.5
 40
1.5
 40
0.18
 40
0.18
309
CELLMARGIN_END
 94
        6
 95
        1
302
GRIDFORMAT
  1
GRIDFORMAT_BEGIN
 90
        0
 91
        1
 62
     0
 92
       -2
340
0
 93
        0
 40
0.045
309
GRIDFORMAT_END
 95
        2
302
GRIDFORMAT
  1
GRIDFORMAT_BEGIN
 90
        0
 91
        1
 62
     0
 92
       -2
340
0
 93
        0
 40
0.045
309
GRIDFORMAT_END
 95
        4
302
GRIDFORMAT
  1
GRIDFORMAT_BEGIN
 90
        0
 91
        1
 62
     0
 92
       -2
340
0
 93
        0
 40
0.045
309
GRIDFORMAT_END
 95
        8
302
GRIDFORMAT
  1
GRIDFORMAT_BEGIN
 90
        0
 91
        1
 62
     0
 92
       -2
340
0
 93
        0
 40
0.045
309
GRIDFORMAT_END
 95
       16
302
GRIDFORMAT
  1
GRIDFORMAT_BEGIN
 90
        0
 91
        1
 62
     0
 92
       -2
340
0
 93
        0
 40
0.045
309
GRIDFORMAT_END
 95
       32
302
GRIDFORMAT
  1
GRIDFORMAT_BEGIN
 90
        0
 91
        1
 62
     0
 92
       -2
340
0
 93
        0
 40
0.045
309
GRIDFORMAT_END
309
TABLEFORMAT_END
  1
CELLSTYLE_BEGIN
 90
        1
 91
        1
300
_TITLE
309
CELLSTYLE_END
300
CELLSTYLE
  1
TABLEFORMAT_BEGIN
 90
        5
170
     1
 91
        0
 92
        0
 62
   257
 93
        1
300
CONTENTFORMAT
  1
CONTENTFORMAT_BEGIN
 90
        0
 91
        0
 92
        4
 93
        0
300

 40
0.0
140
1.0
 94
        5
 62
     0
340
11
144
4.5
309
CONTENTFORMAT_END
171
     1
301
MARGIN
  1
CELLMARGIN_BEGIN
 40
1.5
 40
1.5
 40
1.5
 40
1.5
 40
0.18
 40
0.18
309
CELLMARGIN_END
 94
        6
 95
        1
302
GRIDFORMAT
  1
GRIDFORMAT_BEGIN
 90
        0
 91
        1
 62
     0
 92
       -2
340
0
 93
        0
 40
0.045
309
GRIDFORMAT_END
 95
        2
302
GRIDFORMAT
  1
GRIDFORMAT_BEGIN
 90
        0
 91
        1
 62
     0
 92
       -2
340
0
 93
        0
 40
0.045
309
GRIDFORMAT_END
 95
        4
302
GRIDFORMAT
  1
GRIDFORMAT_BEGIN
 90
        0
 91
        1
 62
     0
 92
       -2
340
0
 93
        0
 40
0.045
309
GRIDFORMAT_END
 95
        8
302
GRIDFORMAT
  1
GRIDFORMAT_BEGIN
 90
        0
 91
        1
 62
     0
 92
       -2
340
0
 93
        0
 40
0.045
309
GRIDFORMAT_END
 95
       16
302
GRIDFORMAT
  1
GRIDFORMAT_BEGIN
 90
        0
 91
        1
 62
     0
 92
       -2
340
0
 93
        0
 40
0.045
309
GRIDFORMAT_END
 95
       32
302
GRIDFORMAT
  1
GRIDFORMAT_BEGIN
 90
        0
 91
        1
 62
     0
 92
       -2
340
0
 93
        0
 40
0.045
309
GRIDFORMAT_END
309
TABLEFORMAT_END
  1
CELLSTYLE_BEGIN
 90
        2
 91
        1
300
_HEADER
309
CELLSTYLE_END
300
CELLSTYLE
  1
TABLEFORMAT_BEGIN
 90
        5
170
     1
 91
        0
 92
        0
 62
   257
 93
        1
300
CONTENTFORMAT
  1
CONTENTFORMAT_BEGIN
 90
        0
 91
        0
 92
        4
 93
        0
300

 40
0.0
140
1.0
 94
        2
 62
     0
340
11
144
4.5
309
CONTENTFORMAT_END
171
     1
301
MARGIN
  1
CELLMARGIN_BEGIN
 40
1.5
 40
1.5
 40
1.5
 40
1.5
 40
0.18
 40
0.18
309
CELLMARGIN_END
 94
        6
 95
        1
302
GRIDFORMAT
  1
GRIDFORMAT_BEGIN
 90
        0
 91
        1
 62
     0
 92
       -2
340
0
 93
        0
 40
0.045
309
GRIDFORMAT_END
 95
        2
302
GRIDFORMAT
  1
GRIDFORMAT_BEGIN
 90
        0
 91
        1
 62
     0
 92
       -2
340
0
 93
        0
 40
0.045
309
GRIDFORMAT_END
 95
        4
302
GRIDFORMAT
  1
GRIDFORMAT_BEGIN
 90
        0
 91
        1
 62
     0
 92
       -2
340
0
 93
        0
 40
0.045
309
GRIDFORMAT_END
 95
        8
302
GRIDFORMAT
  1
GRIDFORMAT_BEGIN
 90
        0
 91
        1
 62
     0
 92
       -2
340
0
 93
        0
 40
0.045
309
GRIDFORMAT_END
 95
       16
302
GRIDFORMAT
  1
GRIDFORMAT_BEGIN
 90
        0
 91
        1
 62
     0
 92
       -2
340
0
 93
        0
 40
0.045
309
GRIDFORMAT_END
 95
       32
302
GRIDFORMAT
  1
GRIDFORMAT_BEGIN
 90
        0
 91
        1
 62
     0
 92
       -2
340
0
 93
        0
 40
0.045
309
GRIDFORMAT_END
309
TABLEFORMAT_END
  1
CELLSTYLE_BEGIN
 90
        3
 91
        2
300
_DATA
309
CELLSTYLE_END
  0
XRECORD
  5
66C1
102
{ACAD_REACTORS
330
5D56
102
}
330
5D56
100
AcDbXrecord
280
     1
102
ACAD_ROUNDTRIP_PRE2007_TABLESTYLE
 90
        4
 91
        0
  1

 92
        4
 93
        0
  2

 94
        4
 95
        0
  3

  0
XRECORD
  5
66D3
102
{ACAD_REACTORS
330
66D2
102
}
330
66D2
100
AcDbXrecord
280
     1
102
RTVSPost2010Prop28
280
     1
102
RTVSPost2010PropOp28
 70
     1
102
RTVSPost2010Prop29
280
     1
102
RTVSPost2010PropOp29
 70
     1
102
RTVSPost2010Prop30
280
     0
102
RTVSPost2010PropOp30
 70
     1
102
RTVSPost2010Prop31
280
     0
102
RTVSPost2010PropOp31
 70
     1
102
RTVSPost2010Prop32
280
     0
102
RTVSPost2010PropOp32
 70
     1
102
RTVSPost2010Prop33
280
     0
102
RTVSPost2010PropOp33
 70
     1
102
RTVSPost2010Prop34
280
     0
102
RTVSPost2010PropOp34
 70
     1
102
RTVSPost2010Prop35
280
     0
102
RTVSPost2010PropOp35
 70
     1
102
RTVSPost2010Prop36
280
     0
102
RTVSPost2010PropOp36
 70
     1
102
RTVSPost2010Prop37
 90
       50
102
RTVSPost2010PropOp37
 70
     1
102
RTVSPost2010Prop38
140
0.0
102
RTVSPost2010PropOp38
 70
     1
102
RTVSPost2010Prop39
140
1.0
102
RTVSPost2010PropOp39
 70
     1
102
RTVSPost2010Prop40
 90
        0
102
RTVSPost2010PropOp40
 70
     1
102
RTVSPost2010Prop41ColorIndex
 90
       18
102
RTVSPost2010Prop41ColorRGB
 90
        0
102
RTVSPost2010PropOp41
 70
     1
102
RTVSPost2010Prop42
 90
       50
102
RTVSPost2010PropOp42
 70
     1
102
RTVSPost2010Prop43
 90
        3
102
RTVSPost2010PropOp43
 70
     1
102
RTVSPost2010Prop44ColorIndex
 90
        5
102
RTVSPost2010Prop44ColorRGB
 90
      255
102
RTVSPost2010PropOp44
 70
     1
102
RTVSPost2010Prop45
280
     0
102
RTVSPost2010PropOp45
 70
     1
102
RTVSPost2010Prop46
 90
       50
102
RTVSPost2010PropOp46
 70
     1
102
RTVSPost2010Prop47
 90
       50
102
RTVSPost2010PropOp47
 70
     1
102
RTVSPost2010Prop48
 90
       50
102
RTVSPost2010PropOp48
 70
     1
102
RTVSPost2010Prop49
280
     0
102
RTVSPost2010PropOp49
 70
     1
102
RTVSPost2010Prop50
 90
       50
102
RTVSPost2010PropOp50
 70
     1
102
RTVSPost2010Prop51ColorIndex
 90
      256
102
RTVSPost2010Prop51ColorRGB
 90
-16777216
102
RTVSPost2010PropOp51
 70
     0
102
RTVSPost2010Prop52
140
1.0
102
RTVSPost2010PropOp52
 70
     0
102
RTVSPost2010Prop53
 90
        2
102
RTVSPost2010PropOp53
 70
     1
102
RTVSPost2010Prop54
  1
strokes_ogs.tif
102
RTVSPost2010PropOp54
 70
     1
102
RTVSPost2010Prop55
280
     0
102
RTVSPost2010PropOp55
 70
     1
102
RTVSPost2010Prop56
140
1.0
102
RTVSPost2010PropOp56
 70
     1
102
RTVSPost2010Prop57
140
1.0
102
RTVSPost2010PropOp57
 70
     1
102
RTVSPropertyOp0
 70
     1
102
RTVSPropertyOp1
 70
     1
102
RTVSPropertyOp2
 70
     1
102
RTVSPropertyOp3
 70
     1
102
RTVSPropertyOp4
 70
     1
102
RTVSPropertyOp5
 70
     1
102
RTVSPropertyOp6
 70
     1
102
RTVSPropertyOp7
 70
     1
102
RTVSPropertyOp8
 70
     1
102
RTVSPropertyOp9
 70
     1
102
RTVSPropertyOp10
 70
     1
102
RTVSPropertyOp11
 70
     1
102
RTVSPropertyOp12
 70
     1
102
RTVSPropertyOp13
 70
     1
102
RTVSPropertyOp14
 70
     1
102
RTVSPropertyOp15
 70
     1
102
RTVSPropertyOp16
 70
     1
102
RTVSPropertyOp17
 70
     1
102
RTVSPropertyOp18
 70
     1
102
RTVSPropertyOp19
 70
     1
102
RTVSPropertyOp20
 70
     1
102
RTVSPropertyOp21
 70
     1
102
RTVSPropertyOp22
 70
     1
102
RTVSPropertyOp23
 70
     1
102
RTVSPropertyOp24
 70
     1
102
RTVSPropertyOp25
 70
     1
102
RTVSPropertyOp26
 70
     1
102
RTVSPropertyOp27
 70
     1
102
RTVSPropertyOp28
 70
     1
102
RTVSPropertyOp29
 70
     1
102
RTVSPropertyOp30
 70
     1
102
RTVSPropertyOp31
 70
     1
102
RTVSPropertyOp32
 70
     1
102
RTVSPropertyOp33
 70
     1
102
RTVSPropertyOp34
 70
     1
102
RTVSPropertyOp35
 70
     1
102
RTVSPropertyOp36
 70
     1
102
RTVSPropertyOp37
 70
     1
102
RTVSPropertyOp38
 70
     1
102
RTVSPropertyOp39
 70
     1
102
RTVSPropertyOp40
 70
     1
102
RTVSPropertyOp41
 70
     1
102
RTVSPropertyOp42
 70
     1
102
RTVSPropertyOp43
 70
     1
102
RTVSPropertyOp44
 70
     1
102
RTVSPropertyOp45
 70
     1
102
RTVSPropertyOp46
 70
     1
102
RTVSPropertyOp47
 70
     1
102
RTVSPropertyOp48
 70
     1
102
RTVSPropertyOp49
 70
     1
102
RTVSPropertyOp50
 70
     1
102
RTVSPropertyOp51
 70
     0
102
RTVSPropertyOp52
 70
     0
102
RTVSPropertyOp53
 70
     1
102
RTVSPropertyOp54
 70
     1
102
RTVSPropertyOp55
 70
     1
102
RTVSPropertyOp56
 70
     1
102
RTVSPropertyOp57
 70
     1
102
RTVSPropertyOp58
 70
     1
102
RTVSPropertyOp59
 70
     1
102
RTVSPropertyOp60
 70
     1
102
RTVSPropertyOp61
 70
     1
102
RTVSPropertyOp62
 70
     1
  0
XRECORD
  5
66D7
102
{ACAD_REACTORS
330
66D6
102
}
330
66D6
100
AcDbXrecord
280
     1
102
RTVSPost2010Prop28
280
     0
102
RTVSPost2010PropOp28
 70
     1
102
RTVSPost2010Prop29
280
     1
102
RTVSPost2010PropOp29
 70
     1
102
RTVSPost2010Prop30
280
     1
102
RTVSPost2010PropOp30
 70
     1
102
RTVSPost2010Prop31
280
     0
102
RTVSPost2010PropOp31
 70
     1
102
RTVSPost2010Prop32
280
     0
102
RTVSPost2010PropOp32
 70
     1
102
RTVSPost2010Prop33
280
     0
102
RTVSPost2010PropOp33
 70
     1
102
RTVSPost2010Prop34
280
     0
102
RTVSPost2010PropOp34
 70
     1
102
RTVSPost2010Prop35
280
     0
102
RTVSPost2010PropOp35
 70
     1
102
RTVSPost2010Prop36
280
     0
102
RTVSPost2010PropOp36
 70
     1
102
RTVSPost2010Prop37
 90
       50
102
RTVSPost2010PropOp37
 70
     1
102
RTVSPost2010Prop38
140
0.0
102
RTVSPost2010PropOp38
 70
     1
102
RTVSPost2010Prop39
140
1.0
102
RTVSPost2010PropOp39
 70
     1
102
RTVSPost2010Prop40
 90
        0
102
RTVSPost2010PropOp40
 70
     1
102
RTVSPost2010Prop41ColorIndex
 90
       18
102
RTVSPost2010Prop41ColorRGB
 90
        0
102
RTVSPost2010PropOp41
 70
     1
102
RTVSPost2010Prop42
 90
       50
102
RTVSPost2010PropOp42
 70
     1
102
RTVSPost2010Prop43
 90
        3
102
RTVSPost2010PropOp43
 70
     1
102
RTVSPost2010Prop44ColorIndex
 90
        5
102
RTVSPost2010Prop44ColorRGB
 90
      255
102
RTVSPost2010PropOp44
 70
     1
102
RTVSPost2010Prop45
280
     0
102
RTVSPost2010PropOp45
 70
     1
102
RTVSPost2010Prop46
 90
       50
102
RTVSPost2010PropOp46
 70
     1
102
RTVSPost2010Prop47
 90
       50
102
RTVSPost2010PropOp47
 70
     1
102
RTVSPost2010Prop48
 90
       50
102
RTVSPost2010PropOp48
 70
     1
102
RTVSPost2010Prop49
280
     0
102
RTVSPost2010PropOp49
 70
     1
102
RTVSPost2010Prop50
 90
       50
102
RTVSPost2010PropOp50
 70
     1
102
RTVSPost2010Prop51ColorIndex
 90
      256
102
RTVSPost2010Prop51ColorRGB
 90
-16777216
102
RTVSPost2010PropOp51
 70
     0
102
RTVSPost2010Prop52
140
1.0
102
RTVSPost2010PropOp52
 70
     0
102
RTVSPost2010Prop53
 90
        2
102
RTVSPost2010PropOp53
 70
     1
102
RTVSPost2010Prop54
  1
strokes_ogs.tif
102
RTVSPost2010PropOp54
 70
     1
102
RTVSPost2010Prop55
280
     0
102
RTVSPost2010PropOp55
 70
     1
102
RTVSPost2010Prop56
140
1.0
102
RTVSPost2010PropOp56
 70
     1
102
RTVSPost2010Prop57
140
1.0
102
RTVSPost2010PropOp57
 70
     1
102
RTVSPropertyOp0
 70
     1
102
RTVSPropertyOp1
 70
     1
102
RTVSPropertyOp2
 70
     1
102
RTVSPropertyOp3
 70
     1
102
RTVSPropertyOp4
 70
     1
102
RTVSPropertyOp5
 70
     1
102
RTVSPropertyOp6
 70
     1
102
RTVSPropertyOp7
 70
     1
102
RTVSPropertyOp8
 70
     1
102
RTVSPropertyOp9
 70
     1
102
RTVSPropertyOp10
 70
     1
102
RTVSPropertyOp11
 70
     1
102
RTVSPropertyOp12
 70
     1
102
RTVSPropertyOp13
 70
     1
102
RTVSPropertyOp14
 70
     1
102
RTVSPropertyOp15
 70
     1
102
RTVSPropertyOp16
 70
     1
102
RTVSPropertyOp17
 70
     1
102
RTVSPropertyOp18
 70
     1
102
RTVSPropertyOp19
 70
     1
102
RTVSPropertyOp20
 70
     1
102
RTVSPropertyOp21
 70
     1
102
RTVSPropertyOp22
 70
     1
102
RTVSPropertyOp23
 70
     1
102
RTVSPropertyOp24
 70
     1
102
RTVSPropertyOp25
 70
     1
102
RTVSPropertyOp26
 70
     1
102
RTVSPropertyOp27
 70
     1
102
RTVSPropertyOp28
 70
     1
102
RTVSPropertyOp29
 70
     1
102
RTVSPropertyOp30
 70
     1
102
RTVSPropertyOp31
 70
     1
102
RTVSPropertyOp32
 70
     1
102
RTVSPropertyOp33
 70
     1
102
RTVSPropertyOp34
 70
     1
102
RTVSPropertyOp35
 70
     1
102
RTVSPropertyOp36
 70
     1
102
RTVSPropertyOp37
 70
     1
102
RTVSPropertyOp38
 70
     1
102
RTVSPropertyOp39
 70
     1
102
RTVSPropertyOp40
 70
     1
102
RTVSPropertyOp41
 70
     1
102
RTVSPropertyOp42
 70
     1
102
RTVSPropertyOp43
 70
     1
102
RTVSPropertyOp44
 70
     1
102
RTVSPropertyOp45
 70
     1
102
RTVSPropertyOp46
 70
     1
102
RTVSPropertyOp47
 70
     1
102
RTVSPropertyOp48
 70
     1
102
RTVSPropertyOp49
 70
     1
102
RTVSPropertyOp50
 70
     1
102
RTVSPropertyOp51
 70
     0
102
RTVSPropertyOp52
 70
     0
102
RTVSPropertyOp53
 70
     1
102
RTVSPropertyOp54
 70
     1
102
RTVSPropertyOp55
 70
     1
102
RTVSPropertyOp56
 70
     1
102
RTVSPropertyOp57
 70
     1
102
RTVSPropertyOp58
 70
     1
102
RTVSPropertyOp59
 70
     1
102
RTVSPropertyOp60
 70
     1
102
RTVSPropertyOp61
 70
     1
102
RTVSPropertyOp62
 70
     1
  0
XRECORD
  5
66D5
102
{ACAD_REACTORS
330
66D4
102
}
330
66D4
100
AcDbXrecord
280
     1
102
RTVSPost2010Prop28
280
     0
102
RTVSPost2010PropOp28
 70
     1
102
RTVSPost2010Prop29
280
     1
102
RTVSPost2010PropOp29
 70
     1
102
RTVSPost2010Prop30
280
     1
102
RTVSPost2010PropOp30
 70
     1
102
RTVSPost2010Prop31
280
     0
102
RTVSPost2010PropOp31
 70
     1
102
RTVSPost2010Prop32
280
     0
102
RTVSPost2010PropOp32
 70
     1
102
RTVSPost2010Prop33
280
     0
102
RTVSPost2010PropOp33
 70
     1
102
RTVSPost2010Prop34
280
     0
102
RTVSPost2010PropOp34
 70
     1
102
RTVSPost2010Prop35
280
     0
102
RTVSPost2010PropOp35
 70
     1
102
RTVSPost2010Prop36
280
     0
102
RTVSPost2010PropOp36
 70
     1
102
RTVSPost2010Prop37
 90
       50
102
RTVSPost2010PropOp37
 70
     1
102
RTVSPost2010Prop38
140
0.0
102
RTVSPost2010PropOp38
 70
     1
102
RTVSPost2010Prop39
140
1.0
102
RTVSPost2010PropOp39
 70
     1
102
RTVSPost2010Prop40
 90
        0
102
RTVSPost2010PropOp40
 70
     1
102
RTVSPost2010Prop41ColorIndex
 90
       18
102
RTVSPost2010Prop41ColorRGB
 90
        0
102
RTVSPost2010PropOp41
 70
     1
102
RTVSPost2010Prop42
 90
       50
102
RTVSPost2010PropOp42
 70
     1
102
RTVSPost2010Prop43
 90
        3
102
RTVSPost2010PropOp43
 70
     1
102
RTVSPost2010Prop44ColorIndex
 90
        5
102
RTVSPost2010Prop44ColorRGB
 90
      255
102
RTVSPost2010PropOp44
 70
     1
102
RTVSPost2010Prop45
280
     0
102
RTVSPost2010PropOp45
 70
     1
102
RTVSPost2010Prop46
 90
       50
102
RTVSPost2010PropOp46
 70
     1
102
RTVSPost2010Prop47
 90
       50
102
RTVSPost2010PropOp47
 70
     1
102
RTVSPost2010Prop48
 90
       50
102
RTVSPost2010PropOp48
 70
     1
102
RTVSPost2010Prop49
280
     0
102
RTVSPost2010PropOp49
 70
     1
102
RTVSPost2010Prop50
 90
       50
102
RTVSPost2010PropOp50
 70
     1
102
RTVSPost2010Prop51ColorIndex
 90
      256
102
RTVSPost2010Prop51ColorRGB
 90
-16777216
102
RTVSPost2010PropOp51
 70
     0
102
RTVSPost2010Prop52
140
1.0
102
RTVSPost2010PropOp52
 70
     0
102
RTVSPost2010Prop53
 90
        2
102
RTVSPost2010PropOp53
 70
     1
102
RTVSPost2010Prop54
  1
strokes_ogs.tif
102
RTVSPost2010PropOp54
 70
     1
102
RTVSPost2010Prop55
280
     0
102
RTVSPost2010PropOp55
 70
     1
102
RTVSPost2010Prop56
140
1.0
102
RTVSPost2010PropOp56
 70
     1
102
RTVSPost2010Prop57
140
1.0
102
RTVSPost2010PropOp57
 70
     1
102
RTVSPropertyOp0
 70
     1
102
RTVSPropertyOp1
 70
     1
102
RTVSPropertyOp2
 70
     1
102
RTVSPropertyOp3
 70
     1
102
RTVSPropertyOp4
 70
     1
102
RTVSPropertyOp5
 70
     1
102
RTVSPropertyOp6
 70
     1
102
RTVSPropertyOp7
 70
     1
102
RTVSPropertyOp8
 70
     1
102
RTVSPropertyOp9
 70
     1
102
RTVSPropertyOp10
 70
     1
102
RTVSPropertyOp11
 70
     1
102
RTVSPropertyOp12
 70
     1
102
RTVSPropertyOp13
 70
     1
102
RTVSPropertyOp14
 70
     1
102
RTVSPropertyOp15
 70
     1
102
RTVSPropertyOp16
 70
     1
102
RTVSPropertyOp17
 70
     1
102
RTVSPropertyOp18
 70
     1
102
RTVSPropertyOp19
 70
     1
102
RTVSPropertyOp20
 70
     1
102
RTVSPropertyOp21
 70
     1
102
RTVSPropertyOp22
 70
     1
102
RTVSPropertyOp23
 70
     1
102
RTVSPropertyOp24
 70
     1
102
RTVSPropertyOp25
 70
     1
102
RTVSPropertyOp26
 70
     1
102
RTVSPropertyOp27
 70
     1
102
RTVSPropertyOp28
 70
     1
102
RTVSPropertyOp29
 70
     1
102
RTVSPropertyOp30
 70
     1
102
RTVSPropertyOp31
 70
     1
102
RTVSPropertyOp32
 70
     1
102
RTVSPropertyOp33
 70
     1
102
RTVSPropertyOp34
 70
     1
102
RTVSPropertyOp35
 70
     1
102
RTVSPropertyOp36
 70
     1
102
RTVSPropertyOp37
 70
     1
102
RTVSPropertyOp38
 70
     1
102
RTVSPropertyOp39
 70
     1
102
RTVSPropertyOp40
 70
     1
102
RTVSPropertyOp41
 70
     1
102
RTVSPropertyOp42
 70
     1
102
RTVSPropertyOp43
 70
     1
102
RTVSPropertyOp44
 70
     1
102
RTVSPropertyOp45
 70
     1
102
RTVSPropertyOp46
 70
     1
102
RTVSPropertyOp47
 70
     1
102
RTVSPropertyOp48
 70
     1
102
RTVSPropertyOp49
 70
     1
102
RTVSPropertyOp50
 70
     1
102
RTVSPropertyOp51
 70
     0
102
RTVSPropertyOp52
 70
     0
102
RTVSPropertyOp53
 70
     1
102
RTVSPropertyOp54
 70
     1
102
RTVSPropertyOp55
 70
     1
102
RTVSPropertyOp56
 70
     1
102
RTVSPropertyOp57
 70
     1
102
RTVSPropertyOp58
 70
     1
102
RTVSPropertyOp59
 70
     1
102
RTVSPropertyOp60
 70
     1
102
RTVSPropertyOp61
 70
     1
102
RTVSPropertyOp62
 70
     1
  0
XRECORD
  5
66D1
102
{ACAD_REACTORS
330
66D0
102
}
330
66D0
100
AcDbXrecord
280
     1
102
RTVSPost2010Prop28
280
     0
102
RTVSPost2010PropOp28
 70
     1
102
RTVSPost2010Prop29
280
     1
102
RTVSPost2010PropOp29
 70
     1
102
RTVSPost2010Prop30
280
     1
102
RTVSPost2010PropOp30
 70
     1
102
RTVSPost2010Prop31
280
     0
102
RTVSPost2010PropOp31
 70
     1
102
RTVSPost2010Prop32
280
     0
102
RTVSPost2010PropOp32
 70
     1
102
RTVSPost2010Prop33
280
     0
102
RTVSPost2010PropOp33
 70
     1
102
RTVSPost2010Prop34
280
     0
102
RTVSPost2010PropOp34
 70
     1
102
RTVSPost2010Prop35
280
     0
102
RTVSPost2010PropOp35
 70
     1
102
RTVSPost2010Prop36
280
     0
102
RTVSPost2010PropOp36
 70
     1
102
RTVSPost2010Prop37
 90
       50
102
RTVSPost2010PropOp37
 70
     1
102
RTVSPost2010Prop38
140
0.0
102
RTVSPost2010PropOp38
 70
     1
102
RTVSPost2010Prop39
140
1.0
102
RTVSPost2010PropOp39
 70
     1
102
RTVSPost2010Prop40
 90
        0
102
RTVSPost2010PropOp40
 70
     1
102
RTVSPost2010Prop41ColorIndex
 90
       18
102
RTVSPost2010Prop41ColorRGB
 90
        0
102
RTVSPost2010PropOp41
 70
     1
102
RTVSPost2010Prop42
 90
       50
102
RTVSPost2010PropOp42
 70
     1
102
RTVSPost2010Prop43
 90
        3
102
RTVSPost2010PropOp43
 70
     1
102
RTVSPost2010Prop44ColorIndex
 90
        5
102
RTVSPost2010Prop44ColorRGB
 90
      255
102
RTVSPost2010PropOp44
 70
     1
102
RTVSPost2010Prop45
280
     0
102
RTVSPost2010PropOp45
 70
     1
102
RTVSPost2010Prop46
 90
       50
102
RTVSPost2010PropOp46
 70
     1
102
RTVSPost2010Prop47
 90
       50
102
RTVSPost2010PropOp47
 70
     1
102
RTVSPost2010Prop48
 90
       50
102
RTVSPost2010PropOp48
 70
     1
102
RTVSPost2010Prop49
280
     0
102
RTVSPost2010PropOp49
 70
     1
102
RTVSPost2010Prop50
 90
       50
102
RTVSPost2010PropOp50
 70
     1
102
RTVSPost2010Prop51ColorIndex
 90
      256
102
RTVSPost2010Prop51ColorRGB
 90
-16777216
102
RTVSPost2010PropOp51
 70
     0
102
RTVSPost2010Prop52
140
1.0
102
RTVSPost2010PropOp52
 70
     0
102
RTVSPost2010Prop53
 90
        2
102
RTVSPost2010PropOp53
 70
     1
102
RTVSPost2010Prop54
  1
strokes_ogs.tif
102
RTVSPost2010PropOp54
 70
     1
102
RTVSPost2010Prop55
280
     0
102
RTVSPost2010PropOp55
 70
     1
102
RTVSPost2010Prop56
140
1.0
102
RTVSPost2010PropOp56
 70
     1
102
RTVSPost2010Prop57
140
1.0
102
RTVSPost2010PropOp57
 70
     1
102
RTVSPropertyOp0
 70
     1
102
RTVSPropertyOp1
 70
     1
102
RTVSPropertyOp2
 70
     1
102
RTVSPropertyOp3
 70
     1
102
RTVSPropertyOp4
 70
     1
102
RTVSPropertyOp5
 70
     1
102
RTVSPropertyOp6
 70
     1
102
RTVSPropertyOp7
 70
     1
102
RTVSPropertyOp8
 70
     1
102
RTVSPropertyOp9
 70
     1
102
RTVSPropertyOp10
 70
     1
102
RTVSPropertyOp11
 70
     1
102
RTVSPropertyOp12
 70
     1
102
RTVSPropertyOp13
 70
     1
102
RTVSPropertyOp14
 70
     1
102
RTVSPropertyOp15
 70
     1
102
RTVSPropertyOp16
 70
     1
102
RTVSPropertyOp17
 70
     1
102
RTVSPropertyOp18
 70
     1
102
RTVSPropertyOp19
 70
     1
102
RTVSPropertyOp20
 70
     1
102
RTVSPropertyOp21
 70
     1
102
RTVSPropertyOp22
 70
     1
102
RTVSPropertyOp23
 70
     1
102
RTVSPropertyOp24
 70
     1
102
RTVSPropertyOp25
 70
     1
102
RTVSPropertyOp26
 70
     1
102
RTVSPropertyOp27
 70
     1
102
RTVSPropertyOp28
 70
     1
102
RTVSPropertyOp29
 70
     1
102
RTVSPropertyOp30
 70
     1
102
RTVSPropertyOp31
 70
     1
102
RTVSPropertyOp32
 70
     1
102
RTVSPropertyOp33
 70
     1
102
RTVSPropertyOp34
 70
     1
102
RTVSPropertyOp35
 70
     1
102
RTVSPropertyOp36
 70
     1
102
RTVSPropertyOp37
 70
     1
102
RTVSPropertyOp38
 70
     1
102
RTVSPropertyOp39
 70
     1
102
RTVSPropertyOp40
 70
     1
102
RTVSPropertyOp41
 70
     1
102
RTVSPropertyOp42
 70
     1
102
RTVSPropertyOp43
 70
     1
102
RTVSPropertyOp44
 70
     1
102
RTVSPropertyOp45
 70
     1
102
RTVSPropertyOp46
 70
     1
102
RTVSPropertyOp47
 70
     1
102
RTVSPropertyOp48
 70
     1
102
RTVSPropertyOp49
 70
     1
102
RTVSPropertyOp50
 70
     1
102
RTVSPropertyOp51
 70
     0
102
RTVSPropertyOp52
 70
     0
102
RTVSPropertyOp53
 70
     1
102
RTVSPropertyOp54
 70
     1
102
RTVSPropertyOp55
 70
     1
102
RTVSPropertyOp56
 70
     1
102
RTVSPropertyOp57
 70
     1
102
RTVSPropertyOp58
 70
     1
102
RTVSPropertyOp59
 70
     1
102
RTVSPropertyOp60
 70
     1
102
RTVSPropertyOp61
 70
     1
102
RTVSPropertyOp62
 70
     1
  0
XRECORD
  5
66DF
102
{ACAD_REACTORS
330
66DE
102
}
330
66DE
100
AcDbXrecord
280
     1
102
RTVSPost2010Prop28
280
     0
102
RTVSPost2010PropOp28
 70
     1
102
RTVSPost2010Prop29
280
     1
102
RTVSPost2010PropOp29
 70
     1
102
RTVSPost2010Prop30
280
     1
102
RTVSPost2010PropOp30
 70
     1
102
RTVSPost2010Prop31
280
     0
102
RTVSPost2010PropOp31
 70
     1
102
RTVSPost2010Prop32
280
     0
102
RTVSPost2010PropOp32
 70
     1
102
RTVSPost2010Prop33
280
     0
102
RTVSPost2010PropOp33
 70
     1
102
RTVSPost2010Prop34
280
     0
102
RTVSPost2010PropOp34
 70
     1
102
RTVSPost2010Prop35
280
     0
102
RTVSPost2010PropOp35
 70
     1
102
RTVSPost2010Prop36
280
     0
102
RTVSPost2010PropOp36
 70
     1
102
RTVSPost2010Prop37
 90
       50
102
RTVSPost2010PropOp37
 70
     1
102
RTVSPost2010Prop38
140
0.0
102
RTVSPost2010PropOp38
 70
     1
102
RTVSPost2010Prop39
140
1.0
102
RTVSPost2010PropOp39
 70
     1
102
RTVSPost2010Prop40
 90
        0
102
RTVSPost2010PropOp40
 70
     1
102
RTVSPost2010Prop41ColorIndex
 90
       18
102
RTVSPost2010Prop41ColorRGB
 90
        0
102
RTVSPost2010PropOp41
 70
     1
102
RTVSPost2010Prop42
 90
       50
102
RTVSPost2010PropOp42
 70
     1
102
RTVSPost2010Prop43
 90
        3
102
RTVSPost2010PropOp43
 70
     1
102
RTVSPost2010Prop44ColorIndex
 90
        5
102
RTVSPost2010Prop44ColorRGB
 90
      255
102
RTVSPost2010PropOp44
 70
     1
102
RTVSPost2010Prop45
280
     0
102
RTVSPost2010PropOp45
 70
     1
102
RTVSPost2010Prop46
 90
       50
102
RTVSPost2010PropOp46
 70
     1
102
RTVSPost2010Prop47
 90
       50
102
RTVSPost2010PropOp47
 70
     1
102
RTVSPost2010Prop48
 90
       50
102
RTVSPost2010PropOp48
 70
     1
102
RTVSPost2010Prop49
280
     0
102
RTVSPost2010PropOp49
 70
     1
102
RTVSPost2010Prop50
 90
       50
102
RTVSPost2010PropOp50
 70
     1
102
RTVSPost2010Prop51ColorIndex
 90
      256
102
RTVSPost2010Prop51ColorRGB
 90
-16777216
102
RTVSPost2010PropOp51
 70
     0
102
RTVSPost2010Prop52
140
1.0
102
RTVSPost2010PropOp52
 70
     0
102
RTVSPost2010Prop53
 90
        2
102
RTVSPost2010PropOp53
 70
     1
102
RTVSPost2010Prop54
  1
strokes_ogs.tif
102
RTVSPost2010PropOp54
 70
     1
102
RTVSPost2010Prop55
280
     0
102
RTVSPost2010PropOp55
 70
     1
102
RTVSPost2010Prop56
140
1.0
102
RTVSPost2010PropOp56
 70
     1
102
RTVSPost2010Prop57
140
1.0
102
RTVSPost2010PropOp57
 70
     1
102
RTVSPropertyOp0
 70
     1
102
RTVSPropertyOp1
 70
     1
102
RTVSPropertyOp2
 70
     1
102
RTVSPropertyOp3
 70
     1
102
RTVSPropertyOp4
 70
     1
102
RTVSPropertyOp5
 70
     1
102
RTVSPropertyOp6
 70
     1
102
RTVSPropertyOp7
 70
     1
102
RTVSPropertyOp8
 70
     1
102
RTVSPropertyOp9
 70
     1
102
RTVSPropertyOp10
 70
     1
102
RTVSPropertyOp11
 70
     1
102
RTVSPropertyOp12
 70
     1
102
RTVSPropertyOp13
 70
     1
102
RTVSPropertyOp14
 70
     1
102
RTVSPropertyOp15
 70
     1
102
RTVSPropertyOp16
 70
     1
102
RTVSPropertyOp17
 70
     1
102
RTVSPropertyOp18
 70
     1
102
RTVSPropertyOp19
 70
     1
102
RTVSPropertyOp20
 70
     1
102
RTVSPropertyOp21
 70
     1
102
RTVSPropertyOp22
 70
     1
102
RTVSPropertyOp23
 70
     1
102
RTVSPropertyOp24
 70
     1
102
RTVSPropertyOp25
 70
     1
102
RTVSPropertyOp26
 70
     1
102
RTVSPropertyOp27
 70
     1
102
RTVSPropertyOp28
 70
     1
102
RTVSPropertyOp29
 70
     1
102
RTVSPropertyOp30
 70
     1
102
RTVSPropertyOp31
 70
     1
102
RTVSPropertyOp32
 70
     1
102
RTVSPropertyOp33
 70
     1
102
RTVSPropertyOp34
 70
     1
102
RTVSPropertyOp35
 70
     1
102
RTVSPropertyOp36
 70
     1
102
RTVSPropertyOp37
 70
     1
102
RTVSPropertyOp38
 70
     1
102
RTVSPropertyOp39
 70
     1
102
RTVSPropertyOp40
 70
     1
102
RTVSPropertyOp41
 70
     1
102
RTVSPropertyOp42
 70
     1
102
RTVSPropertyOp43
 70
     1
102
RTVSPropertyOp44
 70
     1
102
RTVSPropertyOp45
 70
     1
102
RTVSPropertyOp46
 70
     1
102
RTVSPropertyOp47
 70
     1
102
RTVSPropertyOp48
 70
     1
102
RTVSPropertyOp49
 70
     1
102
RTVSPropertyOp50
 70
     1
102
RTVSPropertyOp51
 70
     0
102
RTVSPropertyOp52
 70
     0
102
RTVSPropertyOp53
 70
     1
102
RTVSPropertyOp54
 70
     1
102
RTVSPropertyOp55
 70
     1
102
RTVSPropertyOp56
 70
     1
102
RTVSPropertyOp57
 70
     1
102
RTVSPropertyOp58
 70
     1
102
RTVSPropertyOp59
 70
     1
102
RTVSPropertyOp60
 70
     1
102
RTVSPropertyOp61
 70
     1
102
RTVSPropertyOp62
 70
     1
  0
XRECORD
  5
66E7
102
{ACAD_REACTORS
330
66E6
102
}
330
66E6
100
AcDbXrecord
280
     1
102
RTVSPost2010Prop28
280
     0
102
RTVSPost2010PropOp28
 70
     1
102
RTVSPost2010Prop29
280
     1
102
RTVSPost2010PropOp29
 70
     1
102
RTVSPost2010Prop30
280
     1
102
RTVSPost2010PropOp30
 70
     1
102
RTVSPost2010Prop31
280
     0
102
RTVSPost2010PropOp31
 70
     1
102
RTVSPost2010Prop32
280
     0
102
RTVSPost2010PropOp32
 70
     1
102
RTVSPost2010Prop33
280
     0
102
RTVSPost2010PropOp33
 70
     1
102
RTVSPost2010Prop34
280
     0
102
RTVSPost2010PropOp34
 70
     1
102
RTVSPost2010Prop35
280
     0
102
RTVSPost2010PropOp35
 70
     1
102
RTVSPost2010Prop36
280
     0
102
RTVSPost2010PropOp36
 70
     1
102
RTVSPost2010Prop37
 90
       50
102
RTVSPost2010PropOp37
 70
     1
102
RTVSPost2010Prop38
140
0.0
102
RTVSPost2010PropOp38
 70
     1
102
RTVSPost2010Prop39
140
1.0
102
RTVSPost2010PropOp39
 70
     1
102
RTVSPost2010Prop40
 90
        0
102
RTVSPost2010PropOp40
 70
     1
102
RTVSPost2010Prop41ColorIndex
 90
       18
102
RTVSPost2010Prop41ColorRGB
 90
        0
102
RTVSPost2010PropOp41
 70
     1
102
RTVSPost2010Prop42
 90
       50
102
RTVSPost2010PropOp42
 70
     1
102
RTVSPost2010Prop43
 90
        3
102
RTVSPost2010PropOp43
 70
     1
102
RTVSPost2010Prop44ColorIndex
 90
        5
102
RTVSPost2010Prop44ColorRGB
 90
      255
102
RTVSPost2010PropOp44
 70
     1
102
RTVSPost2010Prop45
280
     0
102
RTVSPost2010PropOp45
 70
     1
102
RTVSPost2010Prop46
 90
       50
102
RTVSPost2010PropOp46
 70
     1
102
RTVSPost2010Prop47
 90
       50
102
RTVSPost2010PropOp47
 70
     1
102
RTVSPost2010Prop48
 90
       50
102
RTVSPost2010PropOp48
 70
     1
102
RTVSPost2010Prop49
280
     0
102
RTVSPost2010PropOp49
 70
     1
102
RTVSPost2010Prop50
 90
       50
102
RTVSPost2010PropOp50
 70
     1
102
RTVSPost2010Prop51ColorIndex
 90
      256
102
RTVSPost2010Prop51ColorRGB
 90
-16777216
102
RTVSPost2010PropOp51
 70
     0
102
RTVSPost2010Prop52
140
1.0
102
RTVSPost2010PropOp52
 70
     0
102
RTVSPost2010Prop53
 90
        2
102
RTVSPost2010PropOp53
 70
     1
102
RTVSPost2010Prop54
  1
strokes_ogs.tif
102
RTVSPost2010PropOp54
 70
     1
102
RTVSPost2010Prop55
280
     0
102
RTVSPost2010PropOp55
 70
     1
102
RTVSPost2010Prop56
140
1.0
102
RTVSPost2010PropOp56
 70
     1
102
RTVSPost2010Prop57
140
1.0
102
RTVSPost2010PropOp57
 70
     1
102
RTVSPropertyOp0
 70
     1
102
RTVSPropertyOp1
 70
     1
102
RTVSPropertyOp2
 70
     1
102
RTVSPropertyOp3
 70
     1
102
RTVSPropertyOp4
 70
     1
102
RTVSPropertyOp5
 70
     1
102
RTVSPropertyOp6
 70
     1
102
RTVSPropertyOp7
 70
     1
102
RTVSPropertyOp8
 70
     1
102
RTVSPropertyOp9
 70
     1
102
RTVSPropertyOp10
 70
     1
102
RTVSPropertyOp11
 70
     1
102
RTVSPropertyOp12
 70
     1
102
RTVSPropertyOp13
 70
     1
102
RTVSPropertyOp14
 70
     1
102
RTVSPropertyOp15
 70
     1
102
RTVSPropertyOp16
 70
     1
102
RTVSPropertyOp17
 70
     1
102
RTVSPropertyOp18
 70
     1
102
RTVSPropertyOp19
 70
     1
102
RTVSPropertyOp20
 70
     1
102
RTVSPropertyOp21
 70
     1
102
RTVSPropertyOp22
 70
     1
102
RTVSPropertyOp23
 70
     1
102
RTVSPropertyOp24
 70
     1
102
RTVSPropertyOp25
 70
     1
102
RTVSPropertyOp26
 70
     1
102
RTVSPropertyOp27
 70
     1
102
RTVSPropertyOp28
 70
     1
102
RTVSPropertyOp29
 70
     1
102
RTVSPropertyOp30
 70
     1
102
RTVSPropertyOp31
 70
     1
102
RTVSPropertyOp32
 70
     1
102
RTVSPropertyOp33
 70
     1
102
RTVSPropertyOp34
 70
     1
102
RTVSPropertyOp35
 70
     1
102
RTVSPropertyOp36
 70
     1
102
RTVSPropertyOp37
 70
     1
102
RTVSPropertyOp38
 70
     1
102
RTVSPropertyOp39
 70
     1
102
RTVSPropertyOp40
 70
     1
102
RTVSPropertyOp41
 70
     1
102
RTVSPropertyOp42
 70
     1
102
RTVSPropertyOp43
 70
     1
102
RTVSPropertyOp44
 70
     1
102
RTVSPropertyOp45
 70
     1
102
RTVSPropertyOp46
 70
     1
102
RTVSPropertyOp47
 70
     1
102
RTVSPropertyOp48
 70
     1
102
RTVSPropertyOp49
 70
     1
102
RTVSPropertyOp50
 70
     1
102
RTVSPropertyOp51
 70
     0
102
RTVSPropertyOp52
 70
     0
102
RTVSPropertyOp53
 70
     1
102
RTVSPropertyOp54
 70
     1
102
RTVSPropertyOp55
 70
     1
102
RTVSPropertyOp56
 70
     1
102
RTVSPropertyOp57
 70
     1
102
RTVSPropertyOp58
 70
     1
102
RTVSPropertyOp59
 70
     1
102
RTVSPropertyOp60
 70
     1
102
RTVSPropertyOp61
 70
     1
102
RTVSPropertyOp62
 70
     1
  0
XRECORD
  5
66D9
102
{ACAD_REACTORS
330
66D8
102
}
330
66D8
100
AcDbXrecord
280
     1
102
RTVSPost2010Prop28
280
     0
102
RTVSPost2010PropOp28
 70
     1
102
RTVSPost2010Prop29
280
     1
102
RTVSPost2010PropOp29
 70
     1
102
RTVSPost2010Prop30
280
     1
102
RTVSPost2010PropOp30
 70
     1
102
RTVSPost2010Prop31
280
     0
102
RTVSPost2010PropOp31
 70
     1
102
RTVSPost2010Prop32
280
     0
102
RTVSPost2010PropOp32
 70
     1
102
RTVSPost2010Prop33
280
     0
102
RTVSPost2010PropOp33
 70
     1
102
RTVSPost2010Prop34
280
     0
102
RTVSPost2010PropOp34
 70
     1
102
RTVSPost2010Prop35
280
     0
102
RTVSPost2010PropOp35
 70
     1
102
RTVSPost2010Prop36
280
     0
102
RTVSPost2010PropOp36
 70
     1
102
RTVSPost2010Prop37
 90
       50
102
RTVSPost2010PropOp37
 70
     1
102
RTVSPost2010Prop38
140
0.0
102
RTVSPost2010PropOp38
 70
     1
102
RTVSPost2010Prop39
140
1.0
102
RTVSPost2010PropOp39
 70
     1
102
RTVSPost2010Prop40
 90
        0
102
RTVSPost2010PropOp40
 70
     1
102
RTVSPost2010Prop41ColorIndex
 90
       18
102
RTVSPost2010Prop41ColorRGB
 90
        0
102
RTVSPost2010PropOp41
 70
     1
102
RTVSPost2010Prop42
 90
       50
102
RTVSPost2010PropOp42
 70
     1
102
RTVSPost2010Prop43
 90
        3
102
RTVSPost2010PropOp43
 70
     1
102
RTVSPost2010Prop44ColorIndex
 90
        5
102
RTVSPost2010Prop44ColorRGB
 90
      255
102
RTVSPost2010PropOp44
 70
     1
102
RTVSPost2010Prop45
280
     0
102
RTVSPost2010PropOp45
 70
     1
102
RTVSPost2010Prop46
 90
       50
102
RTVSPost2010PropOp46
 70
     1
102
RTVSPost2010Prop47
 90
       50
102
RTVSPost2010PropOp47
 70
     1
102
RTVSPost2010Prop48
 90
       50
102
RTVSPost2010PropOp48
 70
     1
102
RTVSPost2010Prop49
280
     0
102
RTVSPost2010PropOp49
 70
     1
102
RTVSPost2010Prop50
 90
       50
102
RTVSPost2010PropOp50
 70
     1
102
RTVSPost2010Prop51ColorIndex
 90
      256
102
RTVSPost2010Prop51ColorRGB
 90
-16777216
102
RTVSPost2010PropOp51
 70
     0
102
RTVSPost2010Prop52
140
1.0
102
RTVSPost2010PropOp52
 70
     0
102
RTVSPost2010Prop53
 90
        2
102
RTVSPost2010PropOp53
 70
     1
102
RTVSPost2010Prop54
  1
strokes_ogs.tif
102
RTVSPost2010PropOp54
 70
     1
102
RTVSPost2010Prop55
280
     0
102
RTVSPost2010PropOp55
 70
     1
102
RTVSPost2010Prop56
140
1.0
102
RTVSPost2010PropOp56
 70
     1
102
RTVSPost2010Prop57
140
1.0
102
RTVSPost2010PropOp57
 70
     1
102
RTVSPropertyOp0
 70
     1
102
RTVSPropertyOp1
 70
     1
102
RTVSPropertyOp2
 70
     1
102
RTVSPropertyOp3
 70
     1
102
RTVSPropertyOp4
 70
     1
102
RTVSPropertyOp5
 70
     1
102
RTVSPropertyOp6
 70
     1
102
RTVSPropertyOp7
 70
     1
102
RTVSPropertyOp8
 70
     1
102
RTVSPropertyOp9
 70
     1
102
RTVSPropertyOp10
 70
     1
102
RTVSPropertyOp11
 70
     1
102
RTVSPropertyOp12
 70
     1
102
RTVSPropertyOp13
 70
     1
102
RTVSPropertyOp14
 70
     1
102
RTVSPropertyOp15
 70
     1
102
RTVSPropertyOp16
 70
     1
102
RTVSPropertyOp17
 70
     1
102
RTVSPropertyOp18
 70
     1
102
RTVSPropertyOp19
 70
     1
102
RTVSPropertyOp20
 70
     1
102
RTVSPropertyOp21
 70
     1
102
RTVSPropertyOp22
 70
     1
102
RTVSPropertyOp23
 70
     1
102
RTVSPropertyOp24
 70
     1
102
RTVSPropertyOp25
 70
     1
102
RTVSPropertyOp26
 70
     1
102
RTVSPropertyOp27
 70
     1
102
RTVSPropertyOp28
 70
     1
102
RTVSPropertyOp29
 70
     1
102
RTVSPropertyOp30
 70
     1
102
RTVSPropertyOp31
 70
     1
102
RTVSPropertyOp32
 70
     1
102
RTVSPropertyOp33
 70
     1
102
RTVSPropertyOp34
 70
     1
102
RTVSPropertyOp35
 70
     1
102
RTVSPropertyOp36
 70
     1
102
RTVSPropertyOp37
 70
     1
102
RTVSPropertyOp38
 70
     1
102
RTVSPropertyOp39
 70
     1
102
RTVSPropertyOp40
 70
     1
102
RTVSPropertyOp41
 70
     1
102
RTVSPropertyOp42
 70
     1
102
RTVSPropertyOp43
 70
     1
102
RTVSPropertyOp44
 70
     1
102
RTVSPropertyOp45
 70
     1
102
RTVSPropertyOp46
 70
     1
102
RTVSPropertyOp47
 70
     1
102
RTVSPropertyOp48
 70
     1
102
RTVSPropertyOp49
 70
     1
102
RTVSPropertyOp50
 70
     1
102
RTVSPropertyOp51
 70
     0
102
RTVSPropertyOp52
 70
     0
102
RTVSPropertyOp53
 70
     1
102
RTVSPropertyOp54
 70
     1
102
RTVSPropertyOp55
 70
     1
102
RTVSPropertyOp56
 70
     1
102
RTVSPropertyOp57
 70
     1
102
RTVSPropertyOp58
 70
     1
102
RTVSPropertyOp59
 70
     1
102
RTVSPropertyOp60
 70
     1
102
RTVSPropertyOp61
 70
     1
102
RTVSPropertyOp62
 70
     1
  0
XRECORD
  5
66DD
102
{ACAD_REACTORS
330
66DC
102
}
330
66DC
100
AcDbXrecord
280
     1
102
RTVSPost2010Prop28
280
     0
102
RTVSPost2010PropOp28
 70
     1
102
RTVSPost2010Prop29
280
     1
102
RTVSPost2010PropOp29
 70
     1
102
RTVSPost2010Prop30
280
     1
102
RTVSPost2010PropOp30
 70
     1
102
RTVSPost2010Prop31
280
     0
102
RTVSPost2010PropOp31
 70
     1
102
RTVSPost2010Prop32
280
     0
102
RTVSPost2010PropOp32
 70
     1
102
RTVSPost2010Prop33
280
     0
102
RTVSPost2010PropOp33
 70
     1
102
RTVSPost2010Prop34
280
     0
102
RTVSPost2010PropOp34
 70
     1
102
RTVSPost2010Prop35
280
     0
102
RTVSPost2010PropOp35
 70
     1
102
RTVSPost2010Prop36
280
     0
102
RTVSPost2010PropOp36
 70
     1
102
RTVSPost2010Prop37
 90
       50
102
RTVSPost2010PropOp37
 70
     1
102
RTVSPost2010Prop38
140
0.0
102
RTVSPost2010PropOp38
 70
     1
102
RTVSPost2010Prop39
140
1.0
102
RTVSPost2010PropOp39
 70
     1
102
RTVSPost2010Prop40
 90
        0
102
RTVSPost2010PropOp40
 70
     1
102
RTVSPost2010Prop41ColorIndex
 90
       18
102
RTVSPost2010Prop41ColorRGB
 90
        0
102
RTVSPost2010PropOp41
 70
     1
102
RTVSPost2010Prop42
 90
       50
102
RTVSPost2010PropOp42
 70
     1
102
RTVSPost2010Prop43
 90
        3
102
RTVSPost2010PropOp43
 70
     1
102
RTVSPost2010Prop44ColorIndex
 90
        5
102
RTVSPost2010Prop44ColorRGB
 90
      255
102
RTVSPost2010PropOp44
 70
     1
102
RTVSPost2010Prop45
280
     0
102
RTVSPost2010PropOp45
 70
     1
102
RTVSPost2010Prop46
 90
       50
102
RTVSPost2010PropOp46
 70
     1
102
RTVSPost2010Prop47
 90
       50
102
RTVSPost2010PropOp47
 70
     1
102
RTVSPost2010Prop48
 90
       50
102
RTVSPost2010PropOp48
 70
     1
102
RTVSPost2010Prop49
280
     0
102
RTVSPost2010PropOp49
 70
     1
102
RTVSPost2010Prop50
 90
       50
102
RTVSPost2010PropOp50
 70
     1
102
RTVSPost2010Prop51ColorIndex
 90
      256
102
RTVSPost2010Prop51ColorRGB
 90
-16777216
102
RTVSPost2010PropOp51
 70
     0
102
RTVSPost2010Prop52
140
1.0
102
RTVSPost2010PropOp52
 70
     0
102
RTVSPost2010Prop53
 90
        2
102
RTVSPost2010PropOp53
 70
     1
102
RTVSPost2010Prop54
  1
strokes_ogs.tif
102
RTVSPost2010PropOp54
 70
     1
102
RTVSPost2010Prop55
280
     0
102
RTVSPost2010PropOp55
 70
     1
102
RTVSPost2010Prop56
140
1.0
102
RTVSPost2010PropOp56
 70
     1
102
RTVSPost2010Prop57
140
1.0
102
RTVSPost2010PropOp57
 70
     1
102
RTVSPropertyOp0
 70
     1
102
RTVSPropertyOp1
 70
     1
102
RTVSPropertyOp2
 70
     1
102
RTVSPropertyOp3
 70
     1
102
RTVSPropertyOp4
 70
     1
102
RTVSPropertyOp5
 70
     1
102
RTVSPropertyOp6
 70
     1
102
RTVSPropertyOp7
 70
     1
102
RTVSPropertyOp8
 70
     1
102
RTVSPropertyOp9
 70
     1
102
RTVSPropertyOp10
 70
     1
102
RTVSPropertyOp11
 70
     1
102
RTVSPropertyOp12
 70
     1
102
RTVSPropertyOp13
 70
     1
102
RTVSPropertyOp14
 70
     1
102
RTVSPropertyOp15
 70
     1
102
RTVSPropertyOp16
 70
     1
102
RTVSPropertyOp17
 70
     1
102
RTVSPropertyOp18
 70
     1
102
RTVSPropertyOp19
 70
     1
102
RTVSPropertyOp20
 70
     1
102
RTVSPropertyOp21
 70
     1
102
RTVSPropertyOp22
 70
     1
102
RTVSPropertyOp23
 70
     1
102
RTVSPropertyOp24
 70
     1
102
RTVSPropertyOp25
 70
     1
102
RTVSPropertyOp26
 70
     1
102
RTVSPropertyOp27
 70
     1
102
RTVSPropertyOp28
 70
     1
102
RTVSPropertyOp29
 70
     1
102
RTVSPropertyOp30
 70
     1
102
RTVSPropertyOp31
 70
     1
102
RTVSPropertyOp32
 70
     1
102
RTVSPropertyOp33
 70
     1
102
RTVSPropertyOp34
 70
     1
102
RTVSPropertyOp35
 70
     1
102
RTVSPropertyOp36
 70
     1
102
RTVSPropertyOp37
 70
     1
102
RTVSPropertyOp38
 70
     1
102
RTVSPropertyOp39
 70
     1
102
RTVSPropertyOp40
 70
     1
102
RTVSPropertyOp41
 70
     1
102
RTVSPropertyOp42
 70
     1
102
RTVSPropertyOp43
 70
     1
102
RTVSPropertyOp44
 70
     1
102
RTVSPropertyOp45
 70
     1
102
RTVSPropertyOp46
 70
     1
102
RTVSPropertyOp47
 70
     1
102
RTVSPropertyOp48
 70
     1
102
RTVSPropertyOp49
 70
     1
102
RTVSPropertyOp50
 70
     1
102
RTVSPropertyOp51
 70
     0
102
RTVSPropertyOp52
 70
     0
102
RTVSPropertyOp53
 70
     1
102
RTVSPropertyOp54
 70
     1
102
RTVSPropertyOp55
 70
     1
102
RTVSPropertyOp56
 70
     1
102
RTVSPropertyOp57
 70
     1
102
RTVSPropertyOp58
 70
     1
102
RTVSPropertyOp59
 70
     1
102
RTVSPropertyOp60
 70
     1
102
RTVSPropertyOp61
 70
     1
102
RTVSPropertyOp62
 70
     1
  0
XRECORD
  5
66FB
102
{ACAD_REACTORS
330
66FA
102
}
330
66FA
100
AcDbXrecord
280
     1
102
RTVSPost2010Prop28
280
     0
102
RTVSPost2010PropOp28
 70
     0
102
RTVSPost2010Prop29
280
     1
102
RTVSPost2010PropOp29
 70
     0
102
RTVSPost2010Prop30
280
     1
102
RTVSPost2010PropOp30
 70
     0
102
RTVSPost2010Prop31
280
     0
102
RTVSPost2010PropOp31
 70
     0
102
RTVSPost2010Prop32
280
     0
102
RTVSPost2010PropOp32
 70
     0
102
RTVSPost2010Prop33
280
     0
102
RTVSPost2010PropOp33
 70
     0
102
RTVSPost2010Prop34
280
     0
102
RTVSPost2010PropOp34
 70
     0
102
RTVSPost2010Prop35
280
     0
102
RTVSPost2010PropOp35
 70
     0
102
RTVSPost2010Prop36
280
     0
102
RTVSPost2010PropOp36
 70
     0
102
RTVSPost2010Prop37
 90
       50
102
RTVSPost2010PropOp37
 70
     0
102
RTVSPost2010Prop38
140
0.0
102
RTVSPost2010PropOp38
 70
     0
102
RTVSPost2010Prop39
140
1.0
102
RTVSPost2010PropOp39
 70
     0
102
RTVSPost2010Prop40
 90
        0
102
RTVSPost2010PropOp40
 70
     0
102
RTVSPost2010Prop41ColorIndex
 90
       18
102
RTVSPost2010Prop41ColorRGB
 90
        0
102
RTVSPost2010PropOp41
 70
     0
102
RTVSPost2010Prop42
 90
       50
102
RTVSPost2010PropOp42
 70
     0
102
RTVSPost2010Prop43
 90
        3
102
RTVSPost2010PropOp43
 70
     0
102
RTVSPost2010Prop44ColorIndex
 90
        5
102
RTVSPost2010Prop44ColorRGB
 90
      255
102
RTVSPost2010PropOp44
 70
     0
102
RTVSPost2010Prop45
280
     0
102
RTVSPost2010PropOp45
 70
     0
102
RTVSPost2010Prop46
 90
       50
102
RTVSPost2010PropOp46
 70
     0
102
RTVSPost2010Prop47
 90
       50
102
RTVSPost2010PropOp47
 70
     0
102
RTVSPost2010Prop48
 90
       50
102
RTVSPost2010PropOp48
 70
     0
102
RTVSPost2010Prop49
280
     0
102
RTVSPost2010PropOp49
 70
     0
102
RTVSPost2010Prop50
 90
       50
102
RTVSPost2010PropOp50
 70
     0
102
RTVSPost2010Prop51ColorIndex
 90
      256
102
RTVSPost2010Prop51ColorRGB
 90
-16777216
102
RTVSPost2010PropOp51
 70
     0
102
RTVSPost2010Prop52
140
1.0
102
RTVSPost2010PropOp52
 70
     0
102
RTVSPost2010Prop53
 90
        2
102
RTVSPost2010PropOp53
 70
     0
102
RTVSPost2010Prop54
  1
strokes_ogs.tif
102
RTVSPost2010PropOp54
 70
     0
102
RTVSPost2010Prop55
280
     0
102
RTVSPost2010PropOp55
 70
     0
102
RTVSPost2010Prop56
140
1.0
102
RTVSPost2010PropOp56
 70
     0
102
RTVSPost2010Prop57
140
1.0
102
RTVSPost2010PropOp57
 70
     0
102
RTVSPropertyOp0
 70
     0
102
RTVSPropertyOp1
 70
     0
102
RTVSPropertyOp2
 70
     0
102
RTVSPropertyOp3
 70
     0
102
RTVSPropertyOp4
 70
     0
102
RTVSPropertyOp5
 70
     0
102
RTVSPropertyOp6
 70
     0
102
RTVSPropertyOp7
 70
     0
102
RTVSPropertyOp8
 70
     0
102
RTVSPropertyOp9
 70
     0
102
RTVSPropertyOp10
 70
     0
102
RTVSPropertyOp11
 70
     0
102
RTVSPropertyOp12
 70
     0
102
RTVSPropertyOp13
 70
     0
102
RTVSPropertyOp14
 70
     2
102
RTVSPropertyOp15
 70
     0
102
RTVSPropertyOp16
 70
     0
102
RTVSPropertyOp17
 70
     0
102
RTVSPropertyOp18
 70
     0
102
RTVSPropertyOp19
 70
     0
102
RTVSPropertyOp20
 70
     0
102
RTVSPropertyOp21
 70
     0
102
RTVSPropertyOp22
 70
     0
102
RTVSPropertyOp23
 70
     0
102
RTVSPropertyOp24
 70
     0
102
RTVSPropertyOp25
 70
     0
102
RTVSPropertyOp26
 70
     0
102
RTVSPropertyOp27
 70
     0
102
RTVSPropertyOp28
 70
     0
102
RTVSPropertyOp29
 70
     0
102
RTVSPropertyOp30
 70
     0
102
RTVSPropertyOp31
 70
     0
102
RTVSPropertyOp32
 70
     0
102
RTVSPropertyOp33
 70
     0
102
RTVSPropertyOp34
 70
     0
102
RTVSPropertyOp35
 70
     0
102
RTVSPropertyOp36
 70
     0
102
RTVSPropertyOp37
 70
     0
102
RTVSPropertyOp38
 70
     0
102
RTVSPropertyOp39
 70
     0
102
RTVSPropertyOp40
 70
     0
102
RTVSPropertyOp41
 70
     0
102
RTVSPropertyOp42
 70
     0
102
RTVSPropertyOp43
 70
     0
102
RTVSPropertyOp44
 70
     0
102
RTVSPropertyOp45
 70
     0
102
RTVSPropertyOp46
 70
     0
102
RTVSPropertyOp47
 70
     0
102
RTVSPropertyOp48
 70
     0
102
RTVSPropertyOp49
 70
     0
102
RTVSPropertyOp50
 70
     0
102
RTVSPropertyOp51
 70
     0
102
RTVSPropertyOp52
 70
     0
102
RTVSPropertyOp53
 70
     0
102
RTVSPropertyOp54
 70
     0
102
RTVSPropertyOp55
 70
     0
102
RTVSPropertyOp56
 70
     0
102
RTVSPropertyOp57
 70
     0
102
RTVSPropertyOp58
 70
     0
102
RTVSPropertyOp59
 70
     0
102
RTVSPropertyOp60
 70
     0
102
RTVSPropertyOp61
 70
     0
102
RTVSPropertyOp62
 70
     0
  0
XRECORD
  5
66E5
102
{ACAD_REACTORS
330
66E4
102
}
330
66E4
100
AcDbXrecord
280
     1
102
RTVSPost2010Prop28
280
     0
102
RTVSPost2010PropOp28
 70
     1
102
RTVSPost2010Prop29
280
     1
102
RTVSPost2010PropOp29
 70
     1
102
RTVSPost2010Prop30
280
     1
102
RTVSPost2010PropOp30
 70
     1
102
RTVSPost2010Prop31
280
     0
102
RTVSPost2010PropOp31
 70
     1
102
RTVSPost2010Prop32
280
     0
102
RTVSPost2010PropOp32
 70
     1
102
RTVSPost2010Prop33
280
     0
102
RTVSPost2010PropOp33
 70
     1
102
RTVSPost2010Prop34
280
     0
102
RTVSPost2010PropOp34
 70
     1
102
RTVSPost2010Prop35
280
     0
102
RTVSPost2010PropOp35
 70
     1
102
RTVSPost2010Prop36
280
     0
102
RTVSPost2010PropOp36
 70
     1
102
RTVSPost2010Prop37
 90
       50
102
RTVSPost2010PropOp37
 70
     1
102
RTVSPost2010Prop38
140
0.0
102
RTVSPost2010PropOp38
 70
     1
102
RTVSPost2010Prop39
140
1.0
102
RTVSPost2010PropOp39
 70
     1
102
RTVSPost2010Prop40
 90
        0
102
RTVSPost2010PropOp40
 70
     1
102
RTVSPost2010Prop41ColorIndex
 90
       18
102
RTVSPost2010Prop41ColorRGB
 90
        0
102
RTVSPost2010PropOp41
 70
     1
102
RTVSPost2010Prop42
 90
       50
102
RTVSPost2010PropOp42
 70
     1
102
RTVSPost2010Prop43
 90
        3
102
RTVSPost2010PropOp43
 70
     1
102
RTVSPost2010Prop44ColorIndex
 90
        5
102
RTVSPost2010Prop44ColorRGB
 90
      255
102
RTVSPost2010PropOp44
 70
     1
102
RTVSPost2010Prop45
280
     0
102
RTVSPost2010PropOp45
 70
     1
102
RTVSPost2010Prop46
 90
       50
102
RTVSPost2010PropOp46
 70
     1
102
RTVSPost2010Prop47
 90
       50
102
RTVSPost2010PropOp47
 70
     1
102
RTVSPost2010Prop48
 90
       50
102
RTVSPost2010PropOp48
 70
     1
102
RTVSPost2010Prop49
280
     0
102
RTVSPost2010PropOp49
 70
     1
102
RTVSPost2010Prop50
 90
       50
102
RTVSPost2010PropOp50
 70
     1
102
RTVSPost2010Prop51ColorIndex
 90
      256
102
RTVSPost2010Prop51ColorRGB
 90
-16777216
102
RTVSPost2010PropOp51
 70
     0
102
RTVSPost2010Prop52
140
1.0
102
RTVSPost2010PropOp52
 70
     0
102
RTVSPost2010Prop53
 90
        2
102
RTVSPost2010PropOp53
 70
     1
102
RTVSPost2010Prop54
  1
strokes_ogs.tif
102
RTVSPost2010PropOp54
 70
     1
102
RTVSPost2010Prop55
280
     0
102
RTVSPost2010PropOp55
 70
     1
102
RTVSPost2010Prop56
140
1.0
102
RTVSPost2010PropOp56
 70
     1
102
RTVSPost2010Prop57
140
1.0
102
RTVSPost2010PropOp57
 70
     1
102
RTVSPropertyOp0
 70
     1
102
RTVSPropertyOp1
 70
     1
102
RTVSPropertyOp2
 70
     1
102
RTVSPropertyOp3
 70
     1
102
RTVSPropertyOp4
 70
     1
102
RTVSPropertyOp5
 70
     1
102
RTVSPropertyOp6
 70
     1
102
RTVSPropertyOp7
 70
     1
102
RTVSPropertyOp8
 70
     1
102
RTVSPropertyOp9
 70
     1
102
RTVSPropertyOp10
 70
     1
102
RTVSPropertyOp11
 70
     1
102
RTVSPropertyOp12
 70
     1
102
RTVSPropertyOp13
 70
     1
102
RTVSPropertyOp14
 70
     1
102
RTVSPropertyOp15
 70
     1
102
RTVSPropertyOp16
 70
     1
102
RTVSPropertyOp17
 70
     1
102
RTVSPropertyOp18
 70
     1
102
RTVSPropertyOp19
 70
     1
102
RTVSPropertyOp20
 70
     1
102
RTVSPropertyOp21
 70
     1
102
RTVSPropertyOp22
 70
     1
102
RTVSPropertyOp23
 70
     1
102
RTVSPropertyOp24
 70
     1
102
RTVSPropertyOp25
 70
     1
102
RTVSPropertyOp26
 70
     1
102
RTVSPropertyOp27
 70
     1
102
RTVSPropertyOp28
 70
     1
102
RTVSPropertyOp29
 70
     1
102
RTVSPropertyOp30
 70
     1
102
RTVSPropertyOp31
 70
     1
102
RTVSPropertyOp32
 70
     1
102
RTVSPropertyOp33
 70
     1
102
RTVSPropertyOp34
 70
     1
102
RTVSPropertyOp35
 70
     1
102
RTVSPropertyOp36
 70
     1
102
RTVSPropertyOp37
 70
     1
102
RTVSPropertyOp38
 70
     1
102
RTVSPropertyOp39
 70
     1
102
RTVSPropertyOp40
 70
     1
102
RTVSPropertyOp41
 70
     1
102
RTVSPropertyOp42
 70
     1
102
RTVSPropertyOp43
 70
     1
102
RTVSPropertyOp44
 70
     1
102
RTVSPropertyOp45
 70
     1
102
RTVSPropertyOp46
 70
     1
102
RTVSPropertyOp47
 70
     1
102
RTVSPropertyOp48
 70
     1
102
RTVSPropertyOp49
 70
     1
102
RTVSPropertyOp50
 70
     1
102
RTVSPropertyOp51
 70
     0
102
RTVSPropertyOp52
 70
     0
102
RTVSPropertyOp53
 70
     1
102
RTVSPropertyOp54
 70
     1
102
RTVSPropertyOp55
 70
     1
102
RTVSPropertyOp56
 70
     1
102
RTVSPropertyOp57
 70
     1
102
RTVSPropertyOp58
 70
     1
102
RTVSPropertyOp59
 70
     1
102
RTVSPropertyOp60
 70
     1
102
RTVSPropertyOp61
 70
     1
102
RTVSPropertyOp62
 70
     1
  0
XRECORD
  5
66C9
102
{ACAD_REACTORS
330
66C8
102
}
330
66C8
100
AcDbXrecord
280
     1
102
RTVSPost2010Prop28
280
     0
102
RTVSPost2010PropOp28
 70
     1
102
RTVSPost2010Prop29
280
     1
102
RTVSPost2010PropOp29
 70
     1
102
RTVSPost2010Prop30
280
     1
102
RTVSPost2010PropOp30
 70
     1
102
RTVSPost2010Prop31
280
     0
102
RTVSPost2010PropOp31
 70
     1
102
RTVSPost2010Prop32
280
     0
102
RTVSPost2010PropOp32
 70
     1
102
RTVSPost2010Prop33
280
     0
102
RTVSPost2010PropOp33
 70
     1
102
RTVSPost2010Prop34
280
     0
102
RTVSPost2010PropOp34
 70
     1
102
RTVSPost2010Prop35
280
     0
102
RTVSPost2010PropOp35
 70
     1
102
RTVSPost2010Prop36
280
     0
102
RTVSPost2010PropOp36
 70
     1
102
RTVSPost2010Prop37
 90
       50
102
RTVSPost2010PropOp37
 70
     1
102
RTVSPost2010Prop38
140
0.0
102
RTVSPost2010PropOp38
 70
     1
102
RTVSPost2010Prop39
140
1.0
102
RTVSPost2010PropOp39
 70
     1
102
RTVSPost2010Prop40
 90
        0
102
RTVSPost2010PropOp40
 70
     1
102
RTVSPost2010Prop41ColorIndex
 90
       18
102
RTVSPost2010Prop41ColorRGB
 90
        0
102
RTVSPost2010PropOp41
 70
     1
102
RTVSPost2010Prop42
 90
       50
102
RTVSPost2010PropOp42
 70
     1
102
RTVSPost2010Prop43
 90
        3
102
RTVSPost2010PropOp43
 70
     1
102
RTVSPost2010Prop44ColorIndex
 90
        5
102
RTVSPost2010Prop44ColorRGB
 90
      255
102
RTVSPost2010PropOp44
 70
     1
102
RTVSPost2010Prop45
280
     0
102
RTVSPost2010PropOp45
 70
     1
102
RTVSPost2010Prop46
 90
       50
102
RTVSPost2010PropOp46
 70
     1
102
RTVSPost2010Prop47
 90
       50
102
RTVSPost2010PropOp47
 70
     1
102
RTVSPost2010Prop48
 90
       50
102
RTVSPost2010PropOp48
 70
     1
102
RTVSPost2010Prop49
280
     0
102
RTVSPost2010PropOp49
 70
     1
102
RTVSPost2010Prop50
 90
       50
102
RTVSPost2010PropOp50
 70
     1
102
RTVSPost2010Prop51ColorIndex
 90
      256
102
RTVSPost2010Prop51ColorRGB
 90
-16777216
102
RTVSPost2010PropOp51
 70
     0
102
RTVSPost2010Prop52
140
1.0
102
RTVSPost2010PropOp52
 70
     0
102
RTVSPost2010Prop53
 90
        2
102
RTVSPost2010PropOp53
 70
     1
102
RTVSPost2010Prop54
  1
strokes_ogs.tif
102
RTVSPost2010PropOp54
 70
     1
102
RTVSPost2010Prop55
280
     0
102
RTVSPost2010PropOp55
 70
     1
102
RTVSPost2010Prop56
140
1.0
102
RTVSPost2010PropOp56
 70
     1
102
RTVSPost2010Prop57
140
1.0
102
RTVSPost2010PropOp57
 70
     1
102
RTVSPropertyOp0
 70
     1
102
RTVSPropertyOp1
 70
     1
102
RTVSPropertyOp2
 70
     1
102
RTVSPropertyOp3
 70
     1
102
RTVSPropertyOp4
 70
     1
102
RTVSPropertyOp5
 70
     1
102
RTVSPropertyOp6
 70
     1
102
RTVSPropertyOp7
 70
     1
102
RTVSPropertyOp8
 70
     1
102
RTVSPropertyOp9
 70
     1
102
RTVSPropertyOp10
 70
     1
102
RTVSPropertyOp11
 70
     1
102
RTVSPropertyOp12
 70
     1
102
RTVSPropertyOp13
 70
     1
102
RTVSPropertyOp14
 70
     1
102
RTVSPropertyOp15
 70
     1
102
RTVSPropertyOp16
 70
     1
102
RTVSPropertyOp17
 70
     1
102
RTVSPropertyOp18
 70
     1
102
RTVSPropertyOp19
 70
     1
102
RTVSPropertyOp20
 70
     1
102
RTVSPropertyOp21
 70
     1
102
RTVSPropertyOp22
 70
     1
102
RTVSPropertyOp23
 70
     1
102
RTVSPropertyOp24
 70
     1
102
RTVSPropertyOp25
 70
     1
102
RTVSPropertyOp26
 70
     1
102
RTVSPropertyOp27
 70
     1
102
RTVSPropertyOp28
 70
     1
102
RTVSPropertyOp29
 70
     1
102
RTVSPropertyOp30
 70
     1
102
RTVSPropertyOp31
 70
     1
102
RTVSPropertyOp32
 70
     1
102
RTVSPropertyOp33
 70
     1
102
RTVSPropertyOp34
 70
     1
102
RTVSPropertyOp35
 70
     1
102
RTVSPropertyOp36
 70
     1
102
RTVSPropertyOp37
 70
     1
102
RTVSPropertyOp38
 70
     1
102
RTVSPropertyOp39
 70
     1
102
RTVSPropertyOp40
 70
     1
102
RTVSPropertyOp41
 70
     1
102
RTVSPropertyOp42
 70
     1
102
RTVSPropertyOp43
 70
     1
102
RTVSPropertyOp44
 70
     1
102
RTVSPropertyOp45
 70
     1
102
RTVSPropertyOp46
 70
     1
102
RTVSPropertyOp47
 70
     1
102
RTVSPropertyOp48
 70
     1
102
RTVSPropertyOp49
 70
     1
102
RTVSPropertyOp50
 70
     1
102
RTVSPropertyOp51
 70
     0
102
RTVSPropertyOp52
 70
     0
102
RTVSPropertyOp53
 70
     1
102
RTVSPropertyOp54
 70
     1
102
RTVSPropertyOp55
 70
     1
102
RTVSPropertyOp56
 70
     1
102
RTVSPropertyOp57
 70
     1
102
RTVSPropertyOp58
 70
     1
102
RTVSPropertyOp59
 70
     1
102
RTVSPropertyOp60
 70
     1
102
RTVSPropertyOp61
 70
     1
102
RTVSPropertyOp62
 70
     1
  0
XRECORD
  5
66CB
102
{ACAD_REACTORS
330
66CA
102
}
330
66CA
100
AcDbXrecord
280
     1
102
RTVSPost2010Prop28
280
     0
102
RTVSPost2010PropOp28
 70
     1
102
RTVSPost2010Prop29
280
     1
102
RTVSPost2010PropOp29
 70
     1
102
RTVSPost2010Prop30
280
     1
102
RTVSPost2010PropOp30
 70
     1
102
RTVSPost2010Prop31
280
     0
102
RTVSPost2010PropOp31
 70
     1
102
RTVSPost2010Prop32
280
     0
102
RTVSPost2010PropOp32
 70
     1
102
RTVSPost2010Prop33
280
     0
102
RTVSPost2010PropOp33
 70
     1
102
RTVSPost2010Prop34
280
     0
102
RTVSPost2010PropOp34
 70
     1
102
RTVSPost2010Prop35
280
     0
102
RTVSPost2010PropOp35
 70
     1
102
RTVSPost2010Prop36
280
     0
102
RTVSPost2010PropOp36
 70
     1
102
RTVSPost2010Prop37
 90
       50
102
RTVSPost2010PropOp37
 70
     1
102
RTVSPost2010Prop38
140
0.0
102
RTVSPost2010PropOp38
 70
     1
102
RTVSPost2010Prop39
140
1.0
102
RTVSPost2010PropOp39
 70
     1
102
RTVSPost2010Prop40
 90
        0
102
RTVSPost2010PropOp40
 70
     1
102
RTVSPost2010Prop41ColorIndex
 90
       18
102
RTVSPost2010Prop41ColorRGB
 90
        0
102
RTVSPost2010PropOp41
 70
     1
102
RTVSPost2010Prop42
 90
       50
102
RTVSPost2010PropOp42
 70
     1
102
RTVSPost2010Prop43
 90
        3
102
RTVSPost2010PropOp43
 70
     1
102
RTVSPost2010Prop44ColorIndex
 90
        5
102
RTVSPost2010Prop44ColorRGB
 90
      255
102
RTVSPost2010PropOp44
 70
     1
102
RTVSPost2010Prop45
280
     0
102
RTVSPost2010PropOp45
 70
     1
102
RTVSPost2010Prop46
 90
       50
102
RTVSPost2010PropOp46
 70
     1
102
RTVSPost2010Prop47
 90
       50
102
RTVSPost2010PropOp47
 70
     1
102
RTVSPost2010Prop48
 90
       50
102
RTVSPost2010PropOp48
 70
     1
102
RTVSPost2010Prop49
280
     0
102
RTVSPost2010PropOp49
 70
     1
102
RTVSPost2010Prop50
 90
       50
102
RTVSPost2010PropOp50
 70
     1
102
RTVSPost2010Prop51ColorIndex
 90
      256
102
RTVSPost2010Prop51ColorRGB
 90
-16777216
102
RTVSPost2010PropOp51
 70
     0
102
RTVSPost2010Prop52
140
1.0
102
RTVSPost2010PropOp52
 70
     0
102
RTVSPost2010Prop53
 90
        2
102
RTVSPost2010PropOp53
 70
     1
102
RTVSPost2010Prop54
  1
strokes_ogs.tif
102
RTVSPost2010PropOp54
 70
     1
102
RTVSPost2010Prop55
280
     0
102
RTVSPost2010PropOp55
 70
     1
102
RTVSPost2010Prop56
140
1.0
102
RTVSPost2010PropOp56
 70
     1
102
RTVSPost2010Prop57
140
1.0
102
RTVSPost2010PropOp57
 70
     1
102
RTVSPropertyOp0
 70
     1
102
RTVSPropertyOp1
 70
     1
102
RTVSPropertyOp2
 70
     1
102
RTVSPropertyOp3
 70
     1
102
RTVSPropertyOp4
 70
     1
102
RTVSPropertyOp5
 70
     1
102
RTVSPropertyOp6
 70
     1
102
RTVSPropertyOp7
 70
     1
102
RTVSPropertyOp8
 70
     1
102
RTVSPropertyOp9
 70
     1
102
RTVSPropertyOp10
 70
     1
102
RTVSPropertyOp11
 70
     1
102
RTVSPropertyOp12
 70
     1
102
RTVSPropertyOp13
 70
     1
102
RTVSPropertyOp14
 70
     1
102
RTVSPropertyOp15
 70
     1
102
RTVSPropertyOp16
 70
     1
102
RTVSPropertyOp17
 70
     1
102
RTVSPropertyOp18
 70
     1
102
RTVSPropertyOp19
 70
     1
102
RTVSPropertyOp20
 70
     1
102
RTVSPropertyOp21
 70
     1
102
RTVSPropertyOp22
 70
     1
102
RTVSPropertyOp23
 70
     1
102
RTVSPropertyOp24
 70
     1
102
RTVSPropertyOp25
 70
     1
102
RTVSPropertyOp26
 70
     1
102
RTVSPropertyOp27
 70
     1
102
RTVSPropertyOp28
 70
     1
102
RTVSPropertyOp29
 70
     1
102
RTVSPropertyOp30
 70
     1
102
RTVSPropertyOp31
 70
     1
102
RTVSPropertyOp32
 70
     1
102
RTVSPropertyOp33
 70
     1
102
RTVSPropertyOp34
 70
     1
102
RTVSPropertyOp35
 70
     1
102
RTVSPropertyOp36
 70
     1
102
RTVSPropertyOp37
 70
     1
102
RTVSPropertyOp38
 70
     1
102
RTVSPropertyOp39
 70
     1
102
RTVSPropertyOp40
 70
     1
102
RTVSPropertyOp41
 70
     1
102
RTVSPropertyOp42
 70
     1
102
RTVSPropertyOp43
 70
     1
102
RTVSPropertyOp44
 70
     1
102
RTVSPropertyOp45
 70
     1
102
RTVSPropertyOp46
 70
     1
102
RTVSPropertyOp47
 70
     1
102
RTVSPropertyOp48
 70
     1
102
RTVSPropertyOp49
 70
     1
102
RTVSPropertyOp50
 70
     1
102
RTVSPropertyOp51
 70
     0
102
RTVSPropertyOp52
 70
     0
102
RTVSPropertyOp53
 70
     1
102
RTVSPropertyOp54
 70
     1
102
RTVSPropertyOp55
 70
     1
102
RTVSPropertyOp56
 70
     1
102
RTVSPropertyOp57
 70
     1
102
RTVSPropertyOp58
 70
     1
102
RTVSPropertyOp59
 70
     1
102
RTVSPropertyOp60
 70
     1
102
RTVSPropertyOp61
 70
     1
102
RTVSPropertyOp62
 70
     1
  0
XRECORD
  5
66CD
102
{ACAD_REACTORS
330
66CC
102
}
330
66CC
100
AcDbXrecord
280
     1
102
RTVSPost2010Prop28
280
     0
102
RTVSPost2010PropOp28
 70
     1
102
RTVSPost2010Prop29
280
     1
102
RTVSPost2010PropOp29
 70
     1
102
RTVSPost2010Prop30
280
     1
102
RTVSPost2010PropOp30
 70
     1
102
RTVSPost2010Prop31
280
     0
102
RTVSPost2010PropOp31
 70
     1
102
RTVSPost2010Prop32
280
     0
102
RTVSPost2010PropOp32
 70
     1
102
RTVSPost2010Prop33
280
     0
102
RTVSPost2010PropOp33
 70
     1
102
RTVSPost2010Prop34
280
     0
102
RTVSPost2010PropOp34
 70
     1
102
RTVSPost2010Prop35
280
     0
102
RTVSPost2010PropOp35
 70
     1
102
RTVSPost2010Prop36
280
     0
102
RTVSPost2010PropOp36
 70
     1
102
RTVSPost2010Prop37
 90
       50
102
RTVSPost2010PropOp37
 70
     1
102
RTVSPost2010Prop38
140
0.0
102
RTVSPost2010PropOp38
 70
     1
102
RTVSPost2010Prop39
140
1.0
102
RTVSPost2010PropOp39
 70
     1
102
RTVSPost2010Prop40
 90
        0
102
RTVSPost2010PropOp40
 70
     1
102
RTVSPost2010Prop41ColorIndex
 90
       18
102
RTVSPost2010Prop41ColorRGB
 90
        0
102
RTVSPost2010PropOp41
 70
     1
102
RTVSPost2010Prop42
 90
       50
102
RTVSPost2010PropOp42
 70
     1
102
RTVSPost2010Prop43
 90
        3
102
RTVSPost2010PropOp43
 70
     1
102
RTVSPost2010Prop44ColorIndex
 90
        5
102
RTVSPost2010Prop44ColorRGB
 90
      255
102
RTVSPost2010PropOp44
 70
     1
102
RTVSPost2010Prop45
280
     0
102
RTVSPost2010PropOp45
 70
     1
102
RTVSPost2010Prop46
 90
       50
102
RTVSPost2010PropOp46
 70
     1
102
RTVSPost2010Prop47
 90
       50
102
RTVSPost2010PropOp47
 70
     1
102
RTVSPost2010Prop48
 90
       50
102
RTVSPost2010PropOp48
 70
     1
102
RTVSPost2010Prop49
280
     0
102
RTVSPost2010PropOp49
 70
     1
102
RTVSPost2010Prop50
 90
       50
102
RTVSPost2010PropOp50
 70
     1
102
RTVSPost2010Prop51ColorIndex
 90
      256
102
RTVSPost2010Prop51ColorRGB
 90
-16777216
102
RTVSPost2010PropOp51
 70
     0
102
RTVSPost2010Prop52
140
1.0
102
RTVSPost2010PropOp52
 70
     0
102
RTVSPost2010Prop53
 90
        2
102
RTVSPost2010PropOp53
 70
     1
102
RTVSPost2010Prop54
  1
strokes_ogs.tif
102
RTVSPost2010PropOp54
 70
     1
102
RTVSPost2010Prop55
280
     0
102
RTVSPost2010PropOp55
 70
     1
102
RTVSPost2010Prop56
140
1.0
102
RTVSPost2010PropOp56
 70
     1
102
RTVSPost2010Prop57
140
1.0
102
RTVSPost2010PropOp57
 70
     1
102
RTVSPropertyOp0
 70
     1
102
RTVSPropertyOp1
 70
     1
102
RTVSPropertyOp2
 70
     1
102
RTVSPropertyOp3
 70
     1
102
RTVSPropertyOp4
 70
     1
102
RTVSPropertyOp5
 70
     1
102
RTVSPropertyOp6
 70
     1
102
RTVSPropertyOp7
 70
     1
102
RTVSPropertyOp8
 70
     1
102
RTVSPropertyOp9
 70
     1
102
RTVSPropertyOp10
 70
     1
102
RTVSPropertyOp11
 70
     1
102
RTVSPropertyOp12
 70
     1
102
RTVSPropertyOp13
 70
     1
102
RTVSPropertyOp14
 70
     1
102
RTVSPropertyOp15
 70
     1
102
RTVSPropertyOp16
 70
     1
102
RTVSPropertyOp17
 70
     1
102
RTVSPropertyOp18
 70
     1
102
RTVSPropertyOp19
 70
     1
102
RTVSPropertyOp20
 70
     1
102
RTVSPropertyOp21
 70
     1
102
RTVSPropertyOp22
 70
     1
102
RTVSPropertyOp23
 70
     1
102
RTVSPropertyOp24
 70
     1
102
RTVSPropertyOp25
 70
     1
102
RTVSPropertyOp26
 70
     1
102
RTVSPropertyOp27
 70
     1
102
RTVSPropertyOp28
 70
     1
102
RTVSPropertyOp29
 70
     1
102
RTVSPropertyOp30
 70
     1
102
RTVSPropertyOp31
 70
     1
102
RTVSPropertyOp32
 70
     1
102
RTVSPropertyOp33
 70
     1
102
RTVSPropertyOp34
 70
     1
102
RTVSPropertyOp35
 70
     1
102
RTVSPropertyOp36
 70
     1
102
RTVSPropertyOp37
 70
     1
102
RTVSPropertyOp38
 70
     1
102
RTVSPropertyOp39
 70
     1
102
RTVSPropertyOp40
 70
     1
102
RTVSPropertyOp41
 70
     1
102
RTVSPropertyOp42
 70
     1
102
RTVSPropertyOp43
 70
     1
102
RTVSPropertyOp44
 70
     1
102
RTVSPropertyOp45
 70
     1
102
RTVSPropertyOp46
 70
     1
102
RTVSPropertyOp47
 70
     1
102
RTVSPropertyOp48
 70
     1
102
RTVSPropertyOp49
 70
     1
102
RTVSPropertyOp50
 70
     1
102
RTVSPropertyOp51
 70
     0
102
RTVSPropertyOp52
 70
     0
102
RTVSPropertyOp53
 70
     1
102
RTVSPropertyOp54
 70
     1
102
RTVSPropertyOp55
 70
     1
102
RTVSPropertyOp56
 70
     1
102
RTVSPropertyOp57
 70
     1
102
RTVSPropertyOp58
 70
     1
102
RTVSPropertyOp59
 70
     1
102
RTVSPropertyOp60
 70
     1
102
RTVSPropertyOp61
 70
     1
102
RTVSPropertyOp62
 70
     1
  0
XRECORD
  5
66CF
102
{ACAD_REACTORS
330
66CE
102
}
330
66CE
100
AcDbXrecord
280
     1
102
RTVSPost2010Prop28
280
     0
102
RTVSPost2010PropOp28
 70
     1
102
RTVSPost2010Prop29
280
     1
102
RTVSPost2010PropOp29
 70
     1
102
RTVSPost2010Prop30
280
     1
102
RTVSPost2010PropOp30
 70
     1
102
RTVSPost2010Prop31
280
     0
102
RTVSPost2010PropOp31
 70
     1
102
RTVSPost2010Prop32
280
     0
102
RTVSPost2010PropOp32
 70
     1
102
RTVSPost2010Prop33
280
     0
102
RTVSPost2010PropOp33
 70
     1
102
RTVSPost2010Prop34
280
     0
102
RTVSPost2010PropOp34
 70
     1
102
RTVSPost2010Prop35
280
     0
102
RTVSPost2010PropOp35
 70
     1
102
RTVSPost2010Prop36
280
     0
102
RTVSPost2010PropOp36
 70
     1
102
RTVSPost2010Prop37
 90
       50
102
RTVSPost2010PropOp37
 70
     1
102
RTVSPost2010Prop38
140
0.0
102
RTVSPost2010PropOp38
 70
     1
102
RTVSPost2010Prop39
140
1.0
102
RTVSPost2010PropOp39
 70
     1
102
RTVSPost2010Prop40
 90
        0
102
RTVSPost2010PropOp40
 70
     1
102
RTVSPost2010Prop41ColorIndex
 90
       18
102
RTVSPost2010Prop41ColorRGB
 90
        0
102
RTVSPost2010PropOp41
 70
     1
102
RTVSPost2010Prop42
 90
       50
102
RTVSPost2010PropOp42
 70
     1
102
RTVSPost2010Prop43
 90
        3
102
RTVSPost2010PropOp43
 70
     1
102
RTVSPost2010Prop44ColorIndex
 90
        5
102
RTVSPost2010Prop44ColorRGB
 90
      255
102
RTVSPost2010PropOp44
 70
     1
102
RTVSPost2010Prop45
280
     0
102
RTVSPost2010PropOp45
 70
     1
102
RTVSPost2010Prop46
 90
       50
102
RTVSPost2010PropOp46
 70
     1
102
RTVSPost2010Prop47
 90
       50
102
RTVSPost2010PropOp47
 70
     1
102
RTVSPost2010Prop48
 90
       50
102
RTVSPost2010PropOp48
 70
     1
102
RTVSPost2010Prop49
280
     0
102
RTVSPost2010PropOp49
 70
     1
102
RTVSPost2010Prop50
 90
       50
102
RTVSPost2010PropOp50
 70
     1
102
RTVSPost2010Prop51ColorIndex
 90
      256
102
RTVSPost2010Prop51ColorRGB
 90
-16777216
102
RTVSPost2010PropOp51
 70
     0
102
RTVSPost2010Prop52
140
1.0
102
RTVSPost2010PropOp52
 70
     0
102
RTVSPost2010Prop53
 90
        2
102
RTVSPost2010PropOp53
 70
     1
102
RTVSPost2010Prop54
  1
strokes_ogs.tif
102
RTVSPost2010PropOp54
 70
     1
102
RTVSPost2010Prop55
280
     0
102
RTVSPost2010PropOp55
 70
     1
102
RTVSPost2010Prop56
140
1.0
102
RTVSPost2010PropOp56
 70
     1
102
RTVSPost2010Prop57
140
1.0
102
RTVSPost2010PropOp57
 70
     1
102
RTVSPropertyOp0
 70
     1
102
RTVSPropertyOp1
 70
     1
102
RTVSPropertyOp2
 70
     1
102
RTVSPropertyOp3
 70
     1
102
RTVSPropertyOp4
 70
     1
102
RTVSPropertyOp5
 70
     1
102
RTVSPropertyOp6
 70
     1
102
RTVSPropertyOp7
 70
     1
102
RTVSPropertyOp8
 70
     1
102
RTVSPropertyOp9
 70
     1
102
RTVSPropertyOp10
 70
     1
102
RTVSPropertyOp11
 70
     1
102
RTVSPropertyOp12
 70
     1
102
RTVSPropertyOp13
 70
     1
102
RTVSPropertyOp14
 70
     1
102
RTVSPropertyOp15
 70
     1
102
RTVSPropertyOp16
 70
     1
102
RTVSPropertyOp17
 70
     1
102
RTVSPropertyOp18
 70
     1
102
RTVSPropertyOp19
 70
     1
102
RTVSPropertyOp20
 70
     1
102
RTVSPropertyOp21
 70
     1
102
RTVSPropertyOp22
 70
     1
102
RTVSPropertyOp23
 70
     1
102
RTVSPropertyOp24
 70
     1
102
RTVSPropertyOp25
 70
     1
102
RTVSPropertyOp26
 70
     1
102
RTVSPropertyOp27
 70
     1
102
RTVSPropertyOp28
 70
     1
102
RTVSPropertyOp29
 70
     1
102
RTVSPropertyOp30
 70
     1
102
RTVSPropertyOp31
 70
     1
102
RTVSPropertyOp32
 70
     1
102
RTVSPropertyOp33
 70
     1
102
RTVSPropertyOp34
 70
     1
102
RTVSPropertyOp35
 70
     1
102
RTVSPropertyOp36
 70
     1
102
RTVSPropertyOp37
 70
     1
102
RTVSPropertyOp38
 70
     1
102
RTVSPropertyOp39
 70
     1
102
RTVSPropertyOp40
 70
     1
102
RTVSPropertyOp41
 70
     1
102
RTVSPropertyOp42
 70
     1
102
RTVSPropertyOp43
 70
     1
102
RTVSPropertyOp44
 70
     1
102
RTVSPropertyOp45
 70
     1
102
RTVSPropertyOp46
 70
     1
102
RTVSPropertyOp47
 70
     1
102
RTVSPropertyOp48
 70
     1
102
RTVSPropertyOp49
 70
     1
102
RTVSPropertyOp50
 70
     1
102
RTVSPropertyOp51
 70
     0
102
RTVSPropertyOp52
 70
     0
102
RTVSPropertyOp53
 70
     1
102
RTVSPropertyOp54
 70
     1
102
RTVSPropertyOp55
 70
     1
102
RTVSPropertyOp56
 70
     1
102
RTVSPropertyOp57
 70
     1
102
RTVSPropertyOp58
 70
     1
102
RTVSPropertyOp59
 70
     1
102
RTVSPropertyOp60
 70
     1
102
RTVSPropertyOp61
 70
     1
102
RTVSPropertyOp62
 70
     1
  0
XRECORD
  5
66EB
102
{ACAD_REACTORS
330
66EA
102
}
330
66EA
100
AcDbXrecord
280
     1
102
RTVSPost2010Prop28
280
     0
102
RTVSPost2010PropOp28
 70
     1
102
RTVSPost2010Prop29
280
     1
102
RTVSPost2010PropOp29
 70
     1
102
RTVSPost2010Prop30
280
     1
102
RTVSPost2010PropOp30
 70
     1
102
RTVSPost2010Prop31
280
     0
102
RTVSPost2010PropOp31
 70
     1
102
RTVSPost2010Prop32
280
     0
102
RTVSPost2010PropOp32
 70
     1
102
RTVSPost2010Prop33
280
     0
102
RTVSPost2010PropOp33
 70
     1
102
RTVSPost2010Prop34
280
     0
102
RTVSPost2010PropOp34
 70
     1
102
RTVSPost2010Prop35
280
     0
102
RTVSPost2010PropOp35
 70
     1
102
RTVSPost2010Prop36
280
     0
102
RTVSPost2010PropOp36
 70
     1
102
RTVSPost2010Prop37
 90
       50
102
RTVSPost2010PropOp37
 70
     1
102
RTVSPost2010Prop38
140
0.0
102
RTVSPost2010PropOp38
 70
     1
102
RTVSPost2010Prop39
140
1.0
102
RTVSPost2010PropOp39
 70
     1
102
RTVSPost2010Prop40
 90
        0
102
RTVSPost2010PropOp40
 70
     1
102
RTVSPost2010Prop41ColorIndex
 90
       18
102
RTVSPost2010Prop41ColorRGB
 90
        0
102
RTVSPost2010PropOp41
 70
     1
102
RTVSPost2010Prop42
 90
       50
102
RTVSPost2010PropOp42
 70
     1
102
RTVSPost2010Prop43
 90
        3
102
RTVSPost2010PropOp43
 70
     1
102
RTVSPost2010Prop44ColorIndex
 90
        5
102
RTVSPost2010Prop44ColorRGB
 90
      255
102
RTVSPost2010PropOp44
 70
     1
102
RTVSPost2010Prop45
280
     0
102
RTVSPost2010PropOp45
 70
     1
102
RTVSPost2010Prop46
 90
       50
102
RTVSPost2010PropOp46
 70
     1
102
RTVSPost2010Prop47
 90
       50
102
RTVSPost2010PropOp47
 70
     1
102
RTVSPost2010Prop48
 90
       50
102
RTVSPost2010PropOp48
 70
     1
102
RTVSPost2010Prop49
280
     0
102
RTVSPost2010PropOp49
 70
     1
102
RTVSPost2010Prop50
 90
       50
102
RTVSPost2010PropOp50
 70
     1
102
RTVSPost2010Prop51ColorIndex
 90
      256
102
RTVSPost2010Prop51ColorRGB
 90
-16777216
102
RTVSPost2010PropOp51
 70
     0
102
RTVSPost2010Prop52
140
1.0
102
RTVSPost2010PropOp52
 70
     0
102
RTVSPost2010Prop53
 90
        2
102
RTVSPost2010PropOp53
 70
     1
102
RTVSPost2010Prop54
  1
strokes_ogs.tif
102
RTVSPost2010PropOp54
 70
     1
102
RTVSPost2010Prop55
280
     0
102
RTVSPost2010PropOp55
 70
     1
102
RTVSPost2010Prop56
140
1.0
102
RTVSPost2010PropOp56
 70
     1
102
RTVSPost2010Prop57
140
1.0
102
RTVSPost2010PropOp57
 70
     1
102
RTVSPropertyOp0
 70
     1
102
RTVSPropertyOp1
 70
     1
102
RTVSPropertyOp2
 70
     1
102
RTVSPropertyOp3
 70
     1
102
RTVSPropertyOp4
 70
     1
102
RTVSPropertyOp5
 70
     1
102
RTVSPropertyOp6
 70
     1
102
RTVSPropertyOp7
 70
     1
102
RTVSPropertyOp8
 70
     1
102
RTVSPropertyOp9
 70
     1
102
RTVSPropertyOp10
 70
     1
102
RTVSPropertyOp11
 70
     1
102
RTVSPropertyOp12
 70
     1
102
RTVSPropertyOp13
 70
     1
102
RTVSPropertyOp14
 70
     1
102
RTVSPropertyOp15
 70
     1
102
RTVSPropertyOp16
 70
     1
102
RTVSPropertyOp17
 70
     1
102
RTVSPropertyOp18
 70
     1
102
RTVSPropertyOp19
 70
     1
102
RTVSPropertyOp20
 70
     1
102
RTVSPropertyOp21
 70
     1
102
RTVSPropertyOp22
 70
     1
102
RTVSPropertyOp23
 70
     1
102
RTVSPropertyOp24
 70
     1
102
RTVSPropertyOp25
 70
     1
102
RTVSPropertyOp26
 70
     1
102
RTVSPropertyOp27
 70
     1
102
RTVSPropertyOp28
 70
     1
102
RTVSPropertyOp29
 70
     1
102
RTVSPropertyOp30
 70
     1
102
RTVSPropertyOp31
 70
     1
102
RTVSPropertyOp32
 70
     1
102
RTVSPropertyOp33
 70
     1
102
RTVSPropertyOp34
 70
     1
102
RTVSPropertyOp35
 70
     1
102
RTVSPropertyOp36
 70
     1
102
RTVSPropertyOp37
 70
     1
102
RTVSPropertyOp38
 70
     1
102
RTVSPropertyOp39
 70
     1
102
RTVSPropertyOp40
 70
     1
102
RTVSPropertyOp41
 70
     1
102
RTVSPropertyOp42
 70
     1
102
RTVSPropertyOp43
 70
     1
102
RTVSPropertyOp44
 70
     1
102
RTVSPropertyOp45
 70
     1
102
RTVSPropertyOp46
 70
     1
102
RTVSPropertyOp47
 70
     1
102
RTVSPropertyOp48
 70
     1
102
RTVSPropertyOp49
 70
     1
102
RTVSPropertyOp50
 70
     1
102
RTVSPropertyOp51
 70
     0
102
RTVSPropertyOp52
 70
     0
102
RTVSPropertyOp53
 70
     1
102
RTVSPropertyOp54
 70
     1
102
RTVSPropertyOp55
 70
     1
102
RTVSPropertyOp56
 70
     1
102
RTVSPropertyOp57
 70
     1
102
RTVSPropertyOp58
 70
     1
102
RTVSPropertyOp59
 70
     1
102
RTVSPropertyOp60
 70
     1
102
RTVSPropertyOp61
 70
     1
102
RTVSPropertyOp62
 70
     1
  0
XRECORD
  5
66F7
102
{ACAD_REACTORS
330
66F6
102
}
330
66F6
100
AcDbXrecord
280
     1
102
RTVSPost2010Prop28
280
     0
102
RTVSPost2010PropOp28
 70
     0
102
RTVSPost2010Prop29
280
     1
102
RTVSPost2010PropOp29
 70
     0
102
RTVSPost2010Prop30
280
     1
102
RTVSPost2010PropOp30
 70
     0
102
RTVSPost2010Prop31
280
     0
102
RTVSPost2010PropOp31
 70
     0
102
RTVSPost2010Prop32
280
     0
102
RTVSPost2010PropOp32
 70
     0
102
RTVSPost2010Prop33
280
     0
102
RTVSPost2010PropOp33
 70
     0
102
RTVSPost2010Prop34
280
     0
102
RTVSPost2010PropOp34
 70
     0
102
RTVSPost2010Prop35
280
     0
102
RTVSPost2010PropOp35
 70
     0
102
RTVSPost2010Prop36
280
     0
102
RTVSPost2010PropOp36
 70
     0
102
RTVSPost2010Prop37
 90
       50
102
RTVSPost2010PropOp37
 70
     0
102
RTVSPost2010Prop38
140
0.0
102
RTVSPost2010PropOp38
 70
     0
102
RTVSPost2010Prop39
140
1.0
102
RTVSPost2010PropOp39
 70
     0
102
RTVSPost2010Prop40
 90
        0
102
RTVSPost2010PropOp40
 70
     0
102
RTVSPost2010Prop41ColorIndex
 90
       18
102
RTVSPost2010Prop41ColorRGB
 90
        0
102
RTVSPost2010PropOp41
 70
     0
102
RTVSPost2010Prop42
 90
       50
102
RTVSPost2010PropOp42
 70
     0
102
RTVSPost2010Prop43
 90
        3
102
RTVSPost2010PropOp43
 70
     0
102
RTVSPost2010Prop44ColorIndex
 90
        5
102
RTVSPost2010Prop44ColorRGB
 90
      255
102
RTVSPost2010PropOp44
 70
     0
102
RTVSPost2010Prop45
280
     0
102
RTVSPost2010PropOp45
 70
     0
102
RTVSPost2010Prop46
 90
       50
102
RTVSPost2010PropOp46
 70
     0
102
RTVSPost2010Prop47
 90
       50
102
RTVSPost2010PropOp47
 70
     0
102
RTVSPost2010Prop48
 90
       50
102
RTVSPost2010PropOp48
 70
     0
102
RTVSPost2010Prop49
280
     0
102
RTVSPost2010PropOp49
 70
     0
102
RTVSPost2010Prop50
 90
       50
102
RTVSPost2010PropOp50
 70
     0
102
RTVSPost2010Prop51ColorIndex
 90
      256
102
RTVSPost2010Prop51ColorRGB
 90
-16777216
102
RTVSPost2010PropOp51
 70
     0
102
RTVSPost2010Prop52
140
1.0
102
RTVSPost2010PropOp52
 70
     0
102
RTVSPost2010Prop53
 90
        2
102
RTVSPost2010PropOp53
 70
     0
102
RTVSPost2010Prop54
  1
strokes_ogs.tif
102
RTVSPost2010PropOp54
 70
     0
102
RTVSPost2010Prop55
280
     0
102
RTVSPost2010PropOp55
 70
     0
102
RTVSPost2010Prop56
140
1.0
102
RTVSPost2010PropOp56
 70
     0
102
RTVSPost2010Prop57
140
1.0
102
RTVSPost2010PropOp57
 70
     0
102
RTVSPropertyOp0
 70
     0
102
RTVSPropertyOp1
 70
     0
102
RTVSPropertyOp2
 70
     0
102
RTVSPropertyOp3
 70
     0
102
RTVSPropertyOp4
 70
     0
102
RTVSPropertyOp5
 70
     0
102
RTVSPropertyOp6
 70
     0
102
RTVSPropertyOp7
 70
     0
102
RTVSPropertyOp8
 70
     0
102
RTVSPropertyOp9
 70
     0
102
RTVSPropertyOp10
 70
     0
102
RTVSPropertyOp11
 70
     0
102
RTVSPropertyOp12
 70
     0
102
RTVSPropertyOp13
 70
     0
102
RTVSPropertyOp14
 70
     2
102
RTVSPropertyOp15
 70
     0
102
RTVSPropertyOp16
 70
     0
102
RTVSPropertyOp17
 70
     0
102
RTVSPropertyOp18
 70
     0
102
RTVSPropertyOp19
 70
     0
102
RTVSPropertyOp20
 70
     0
102
RTVSPropertyOp21
 70
     0
102
RTVSPropertyOp22
 70
     0
102
RTVSPropertyOp23
 70
     0
102
RTVSPropertyOp24
 70
     0
102
RTVSPropertyOp25
 70
     0
102
RTVSPropertyOp26
 70
     0
102
RTVSPropertyOp27
 70
     0
102
RTVSPropertyOp28
 70
     0
102
RTVSPropertyOp29
 70
     0
102
RTVSPropertyOp30
 70
     0
102
RTVSPropertyOp31
 70
     0
102
RTVSPropertyOp32
 70
     0
102
RTVSPropertyOp33
 70
     0
102
RTVSPropertyOp34
 70
     0
102
RTVSPropertyOp35
 70
     0
102
RTVSPropertyOp36
 70
     0
102
RTVSPropertyOp37
 70
     0
102
RTVSPropertyOp38
 70
     0
102
RTVSPropertyOp39
 70
     0
102
RTVSPropertyOp40
 70
     0
102
RTVSPropertyOp41
 70
     0
102
RTVSPropertyOp42
 70
     0
102
RTVSPropertyOp43
 70
     0
102
RTVSPropertyOp44
 70
     0
102
RTVSPropertyOp45
 70
     0
102
RTVSPropertyOp46
 70
     0
102
RTVSPropertyOp47
 70
     0
102
RTVSPropertyOp48
 70
     0
102
RTVSPropertyOp49
 70
     0
102
RTVSPropertyOp50
 70
     0
102
RTVSPropertyOp51
 70
     0
102
RTVSPropertyOp52
 70
     0
102
RTVSPropertyOp53
 70
     0
102
RTVSPropertyOp54
 70
     0
102
RTVSPropertyOp55
 70
     0
102
RTVSPropertyOp56
 70
     0
102
RTVSPropertyOp57
 70
     0
102
RTVSPropertyOp58
 70
     0
102
RTVSPropertyOp59
 70
     0
102
RTVSPropertyOp60
 70
     0
102
RTVSPropertyOp61
 70
     0
102
RTVSPropertyOp62
 70
     0
  0
XRECORD
  5
66E3
102
{ACAD_REACTORS
330
66E2
102
}
330
66E2
100
AcDbXrecord
280
     1
102
RTVSPost2010Prop28
280
     0
102
RTVSPost2010PropOp28
 70
     1
102
RTVSPost2010Prop29
280
     1
102
RTVSPost2010PropOp29
 70
     1
102
RTVSPost2010Prop30
280
     1
102
RTVSPost2010PropOp30
 70
     1
102
RTVSPost2010Prop31
280
     0
102
RTVSPost2010PropOp31
 70
     1
102
RTVSPost2010Prop32
280
     0
102
RTVSPost2010PropOp32
 70
     1
102
RTVSPost2010Prop33
280
     0
102
RTVSPost2010PropOp33
 70
     1
102
RTVSPost2010Prop34
280
     0
102
RTVSPost2010PropOp34
 70
     1
102
RTVSPost2010Prop35
280
     0
102
RTVSPost2010PropOp35
 70
     1
102
RTVSPost2010Prop36
280
     0
102
RTVSPost2010PropOp36
 70
     1
102
RTVSPost2010Prop37
 90
       50
102
RTVSPost2010PropOp37
 70
     1
102
RTVSPost2010Prop38
140
0.0
102
RTVSPost2010PropOp38
 70
     1
102
RTVSPost2010Prop39
140
1.0
102
RTVSPost2010PropOp39
 70
     1
102
RTVSPost2010Prop40
 90
        0
102
RTVSPost2010PropOp40
 70
     1
102
RTVSPost2010Prop41ColorIndex
 90
       18
102
RTVSPost2010Prop41ColorRGB
 90
        0
102
RTVSPost2010PropOp41
 70
     1
102
RTVSPost2010Prop42
 90
       50
102
RTVSPost2010PropOp42
 70
     1
102
RTVSPost2010Prop43
 90
        3
102
RTVSPost2010PropOp43
 70
     1
102
RTVSPost2010Prop44ColorIndex
 90
        5
102
RTVSPost2010Prop44ColorRGB
 90
      255
102
RTVSPost2010PropOp44
 70
     1
102
RTVSPost2010Prop45
280
     0
102
RTVSPost2010PropOp45
 70
     1
102
RTVSPost2010Prop46
 90
       50
102
RTVSPost2010PropOp46
 70
     1
102
RTVSPost2010Prop47
 90
       50
102
RTVSPost2010PropOp47
 70
     1
102
RTVSPost2010Prop48
 90
       50
102
RTVSPost2010PropOp48
 70
     1
102
RTVSPost2010Prop49
280
     0
102
RTVSPost2010PropOp49
 70
     1
102
RTVSPost2010Prop50
 90
       50
102
RTVSPost2010PropOp50
 70
     1
102
RTVSPost2010Prop51ColorIndex
 90
      256
102
RTVSPost2010Prop51ColorRGB
 90
-16777216
102
RTVSPost2010PropOp51
 70
     0
102
RTVSPost2010Prop52
140
1.0
102
RTVSPost2010PropOp52
 70
     0
102
RTVSPost2010Prop53
 90
        2
102
RTVSPost2010PropOp53
 70
     1
102
RTVSPost2010Prop54
  1
strokes_ogs.tif
102
RTVSPost2010PropOp54
 70
     1
102
RTVSPost2010Prop55
280
     0
102
RTVSPost2010PropOp55
 70
     1
102
RTVSPost2010Prop56
140
1.0
102
RTVSPost2010PropOp56
 70
     1
102
RTVSPost2010Prop57
140
1.0
102
RTVSPost2010PropOp57
 70
     1
102
RTVSPropertyOp0
 70
     1
102
RTVSPropertyOp1
 70
     1
102
RTVSPropertyOp2
 70
     1
102
RTVSPropertyOp3
 70
     1
102
RTVSPropertyOp4
 70
     1
102
RTVSPropertyOp5
 70
     1
102
RTVSPropertyOp6
 70
     1
102
RTVSPropertyOp7
 70
     1
102
RTVSPropertyOp8
 70
     1
102
RTVSPropertyOp9
 70
     1
102
RTVSPropertyOp10
 70
     1
102
RTVSPropertyOp11
 70
     1
102
RTVSPropertyOp12
 70
     1
102
RTVSPropertyOp13
 70
     1
102
RTVSPropertyOp14
 70
     1
102
RTVSPropertyOp15
 70
     1
102
RTVSPropertyOp16
 70
     1
102
RTVSPropertyOp17
 70
     1
102
RTVSPropertyOp18
 70
     1
102
RTVSPropertyOp19
 70
     1
102
RTVSPropertyOp20
 70
     1
102
RTVSPropertyOp21
 70
     1
102
RTVSPropertyOp22
 70
     1
102
RTVSPropertyOp23
 70
     1
102
RTVSPropertyOp24
 70
     1
102
RTVSPropertyOp25
 70
     1
102
RTVSPropertyOp26
 70
     1
102
RTVSPropertyOp27
 70
     1
102
RTVSPropertyOp28
 70
     1
102
RTVSPropertyOp29
 70
     1
102
RTVSPropertyOp30
 70
     1
102
RTVSPropertyOp31
 70
     1
102
RTVSPropertyOp32
 70
     1
102
RTVSPropertyOp33
 70
     1
102
RTVSPropertyOp34
 70
     1
102
RTVSPropertyOp35
 70
     1
102
RTVSPropertyOp36
 70
     1
102
RTVSPropertyOp37
 70
     1
102
RTVSPropertyOp38
 70
     1
102
RTVSPropertyOp39
 70
     1
102
RTVSPropertyOp40
 70
     1
102
RTVSPropertyOp41
 70
     1
102
RTVSPropertyOp42
 70
     1
102
RTVSPropertyOp43
 70
     1
102
RTVSPropertyOp44
 70
     1
102
RTVSPropertyOp45
 70
     1
102
RTVSPropertyOp46
 70
     1
102
RTVSPropertyOp47
 70
     1
102
RTVSPropertyOp48
 70
     1
102
RTVSPropertyOp49
 70
     1
102
RTVSPropertyOp50
 70
     1
102
RTVSPropertyOp51
 70
     0
102
RTVSPropertyOp52
 70
     0
102
RTVSPropertyOp53
 70
     1
102
RTVSPropertyOp54
 70
     1
102
RTVSPropertyOp55
 70
     1
102
RTVSPropertyOp56
 70
     1
102
RTVSPropertyOp57
 70
     1
102
RTVSPropertyOp58
 70
     1
102
RTVSPropertyOp59
 70
     1
102
RTVSPropertyOp60
 70
     1
102
RTVSPropertyOp61
 70
     1
102
RTVSPropertyOp62
 70
     1
  0
XRECORD
  5
66F9
102
{ACAD_REACTORS
330
66F8
102
}
330
66F8
100
AcDbXrecord
280
     1
102
RTVSPost2010Prop28
280
     0
102
RTVSPost2010PropOp28
 70
     0
102
RTVSPost2010Prop29
280
     1
102
RTVSPost2010PropOp29
 70
     0
102
RTVSPost2010Prop30
280
     1
102
RTVSPost2010PropOp30
 70
     0
102
RTVSPost2010Prop31
280
     0
102
RTVSPost2010PropOp31
 70
     0
102
RTVSPost2010Prop32
280
     0
102
RTVSPost2010PropOp32
 70
     0
102
RTVSPost2010Prop33
280
     0
102
RTVSPost2010PropOp33
 70
     0
102
RTVSPost2010Prop34
280
     0
102
RTVSPost2010PropOp34
 70
     0
102
RTVSPost2010Prop35
280
     0
102
RTVSPost2010PropOp35
 70
     0
102
RTVSPost2010Prop36
280
     0
102
RTVSPost2010PropOp36
 70
     0
102
RTVSPost2010Prop37
 90
       50
102
RTVSPost2010PropOp37
 70
     0
102
RTVSPost2010Prop38
140
0.0
102
RTVSPost2010PropOp38
 70
     0
102
RTVSPost2010Prop39
140
1.0
102
RTVSPost2010PropOp39
 70
     0
102
RTVSPost2010Prop40
 90
        0
102
RTVSPost2010PropOp40
 70
     0
102
RTVSPost2010Prop41ColorIndex
 90
       18
102
RTVSPost2010Prop41ColorRGB
 90
        0
102
RTVSPost2010PropOp41
 70
     0
102
RTVSPost2010Prop42
 90
       50
102
RTVSPost2010PropOp42
 70
     0
102
RTVSPost2010Prop43
 90
        3
102
RTVSPost2010PropOp43
 70
     0
102
RTVSPost2010Prop44ColorIndex
 90
        5
102
RTVSPost2010Prop44ColorRGB
 90
      255
102
RTVSPost2010PropOp44
 70
     0
102
RTVSPost2010Prop45
280
     0
102
RTVSPost2010PropOp45
 70
     0
102
RTVSPost2010Prop46
 90
       50
102
RTVSPost2010PropOp46
 70
     0
102
RTVSPost2010Prop47
 90
       50
102
RTVSPost2010PropOp47
 70
     0
102
RTVSPost2010Prop48
 90
       50
102
RTVSPost2010PropOp48
 70
     0
102
RTVSPost2010Prop49
280
     0
102
RTVSPost2010PropOp49
 70
     0
102
RTVSPost2010Prop50
 90
       50
102
RTVSPost2010PropOp50
 70
     0
102
RTVSPost2010Prop51ColorIndex
 90
      256
102
RTVSPost2010Prop51ColorRGB
 90
-16777216
102
RTVSPost2010PropOp51
 70
     0
102
RTVSPost2010Prop52
140
1.0
102
RTVSPost2010PropOp52
 70
     0
102
RTVSPost2010Prop53
 90
        2
102
RTVSPost2010PropOp53
 70
     0
102
RTVSPost2010Prop54
  1
strokes_ogs.tif
102
RTVSPost2010PropOp54
 70
     0
102
RTVSPost2010Prop55
280
     0
102
RTVSPost2010PropOp55
 70
     0
102
RTVSPost2010Prop56
140
1.0
102
RTVSPost2010PropOp56
 70
     0
102
RTVSPost2010Prop57
140
1.0
102
RTVSPost2010PropOp57
 70
     0
102
RTVSPropertyOp0
 70
     0
102
RTVSPropertyOp1
 70
     0
102
RTVSPropertyOp2
 70
     0
102
RTVSPropertyOp3
 70
     0
102
RTVSPropertyOp4
 70
     0
102
RTVSPropertyOp5
 70
     0
102
RTVSPropertyOp6
 70
     0
102
RTVSPropertyOp7
 70
     0
102
RTVSPropertyOp8
 70
     0
102
RTVSPropertyOp9
 70
     0
102
RTVSPropertyOp10
 70
     0
102
RTVSPropertyOp11
 70
     0
102
RTVSPropertyOp12
 70
     0
102
RTVSPropertyOp13
 70
     0
102
RTVSPropertyOp14
 70
     2
102
RTVSPropertyOp15
 70
     0
102
RTVSPropertyOp16
 70
     0
102
RTVSPropertyOp17
 70
     0
102
RTVSPropertyOp18
 70
     0
102
RTVSPropertyOp19
 70
     0
102
RTVSPropertyOp20
 70
     0
102
RTVSPropertyOp21
 70
     0
102
RTVSPropertyOp22
 70
     0
102
RTVSPropertyOp23
 70
     0
102
RTVSPropertyOp24
 70
     0
102
RTVSPropertyOp25
 70
     0
102
RTVSPropertyOp26
 70
     0
102
RTVSPropertyOp27
 70
     0
102
RTVSPropertyOp28
 70
     0
102
RTVSPropertyOp29
 70
     0
102
RTVSPropertyOp30
 70
     0
102
RTVSPropertyOp31
 70
     0
102
RTVSPropertyOp32
 70
     0
102
RTVSPropertyOp33
 70
     0
102
RTVSPropertyOp34
 70
     0
102
RTVSPropertyOp35
 70
     0
102
RTVSPropertyOp36
 70
     0
102
RTVSPropertyOp37
 70
     0
102
RTVSPropertyOp38
 70
     0
102
RTVSPropertyOp39
 70
     0
102
RTVSPropertyOp40
 70
     0
102
RTVSPropertyOp41
 70
     0
102
RTVSPropertyOp42
 70
     0
102
RTVSPropertyOp43
 70
     0
102
RTVSPropertyOp44
 70
     0
102
RTVSPropertyOp45
 70
     0
102
RTVSPropertyOp46
 70
     0
102
RTVSPropertyOp47
 70
     0
102
RTVSPropertyOp48
 70
     0
102
RTVSPropertyOp49
 70
     0
102
RTVSPropertyOp50
 70
     0
102
RTVSPropertyOp51
 70
     0
102
RTVSPropertyOp52
 70
     0
102
RTVSPropertyOp53
 70
     0
102
RTVSPropertyOp54
 70
     0
102
RTVSPropertyOp55
 70
     0
102
RTVSPropertyOp56
 70
     0
102
RTVSPropertyOp57
 70
     0
102
RTVSPropertyOp58
 70
     0
102
RTVSPropertyOp59
 70
     0
102
RTVSPropertyOp60
 70
     0
102
RTVSPropertyOp61
 70
     0
102
RTVSPropertyOp62
 70
     0
  0
XRECORD
  5
66DB
102
{ACAD_REACTORS
330
66DA
102
}
330
66DA
100
AcDbXrecord
280
     1
102
RTVSPost2010Prop28
280
     0
102
RTVSPost2010PropOp28
 70
     1
102
RTVSPost2010Prop29
280
     1
102
RTVSPost2010PropOp29
 70
     1
102
RTVSPost2010Prop30
280
     1
102
RTVSPost2010PropOp30
 70
     1
102
RTVSPost2010Prop31
280
     0
102
RTVSPost2010PropOp31
 70
     1
102
RTVSPost2010Prop32
280
     0
102
RTVSPost2010PropOp32
 70
     1
102
RTVSPost2010Prop33
280
     0
102
RTVSPost2010PropOp33
 70
     1
102
RTVSPost2010Prop34
280
     0
102
RTVSPost2010PropOp34
 70
     1
102
RTVSPost2010Prop35
280
     0
102
RTVSPost2010PropOp35
 70
     1
102
RTVSPost2010Prop36
280
     0
102
RTVSPost2010PropOp36
 70
     1
102
RTVSPost2010Prop37
 90
       50
102
RTVSPost2010PropOp37
 70
     1
102
RTVSPost2010Prop38
140
0.0
102
RTVSPost2010PropOp38
 70
     1
102
RTVSPost2010Prop39
140
1.0
102
RTVSPost2010PropOp39
 70
     1
102
RTVSPost2010Prop40
 90
        0
102
RTVSPost2010PropOp40
 70
     1
102
RTVSPost2010Prop41ColorIndex
 90
       18
102
RTVSPost2010Prop41ColorRGB
 90
        0
102
RTVSPost2010PropOp41
 70
     1
102
RTVSPost2010Prop42
 90
       50
102
RTVSPost2010PropOp42
 70
     1
102
RTVSPost2010Prop43
 90
        3
102
RTVSPost2010PropOp43
 70
     1
102
RTVSPost2010Prop44ColorIndex
 90
        5
102
RTVSPost2010Prop44ColorRGB
 90
      255
102
RTVSPost2010PropOp44
 70
     1
102
RTVSPost2010Prop45
280
     0
102
RTVSPost2010PropOp45
 70
     1
102
RTVSPost2010Prop46
 90
       50
102
RTVSPost2010PropOp46
 70
     1
102
RTVSPost2010Prop47
 90
       50
102
RTVSPost2010PropOp47
 70
     1
102
RTVSPost2010Prop48
 90
       50
102
RTVSPost2010PropOp48
 70
     1
102
RTVSPost2010Prop49
280
     0
102
RTVSPost2010PropOp49
 70
     1
102
RTVSPost2010Prop50
 90
       50
102
RTVSPost2010PropOp50
 70
     1
102
RTVSPost2010Prop51ColorIndex
 90
      256
102
RTVSPost2010Prop51ColorRGB
 90
-16777216
102
RTVSPost2010PropOp51
 70
     0
102
RTVSPost2010Prop52
140
1.0
102
RTVSPost2010PropOp52
 70
     0
102
RTVSPost2010Prop53
 90
        2
102
RTVSPost2010PropOp53
 70
     1
102
RTVSPost2010Prop54
  1
strokes_ogs.tif
102
RTVSPost2010PropOp54
 70
     1
102
RTVSPost2010Prop55
280
     0
102
RTVSPost2010PropOp55
 70
     1
102
RTVSPost2010Prop56
140
1.0
102
RTVSPost2010PropOp56
 70
     1
102
RTVSPost2010Prop57
140
1.0
102
RTVSPost2010PropOp57
 70
     1
102
RTVSPropertyOp0
 70
     1
102
RTVSPropertyOp1
 70
     1
102
RTVSPropertyOp2
 70
     1
102
RTVSPropertyOp3
 70
     1
102
RTVSPropertyOp4
 70
     1
102
RTVSPropertyOp5
 70
     1
102
RTVSPropertyOp6
 70
     1
102
RTVSPropertyOp7
 70
     1
102
RTVSPropertyOp8
 70
     1
102
RTVSPropertyOp9
 70
     1
102
RTVSPropertyOp10
 70
     1
102
RTVSPropertyOp11
 70
     1
102
RTVSPropertyOp12
 70
     1
102
RTVSPropertyOp13
 70
     1
102
RTVSPropertyOp14
 70
     1
102
RTVSPropertyOp15
 70
     1
102
RTVSPropertyOp16
 70
     1
102
RTVSPropertyOp17
 70
     1
102
RTVSPropertyOp18
 70
     1
102
RTVSPropertyOp19
 70
     1
102
RTVSPropertyOp20
 70
     1
102
RTVSPropertyOp21
 70
     1
102
RTVSPropertyOp22
 70
     1
102
RTVSPropertyOp23
 70
     1
102
RTVSPropertyOp24
 70
     1
102
RTVSPropertyOp25
 70
     1
102
RTVSPropertyOp26
 70
     1
102
RTVSPropertyOp27
 70
     1
102
RTVSPropertyOp28
 70
     1
102
RTVSPropertyOp29
 70
     1
102
RTVSPropertyOp30
 70
     1
102
RTVSPropertyOp31
 70
     1
102
RTVSPropertyOp32
 70
     1
102
RTVSPropertyOp33
 70
     1
102
RTVSPropertyOp34
 70
     1
102
RTVSPropertyOp35
 70
     1
102
RTVSPropertyOp36
 70
     1
102
RTVSPropertyOp37
 70
     1
102
RTVSPropertyOp38
 70
     1
102
RTVSPropertyOp39
 70
     1
102
RTVSPropertyOp40
 70
     1
102
RTVSPropertyOp41
 70
     1
102
RTVSPropertyOp42
 70
     1
102
RTVSPropertyOp43
 70
     1
102
RTVSPropertyOp44
 70
     1
102
RTVSPropertyOp45
 70
     1
102
RTVSPropertyOp46
 70
     1
102
RTVSPropertyOp47
 70
     1
102
RTVSPropertyOp48
 70
     1
102
RTVSPropertyOp49
 70
     1
102
RTVSPropertyOp50
 70
     1
102
RTVSPropertyOp51
 70
     0
102
RTVSPropertyOp52
 70
     0
102
RTVSPropertyOp53
 70
     1
102
RTVSPropertyOp54
 70
     1
102
RTVSPropertyOp55
 70
     1
102
RTVSPropertyOp56
 70
     1
102
RTVSPropertyOp57
 70
     1
102
RTVSPropertyOp58
 70
     1
102
RTVSPropertyOp59
 70
     1
102
RTVSPropertyOp60
 70
     1
102
RTVSPropertyOp61
 70
     1
102
RTVSPropertyOp62
 70
     1
  0
XRECORD
  5
66F5
102
{ACAD_REACTORS
330
66F4
102
}
330
66F4
100
AcDbXrecord
280
     1
102
RTVSPost2010Prop28
280
     0
102
RTVSPost2010PropOp28
 70
     1
102
RTVSPost2010Prop29
280
     1
102
RTVSPost2010PropOp29
 70
     1
102
RTVSPost2010Prop30
280
     1
102
RTVSPost2010PropOp30
 70
     1
102
RTVSPost2010Prop31
280
     0
102
RTVSPost2010PropOp31
 70
     1
102
RTVSPost2010Prop32
280
     0
102
RTVSPost2010PropOp32
 70
     1
102
RTVSPost2010Prop33
280
     0
102
RTVSPost2010PropOp33
 70
     1
102
RTVSPost2010Prop34
280
     0
102
RTVSPost2010PropOp34
 70
     1
102
RTVSPost2010Prop35
280
     0
102
RTVSPost2010PropOp35
 70
     1
102
RTVSPost2010Prop36
280
     0
102
RTVSPost2010PropOp36
 70
     1
102
RTVSPost2010Prop37
 90
       50
102
RTVSPost2010PropOp37
 70
     1
102
RTVSPost2010Prop38
140
0.0
102
RTVSPost2010PropOp38
 70
     1
102
RTVSPost2010Prop39
140
1.0
102
RTVSPost2010PropOp39
 70
     1
102
RTVSPost2010Prop40
 90
        0
102
RTVSPost2010PropOp40
 70
     1
102
RTVSPost2010Prop41ColorIndex
 90
       18
102
RTVSPost2010Prop41ColorRGB
 90
        0
102
RTVSPost2010PropOp41
 70
     1
102
RTVSPost2010Prop42
 90
       50
102
RTVSPost2010PropOp42
 70
     1
102
RTVSPost2010Prop43
 90
        3
102
RTVSPost2010PropOp43
 70
     1
102
RTVSPost2010Prop44ColorIndex
 90
        5
102
RTVSPost2010Prop44ColorRGB
 90
      255
102
RTVSPost2010PropOp44
 70
     1
102
RTVSPost2010Prop45
280
     0
102
RTVSPost2010PropOp45
 70
     1
102
RTVSPost2010Prop46
 90
       50
102
RTVSPost2010PropOp46
 70
     1
102
RTVSPost2010Prop47
 90
       50
102
RTVSPost2010PropOp47
 70
     1
102
RTVSPost2010Prop48
 90
       50
102
RTVSPost2010PropOp48
 70
     1
102
RTVSPost2010Prop49
280
     0
102
RTVSPost2010PropOp49
 70
     1
102
RTVSPost2010Prop50
 90
       50
102
RTVSPost2010PropOp50
 70
     1
102
RTVSPost2010Prop51ColorIndex
 90
      256
102
RTVSPost2010Prop51ColorRGB
 90
-16777216
102
RTVSPost2010PropOp51
 70
     0
102
RTVSPost2010Prop52
140
1.0
102
RTVSPost2010PropOp52
 70
     0
102
RTVSPost2010Prop53
 90
        2
102
RTVSPost2010PropOp53
 70
     1
102
RTVSPost2010Prop54
  1
strokes_ogs.tif
102
RTVSPost2010PropOp54
 70
     1
102
RTVSPost2010Prop55
280
     0
102
RTVSPost2010PropOp55
 70
     1
102
RTVSPost2010Prop56
140
1.0
102
RTVSPost2010PropOp56
 70
     1
102
RTVSPost2010Prop57
140
1.0
102
RTVSPost2010PropOp57
 70
     1
102
RTVSPropertyOp0
 70
     1
102
RTVSPropertyOp1
 70
     1
102
RTVSPropertyOp2
 70
     1
102
RTVSPropertyOp3
 70
     1
102
RTVSPropertyOp4
 70
     1
102
RTVSPropertyOp5
 70
     1
102
RTVSPropertyOp6
 70
     1
102
RTVSPropertyOp7
 70
     1
102
RTVSPropertyOp8
 70
     1
102
RTVSPropertyOp9
 70
     1
102
RTVSPropertyOp10
 70
     1
102
RTVSPropertyOp11
 70
     1
102
RTVSPropertyOp12
 70
     1
102
RTVSPropertyOp13
 70
     1
102
RTVSPropertyOp14
 70
     1
102
RTVSPropertyOp15
 70
     1
102
RTVSPropertyOp16
 70
     1
102
RTVSPropertyOp17
 70
     1
102
RTVSPropertyOp18
 70
     1
102
RTVSPropertyOp19
 70
     1
102
RTVSPropertyOp20
 70
     1
102
RTVSPropertyOp21
 70
     1
102
RTVSPropertyOp22
 70
     1
102
RTVSPropertyOp23
 70
     1
102
RTVSPropertyOp24
 70
     1
102
RTVSPropertyOp25
 70
     1
102
RTVSPropertyOp26
 70
     1
102
RTVSPropertyOp27
 70
     1
102
RTVSPropertyOp28
 70
     1
102
RTVSPropertyOp29
 70
     1
102
RTVSPropertyOp30
 70
     1
102
RTVSPropertyOp31
 70
     1
102
RTVSPropertyOp32
 70
     1
102
RTVSPropertyOp33
 70
     1
102
RTVSPropertyOp34
 70
     1
102
RTVSPropertyOp35
 70
     1
102
RTVSPropertyOp36
 70
     1
102
RTVSPropertyOp37
 70
     1
102
RTVSPropertyOp38
 70
     1
102
RTVSPropertyOp39
 70
     1
102
RTVSPropertyOp40
 70
     1
102
RTVSPropertyOp41
 70
     1
102
RTVSPropertyOp42
 70
     1
102
RTVSPropertyOp43
 70
     1
102
RTVSPropertyOp44
 70
     1
102
RTVSPropertyOp45
 70
     1
102
RTVSPropertyOp46
 70
     1
102
RTVSPropertyOp47
 70
     1
102
RTVSPropertyOp48
 70
     1
102
RTVSPropertyOp49
 70
     1
102
RTVSPropertyOp50
 70
     1
102
RTVSPropertyOp51
 70
     0
102
RTVSPropertyOp52
 70
     0
102
RTVSPropertyOp53
 70
     1
102
RTVSPropertyOp54
 70
     1
102
RTVSPropertyOp55
 70
     1
102
RTVSPropertyOp56
 70
     1
102
RTVSPropertyOp57
 70
     1
102
RTVSPropertyOp58
 70
     1
102
RTVSPropertyOp59
 70
     1
102
RTVSPropertyOp60
 70
     1
102
RTVSPropertyOp61
 70
     1
102
RTVSPropertyOp62
 70
     1
  0
XRECORD
  5
66F3
102
{ACAD_REACTORS
330
66F2
102
}
330
66F2
100
AcDbXrecord
280
     1
102
RTVSPost2010Prop28
280
     0
102
RTVSPost2010PropOp28
 70
     1
102
RTVSPost2010Prop29
280
     1
102
RTVSPost2010PropOp29
 70
     1
102
RTVSPost2010Prop30
280
     1
102
RTVSPost2010PropOp30
 70
     1
102
RTVSPost2010Prop31
280
     0
102
RTVSPost2010PropOp31
 70
     1
102
RTVSPost2010Prop32
280
     0
102
RTVSPost2010PropOp32
 70
     1
102
RTVSPost2010Prop33
280
     0
102
RTVSPost2010PropOp33
 70
     1
102
RTVSPost2010Prop34
280
     0
102
RTVSPost2010PropOp34
 70
     1
102
RTVSPost2010Prop35
280
     0
102
RTVSPost2010PropOp35
 70
     1
102
RTVSPost2010Prop36
280
     0
102
RTVSPost2010PropOp36
 70
     1
102
RTVSPost2010Prop37
 90
       50
102
RTVSPost2010PropOp37
 70
     1
102
RTVSPost2010Prop38
140
0.0
102
RTVSPost2010PropOp38
 70
     1
102
RTVSPost2010Prop39
140
1.0
102
RTVSPost2010PropOp39
 70
     1
102
RTVSPost2010Prop40
 90
        0
102
RTVSPost2010PropOp40
 70
     1
102
RTVSPost2010Prop41ColorIndex
 90
       18
102
RTVSPost2010Prop41ColorRGB
 90
        0
102
RTVSPost2010PropOp41
 70
     1
102
RTVSPost2010Prop42
 90
       50
102
RTVSPost2010PropOp42
 70
     1
102
RTVSPost2010Prop43
 90
        3
102
RTVSPost2010PropOp43
 70
     1
102
RTVSPost2010Prop44ColorIndex
 90
        5
102
RTVSPost2010Prop44ColorRGB
 90
      255
102
RTVSPost2010PropOp44
 70
     1
102
RTVSPost2010Prop45
280
     0
102
RTVSPost2010PropOp45
 70
     1
102
RTVSPost2010Prop46
 90
       50
102
RTVSPost2010PropOp46
 70
     1
102
RTVSPost2010Prop47
 90
       50
102
RTVSPost2010PropOp47
 70
     1
102
RTVSPost2010Prop48
 90
       50
102
RTVSPost2010PropOp48
 70
     1
102
RTVSPost2010Prop49
280
     0
102
RTVSPost2010PropOp49
 70
     1
102
RTVSPost2010Prop50
 90
       50
102
RTVSPost2010PropOp50
 70
     1
102
RTVSPost2010Prop51ColorIndex
 90
      256
102
RTVSPost2010Prop51ColorRGB
 90
-16777216
102
RTVSPost2010PropOp51
 70
     0
102
RTVSPost2010Prop52
140
1.0
102
RTVSPost2010PropOp52
 70
     0
102
RTVSPost2010Prop53
 90
        2
102
RTVSPost2010PropOp53
 70
     1
102
RTVSPost2010Prop54
  1
strokes_ogs.tif
102
RTVSPost2010PropOp54
 70
     1
102
RTVSPost2010Prop55
280
     0
102
RTVSPost2010PropOp55
 70
     1
102
RTVSPost2010Prop56
140
1.0
102
RTVSPost2010PropOp56
 70
     1
102
RTVSPost2010Prop57
140
1.0
102
RTVSPost2010PropOp57
 70
     1
102
RTVSPropertyOp0
 70
     1
102
RTVSPropertyOp1
 70
     1
102
RTVSPropertyOp2
 70
     1
102
RTVSPropertyOp3
 70
     1
102
RTVSPropertyOp4
 70
     1
102
RTVSPropertyOp5
 70
     1
102
RTVSPropertyOp6
 70
     1
102
RTVSPropertyOp7
 70
     1
102
RTVSPropertyOp8
 70
     1
102
RTVSPropertyOp9
 70
     1
102
RTVSPropertyOp10
 70
     1
102
RTVSPropertyOp11
 70
     1
102
RTVSPropertyOp12
 70
     1
102
RTVSPropertyOp13
 70
     1
102
RTVSPropertyOp14
 70
     1
102
RTVSPropertyOp15
 70
     1
102
RTVSPropertyOp16
 70
     1
102
RTVSPropertyOp17
 70
     1
102
RTVSPropertyOp18
 70
     1
102
RTVSPropertyOp19
 70
     1
102
RTVSPropertyOp20
 70
     1
102
RTVSPropertyOp21
 70
     1
102
RTVSPropertyOp22
 70
     1
102
RTVSPropertyOp23
 70
     1
102
RTVSPropertyOp24
 70
     1
102
RTVSPropertyOp25
 70
     1
102
RTVSPropertyOp26
 70
     1
102
RTVSPropertyOp27
 70
     1
102
RTVSPropertyOp28
 70
     1
102
RTVSPropertyOp29
 70
     1
102
RTVSPropertyOp30
 70
     1
102
RTVSPropertyOp31
 70
     1
102
RTVSPropertyOp32
 70
     1
102
RTVSPropertyOp33
 70
     1
102
RTVSPropertyOp34
 70
     1
102
RTVSPropertyOp35
 70
     1
102
RTVSPropertyOp36
 70
     1
102
RTVSPropertyOp37
 70
     1
102
RTVSPropertyOp38
 70
     1
102
RTVSPropertyOp39
 70
     1
102
RTVSPropertyOp40
 70
     1
102
RTVSPropertyOp41
 70
     1
102
RTVSPropertyOp42
 70
     1
102
RTVSPropertyOp43
 70
     1
102
RTVSPropertyOp44
 70
     1
102
RTVSPropertyOp45
 70
     1
102
RTVSPropertyOp46
 70
     1
102
RTVSPropertyOp47
 70
     1
102
RTVSPropertyOp48
 70
     1
102
RTVSPropertyOp49
 70
     1
102
RTVSPropertyOp50
 70
     1
102
RTVSPropertyOp51
 70
     0
102
RTVSPropertyOp52
 70
     0
102
RTVSPropertyOp53
 70
     1
102
RTVSPropertyOp54
 70
     1
102
RTVSPropertyOp55
 70
     1
102
RTVSPropertyOp56
 70
     1
102
RTVSPropertyOp57
 70
     1
102
RTVSPropertyOp58
 70
     1
102
RTVSPropertyOp59
 70
     1
102
RTVSPropertyOp60
 70
     1
102
RTVSPropertyOp61
 70
     1
102
RTVSPropertyOp62
 70
     1
  0
XRECORD
  5
66ED
102
{ACAD_REACTORS
330
66EC
102
}
330
66EC
100
AcDbXrecord
280
     1
102
RTVSPost2010Prop28
280
     0
102
RTVSPost2010PropOp28
 70
     1
102
RTVSPost2010Prop29
280
     1
102
RTVSPost2010PropOp29
 70
     1
102
RTVSPost2010Prop30
280
     1
102
RTVSPost2010PropOp30
 70
     1
102
RTVSPost2010Prop31
280
     0
102
RTVSPost2010PropOp31
 70
     1
102
RTVSPost2010Prop32
280
     0
102
RTVSPost2010PropOp32
 70
     1
102
RTVSPost2010Prop33
280
     0
102
RTVSPost2010PropOp33
 70
     1
102
RTVSPost2010Prop34
280
     0
102
RTVSPost2010PropOp34
 70
     1
102
RTVSPost2010Prop35
280
     0
102
RTVSPost2010PropOp35
 70
     1
102
RTVSPost2010Prop36
280
     0
102
RTVSPost2010PropOp36
 70
     1
102
RTVSPost2010Prop37
 90
       50
102
RTVSPost2010PropOp37
 70
     1
102
RTVSPost2010Prop38
140
0.0
102
RTVSPost2010PropOp38
 70
     1
102
RTVSPost2010Prop39
140
1.0
102
RTVSPost2010PropOp39
 70
     1
102
RTVSPost2010Prop40
 90
        0
102
RTVSPost2010PropOp40
 70
     1
102
RTVSPost2010Prop41ColorIndex
 90
       18
102
RTVSPost2010Prop41ColorRGB
 90
        0
102
RTVSPost2010PropOp41
 70
     1
102
RTVSPost2010Prop42
 90
       50
102
RTVSPost2010PropOp42
 70
     1
102
RTVSPost2010Prop43
 90
        3
102
RTVSPost2010PropOp43
 70
     1
102
RTVSPost2010Prop44ColorIndex
 90
        5
102
RTVSPost2010Prop44ColorRGB
 90
      255
102
RTVSPost2010PropOp44
 70
     1
102
RTVSPost2010Prop45
280
     0
102
RTVSPost2010PropOp45
 70
     1
102
RTVSPost2010Prop46
 90
       50
102
RTVSPost2010PropOp46
 70
     1
102
RTVSPost2010Prop47
 90
       50
102
RTVSPost2010PropOp47
 70
     1
102
RTVSPost2010Prop48
 90
       50
102
RTVSPost2010PropOp48
 70
     1
102
RTVSPost2010Prop49
280
     0
102
RTVSPost2010PropOp49
 70
     1
102
RTVSPost2010Prop50
 90
       50
102
RTVSPost2010PropOp50
 70
     1
102
RTVSPost2010Prop51ColorIndex
 90
      256
102
RTVSPost2010Prop51ColorRGB
 90
-16777216
102
RTVSPost2010PropOp51
 70
     0
102
RTVSPost2010Prop52
140
1.0
102
RTVSPost2010PropOp52
 70
     0
102
RTVSPost2010Prop53
 90
        2
102
RTVSPost2010PropOp53
 70
     1
102
RTVSPost2010Prop54
  1
strokes_ogs.tif
102
RTVSPost2010PropOp54
 70
     1
102
RTVSPost2010Prop55
280
     0
102
RTVSPost2010PropOp55
 70
     1
102
RTVSPost2010Prop56
140
1.0
102
RTVSPost2010PropOp56
 70
     1
102
RTVSPost2010Prop57
140
1.0
102
RTVSPost2010PropOp57
 70
     1
102
RTVSPropertyOp0
 70
     1
102
RTVSPropertyOp1
 70
     1
102
RTVSPropertyOp2
 70
     1
102
RTVSPropertyOp3
 70
     1
102
RTVSPropertyOp4
 70
     1
102
RTVSPropertyOp5
 70
     1
102
RTVSPropertyOp6
 70
     1
102
RTVSPropertyOp7
 70
     1
102
RTVSPropertyOp8
 70
     1
102
RTVSPropertyOp9
 70
     1
102
RTVSPropertyOp10
 70
     1
102
RTVSPropertyOp11
 70
     1
102
RTVSPropertyOp12
 70
     1
102
RTVSPropertyOp13
 70
     1
102
RTVSPropertyOp14
 70
     1
102
RTVSPropertyOp15
 70
     1
102
RTVSPropertyOp16
 70
     1
102
RTVSPropertyOp17
 70
     1
102
RTVSPropertyOp18
 70
     1
102
RTVSPropertyOp19
 70
     1
102
RTVSPropertyOp20
 70
     1
102
RTVSPropertyOp21
 70
     1
102
RTVSPropertyOp22
 70
     1
102
RTVSPropertyOp23
 70
     1
102
RTVSPropertyOp24
 70
     1
102
RTVSPropertyOp25
 70
     1
102
RTVSPropertyOp26
 70
     1
102
RTVSPropertyOp27
 70
     1
102
RTVSPropertyOp28
 70
     1
102
RTVSPropertyOp29
 70
     1
102
RTVSPropertyOp30
 70
     1
102
RTVSPropertyOp31
 70
     1
102
RTVSPropertyOp32
 70
     1
102
RTVSPropertyOp33
 70
     1
102
RTVSPropertyOp34
 70
     1
102
RTVSPropertyOp35
 70
     1
102
RTVSPropertyOp36
 70
     1
102
RTVSPropertyOp37
 70
     1
102
RTVSPropertyOp38
 70
     1
102
RTVSPropertyOp39
 70
     1
102
RTVSPropertyOp40
 70
     1
102
RTVSPropertyOp41
 70
     1
102
RTVSPropertyOp42
 70
     1
102
RTVSPropertyOp43
 70
     1
102
RTVSPropertyOp44
 70
     1
102
RTVSPropertyOp45
 70
     1
102
RTVSPropertyOp46
 70
     1
102
RTVSPropertyOp47
 70
     1
102
RTVSPropertyOp48
 70
     1
102
RTVSPropertyOp49
 70
     1
102
RTVSPropertyOp50
 70
     1
102
RTVSPropertyOp51
 70
     0
102
RTVSPropertyOp52
 70
     0
102
RTVSPropertyOp53
 70
     1
102
RTVSPropertyOp54
 70
     1
102
RTVSPropertyOp55
 70
     1
102
RTVSPropertyOp56
 70
     1
102
RTVSPropertyOp57
 70
     1
102
RTVSPropertyOp58
 70
     1
102
RTVSPropertyOp59
 70
     1
102
RTVSPropertyOp60
 70
     1
102
RTVSPropertyOp61
 70
     1
102
RTVSPropertyOp62
 70
     1
  0
XRECORD
  5
66EF
102
{ACAD_REACTORS
330
66EE
102
}
330
66EE
100
AcDbXrecord
280
     1
102
RTVSPost2010Prop28
280
     0
102
RTVSPost2010PropOp28
 70
     1
102
RTVSPost2010Prop29
280
     1
102
RTVSPost2010PropOp29
 70
     1
102
RTVSPost2010Prop30
280
     1
102
RTVSPost2010PropOp30
 70
     1
102
RTVSPost2010Prop31
280
     0
102
RTVSPost2010PropOp31
 70
     1
102
RTVSPost2010Prop32
280
     0
102
RTVSPost2010PropOp32
 70
     1
102
RTVSPost2010Prop33
280
     0
102
RTVSPost2010PropOp33
 70
     1
102
RTVSPost2010Prop34
280
     0
102
RTVSPost2010PropOp34
 70
     1
102
RTVSPost2010Prop35
280
     0
102
RTVSPost2010PropOp35
 70
     1
102
RTVSPost2010Prop36
280
     0
102
RTVSPost2010PropOp36
 70
     1
102
RTVSPost2010Prop37
 90
       50
102
RTVSPost2010PropOp37
 70
     1
102
RTVSPost2010Prop38
140
0.0
102
RTVSPost2010PropOp38
 70
     1
102
RTVSPost2010Prop39
140
1.0
102
RTVSPost2010PropOp39
 70
     1
102
RTVSPost2010Prop40
 90
        0
102
RTVSPost2010PropOp40
 70
     1
102
RTVSPost2010Prop41ColorIndex
 90
       18
102
RTVSPost2010Prop41ColorRGB
 90
        0
102
RTVSPost2010PropOp41
 70
     1
102
RTVSPost2010Prop42
 90
       50
102
RTVSPost2010PropOp42
 70
     1
102
RTVSPost2010Prop43
 90
        3
102
RTVSPost2010PropOp43
 70
     1
102
RTVSPost2010Prop44ColorIndex
 90
        5
102
RTVSPost2010Prop44ColorRGB
 90
      255
102
RTVSPost2010PropOp44
 70
     1
102
RTVSPost2010Prop45
280
     0
102
RTVSPost2010PropOp45
 70
     1
102
RTVSPost2010Prop46
 90
       50
102
RTVSPost2010PropOp46
 70
     1
102
RTVSPost2010Prop47
 90
       50
102
RTVSPost2010PropOp47
 70
     1
102
RTVSPost2010Prop48
 90
       50
102
RTVSPost2010PropOp48
 70
     1
102
RTVSPost2010Prop49
280
     0
102
RTVSPost2010PropOp49
 70
     1
102
RTVSPost2010Prop50
 90
       50
102
RTVSPost2010PropOp50
 70
     1
102
RTVSPost2010Prop51ColorIndex
 90
      256
102
RTVSPost2010Prop51ColorRGB
 90
-16777216
102
RTVSPost2010PropOp51
 70
     0
102
RTVSPost2010Prop52
140
1.0
102
RTVSPost2010PropOp52
 70
     0
102
RTVSPost2010Prop53
 90
        2
102
RTVSPost2010PropOp53
 70
     1
102
RTVSPost2010Prop54
  1
strokes_ogs.tif
102
RTVSPost2010PropOp54
 70
     1
102
RTVSPost2010Prop55
280
     0
102
RTVSPost2010PropOp55
 70
     1
102
RTVSPost2010Prop56
140
1.0
102
RTVSPost2010PropOp56
 70
     1
102
RTVSPost2010Prop57
140
1.0
102
RTVSPost2010PropOp57
 70
     1
102
RTVSPropertyOp0
 70
     1
102
RTVSPropertyOp1
 70
     1
102
RTVSPropertyOp2
 70
     1
102
RTVSPropertyOp3
 70
     1
102
RTVSPropertyOp4
 70
     1
102
RTVSPropertyOp5
 70
     1
102
RTVSPropertyOp6
 70
     1
102
RTVSPropertyOp7
 70
     1
102
RTVSPropertyOp8
 70
     1
102
RTVSPropertyOp9
 70
     1
102
RTVSPropertyOp10
 70
     1
102
RTVSPropertyOp11
 70
     1
102
RTVSPropertyOp12
 70
     1
102
RTVSPropertyOp13
 70
     1
102
RTVSPropertyOp14
 70
     1
102
RTVSPropertyOp15
 70
     1
102
RTVSPropertyOp16
 70
     1
102
RTVSPropertyOp17
 70
     1
102
RTVSPropertyOp18
 70
     1
102
RTVSPropertyOp19
 70
     1
102
RTVSPropertyOp20
 70
     1
102
RTVSPropertyOp21
 70
     1
102
RTVSPropertyOp22
 70
     1
102
RTVSPropertyOp23
 70
     1
102
RTVSPropertyOp24
 70
     1
102
RTVSPropertyOp25
 70
     1
102
RTVSPropertyOp26
 70
     1
102
RTVSPropertyOp27
 70
     1
102
RTVSPropertyOp28
 70
     1
102
RTVSPropertyOp29
 70
     1
102
RTVSPropertyOp30
 70
     1
102
RTVSPropertyOp31
 70
     1
102
RTVSPropertyOp32
 70
     1
102
RTVSPropertyOp33
 70
     1
102
RTVSPropertyOp34
 70
     1
102
RTVSPropertyOp35
 70
     1
102
RTVSPropertyOp36
 70
     1
102
RTVSPropertyOp37
 70
     1
102
RTVSPropertyOp38
 70
     1
102
RTVSPropertyOp39
 70
     1
102
RTVSPropertyOp40
 70
     1
102
RTVSPropertyOp41
 70
     1
102
RTVSPropertyOp42
 70
     1
102
RTVSPropertyOp43
 70
     1
102
RTVSPropertyOp44
 70
     1
102
RTVSPropertyOp45
 70
     1
102
RTVSPropertyOp46
 70
     1
102
RTVSPropertyOp47
 70
     1
102
RTVSPropertyOp48
 70
     1
102
RTVSPropertyOp49
 70
     1
102
RTVSPropertyOp50
 70
     1
102
RTVSPropertyOp51
 70
     0
102
RTVSPropertyOp52
 70
     0
102
RTVSPropertyOp53
 70
     1
102
RTVSPropertyOp54
 70
     1
102
RTVSPropertyOp55
 70
     1
102
RTVSPropertyOp56
 70
     1
102
RTVSPropertyOp57
 70
     1
102
RTVSPropertyOp58
 70
     1
102
RTVSPropertyOp59
 70
     1
102
RTVSPropertyOp60
 70
     1
102
RTVSPropertyOp61
 70
     1
102
RTVSPropertyOp62
 70
     1
  0
XRECORD
  5
66E1
102
{ACAD_REACTORS
330
66E0
102
}
330
66E0
100
AcDbXrecord
280
     1
102
RTVSPost2010Prop28
280
     0
102
RTVSPost2010PropOp28
 70
     1
102
RTVSPost2010Prop29
280
     1
102
RTVSPost2010PropOp29
 70
     1
102
RTVSPost2010Prop30
280
     1
102
RTVSPost2010PropOp30
 70
     1
102
RTVSPost2010Prop31
280
     0
102
RTVSPost2010PropOp31
 70
     1
102
RTVSPost2010Prop32
280
     0
102
RTVSPost2010PropOp32
 70
     1
102
RTVSPost2010Prop33
280
     0
102
RTVSPost2010PropOp33
 70
     1
102
RTVSPost2010Prop34
280
     0
102
RTVSPost2010PropOp34
 70
     1
102
RTVSPost2010Prop35
280
     0
102
RTVSPost2010PropOp35
 70
     1
102
RTVSPost2010Prop36
280
     0
102
RTVSPost2010PropOp36
 70
     1
102
RTVSPost2010Prop37
 90
       50
102
RTVSPost2010PropOp37
 70
     1
102
RTVSPost2010Prop38
140
0.0
102
RTVSPost2010PropOp38
 70
     1
102
RTVSPost2010Prop39
140
1.0
102
RTVSPost2010PropOp39
 70
     1
102
RTVSPost2010Prop40
 90
        0
102
RTVSPost2010PropOp40
 70
     1
102
RTVSPost2010Prop41ColorIndex
 90
       18
102
RTVSPost2010Prop41ColorRGB
 90
        0
102
RTVSPost2010PropOp41
 70
     1
102
RTVSPost2010Prop42
 90
       50
102
RTVSPost2010PropOp42
 70
     1
102
RTVSPost2010Prop43
 90
        3
102
RTVSPost2010PropOp43
 70
     1
102
RTVSPost2010Prop44ColorIndex
 90
        5
102
RTVSPost2010Prop44ColorRGB
 90
      255
102
RTVSPost2010PropOp44
 70
     1
102
RTVSPost2010Prop45
280
     0
102
RTVSPost2010PropOp45
 70
     1
102
RTVSPost2010Prop46
 90
       50
102
RTVSPost2010PropOp46
 70
     1
102
RTVSPost2010Prop47
 90
       50
102
RTVSPost2010PropOp47
 70
     1
102
RTVSPost2010Prop48
 90
       50
102
RTVSPost2010PropOp48
 70
     1
102
RTVSPost2010Prop49
280
     0
102
RTVSPost2010PropOp49
 70
     1
102
RTVSPost2010Prop50
 90
       50
102
RTVSPost2010PropOp50
 70
     1
102
RTVSPost2010Prop51ColorIndex
 90
      256
102
RTVSPost2010Prop51ColorRGB
 90
-16777216
102
RTVSPost2010PropOp51
 70
     0
102
RTVSPost2010Prop52
140
1.0
102
RTVSPost2010PropOp52
 70
     0
102
RTVSPost2010Prop53
 90
        2
102
RTVSPost2010PropOp53
 70
     1
102
RTVSPost2010Prop54
  1
strokes_ogs.tif
102
RTVSPost2010PropOp54
 70
     1
102
RTVSPost2010Prop55
280
     0
102
RTVSPost2010PropOp55
 70
     1
102
RTVSPost2010Prop56
140
1.0
102
RTVSPost2010PropOp56
 70
     1
102
RTVSPost2010Prop57
140
1.0
102
RTVSPost2010PropOp57
 70
     1
102
RTVSPropertyOp0
 70
     1
102
RTVSPropertyOp1
 70
     1
102
RTVSPropertyOp2
 70
     1
102
RTVSPropertyOp3
 70
     1
102
RTVSPropertyOp4
 70
     1
102
RTVSPropertyOp5
 70
     1
102
RTVSPropertyOp6
 70
     1
102
RTVSPropertyOp7
 70
     1
102
RTVSPropertyOp8
 70
     1
102
RTVSPropertyOp9
 70
     1
102
RTVSPropertyOp10
 70
     1
102
RTVSPropertyOp11
 70
     1
102
RTVSPropertyOp12
 70
     1
102
RTVSPropertyOp13
 70
     1
102
RTVSPropertyOp14
 70
     1
102
RTVSPropertyOp15
 70
     1
102
RTVSPropertyOp16
 70
     1
102
RTVSPropertyOp17
 70
     1
102
RTVSPropertyOp18
 70
     1
102
RTVSPropertyOp19
 70
     1
102
RTVSPropertyOp20
 70
     1
102
RTVSPropertyOp21
 70
     1
102
RTVSPropertyOp22
 70
     1
102
RTVSPropertyOp23
 70
     1
102
RTVSPropertyOp24
 70
     1
102
RTVSPropertyOp25
 70
     1
102
RTVSPropertyOp26
 70
     1
102
RTVSPropertyOp27
 70
     1
102
RTVSPropertyOp28
 70
     1
102
RTVSPropertyOp29
 70
     1
102
RTVSPropertyOp30
 70
     1
102
RTVSPropertyOp31
 70
     1
102
RTVSPropertyOp32
 70
     1
102
RTVSPropertyOp33
 70
     1
102
RTVSPropertyOp34
 70
     1
102
RTVSPropertyOp35
 70
     1
102
RTVSPropertyOp36
 70
     1
102
RTVSPropertyOp37
 70
     1
102
RTVSPropertyOp38
 70
     1
102
RTVSPropertyOp39
 70
     1
102
RTVSPropertyOp40
 70
     1
102
RTVSPropertyOp41
 70
     1
102
RTVSPropertyOp42
 70
     1
102
RTVSPropertyOp43
 70
     1
102
RTVSPropertyOp44
 70
     1
102
RTVSPropertyOp45
 70
     1
102
RTVSPropertyOp46
 70
     1
102
RTVSPropertyOp47
 70
     1
102
RTVSPropertyOp48
 70
     1
102
RTVSPropertyOp49
 70
     1
102
RTVSPropertyOp50
 70
     1
102
RTVSPropertyOp51
 70
     0
102
RTVSPropertyOp52
 70
     0
102
RTVSPropertyOp53
 70
     1
102
RTVSPropertyOp54
 70
     1
102
RTVSPropertyOp55
 70
     1
102
RTVSPropertyOp56
 70
     1
102
RTVSPropertyOp57
 70
     1
102
RTVSPropertyOp58
 70
     1
102
RTVSPropertyOp59
 70
     1
102
RTVSPropertyOp60
 70
     1
102
RTVSPropertyOp61
 70
     1
102
RTVSPropertyOp62
 70
     1
  0
XRECORD
  5
66E9
102
{ACAD_REACTORS
330
66E8
102
}
330
66E8
100
AcDbXrecord
280
     1
102
RTVSPost2010Prop28
280
     0
102
RTVSPost2010PropOp28
 70
     1
102
RTVSPost2010Prop29
280
     1
102
RTVSPost2010PropOp29
 70
     1
102
RTVSPost2010Prop30
280
     1
102
RTVSPost2010PropOp30
 70
     1
102
RTVSPost2010Prop31
280
     0
102
RTVSPost2010PropOp31
 70
     1
102
RTVSPost2010Prop32
280
     0
102
RTVSPost2010PropOp32
 70
     1
102
RTVSPost2010Prop33
280
     0
102
RTVSPost2010PropOp33
 70
     1
102
RTVSPost2010Prop34
280
     0
102
RTVSPost2010PropOp34
 70
     1
102
RTVSPost2010Prop35
280
     0
102
RTVSPost2010PropOp35
 70
     1
102
RTVSPost2010Prop36
280
     0
102
RTVSPost2010PropOp36
 70
     1
102
RTVSPost2010Prop37
 90
       50
102
RTVSPost2010PropOp37
 70
     1
102
RTVSPost2010Prop38
140
0.0
102
RTVSPost2010PropOp38
 70
     1
102
RTVSPost2010Prop39
140
1.0
102
RTVSPost2010PropOp39
 70
     1
102
RTVSPost2010Prop40
 90
        0
102
RTVSPost2010PropOp40
 70
     1
102
RTVSPost2010Prop41ColorIndex
 90
       18
102
RTVSPost2010Prop41ColorRGB
 90
        0
102
RTVSPost2010PropOp41
 70
     1
102
RTVSPost2010Prop42
 90
       50
102
RTVSPost2010PropOp42
 70
     1
102
RTVSPost2010Prop43
 90
        3
102
RTVSPost2010PropOp43
 70
     1
102
RTVSPost2010Prop44ColorIndex
 90
        5
102
RTVSPost2010Prop44ColorRGB
 90
      255
102
RTVSPost2010PropOp44
 70
     1
102
RTVSPost2010Prop45
280
     0
102
RTVSPost2010PropOp45
 70
     1
102
RTVSPost2010Prop46
 90
       50
102
RTVSPost2010PropOp46
 70
     1
102
RTVSPost2010Prop47
 90
       50
102
RTVSPost2010PropOp47
 70
     1
102
RTVSPost2010Prop48
 90
       50
102
RTVSPost2010PropOp48
 70
     1
102
RTVSPost2010Prop49
280
     0
102
RTVSPost2010PropOp49
 70
     1
102
RTVSPost2010Prop50
 90
       50
102
RTVSPost2010PropOp50
 70
     1
102
RTVSPost2010Prop51ColorIndex
 90
      256
102
RTVSPost2010Prop51ColorRGB
 90
-16777216
102
RTVSPost2010PropOp51
 70
     0
102
RTVSPost2010Prop52
140
1.0
102
RTVSPost2010PropOp52
 70
     0
102
RTVSPost2010Prop53
 90
        2
102
RTVSPost2010PropOp53
 70
     1
102
RTVSPost2010Prop54
  1
strokes_ogs.tif
102
RTVSPost2010PropOp54
 70
     1
102
RTVSPost2010Prop55
280
     0
102
RTVSPost2010PropOp55
 70
     1
102
RTVSPost2010Prop56
140
1.0
102
RTVSPost2010PropOp56
 70
     1
102
RTVSPost2010Prop57
140
1.0
102
RTVSPost2010PropOp57
 70
     1
102
RTVSPropertyOp0
 70
     1
102
RTVSPropertyOp1
 70
     1
102
RTVSPropertyOp2
 70
     1
102
RTVSPropertyOp3
 70
     1
102
RTVSPropertyOp4
 70
     1
102
RTVSPropertyOp5
 70
     1
102
RTVSPropertyOp6
 70
     1
102
RTVSPropertyOp7
 70
     1
102
RTVSPropertyOp8
 70
     1
102
RTVSPropertyOp9
 70
     1
102
RTVSPropertyOp10
 70
     1
102
RTVSPropertyOp11
 70
     1
102
RTVSPropertyOp12
 70
     1
102
RTVSPropertyOp13
 70
     1
102
RTVSPropertyOp14
 70
     1
102
RTVSPropertyOp15
 70
     1
102
RTVSPropertyOp16
 70
     1
102
RTVSPropertyOp17
 70
     1
102
RTVSPropertyOp18
 70
     1
102
RTVSPropertyOp19
 70
     1
102
RTVSPropertyOp20
 70
     1
102
RTVSPropertyOp21
 70
     1
102
RTVSPropertyOp22
 70
     1
102
RTVSPropertyOp23
 70
     1
102
RTVSPropertyOp24
 70
     1
102
RTVSPropertyOp25
 70
     1
102
RTVSPropertyOp26
 70
     1
102
RTVSPropertyOp27
 70
     1
102
RTVSPropertyOp28
 70
     1
102
RTVSPropertyOp29
 70
     1
102
RTVSPropertyOp30
 70
     1
102
RTVSPropertyOp31
 70
     1
102
RTVSPropertyOp32
 70
     1
102
RTVSPropertyOp33
 70
     1
102
RTVSPropertyOp34
 70
     1
102
RTVSPropertyOp35
 70
     1
102
RTVSPropertyOp36
 70
     1
102
RTVSPropertyOp37
 70
     1
102
RTVSPropertyOp38
 70
     1
102
RTVSPropertyOp39
 70
     1
102
RTVSPropertyOp40
 70
     1
102
RTVSPropertyOp41
 70
     1
102
RTVSPropertyOp42
 70
     1
102
RTVSPropertyOp43
 70
     1
102
RTVSPropertyOp44
 70
     1
102
RTVSPropertyOp45
 70
     1
102
RTVSPropertyOp46
 70
     1
102
RTVSPropertyOp47
 70
     1
102
RTVSPropertyOp48
 70
     1
102
RTVSPropertyOp49
 70
     1
102
RTVSPropertyOp50
 70
     1
102
RTVSPropertyOp51
 70
     0
102
RTVSPropertyOp52
 70
     0
102
RTVSPropertyOp53
 70
     1
102
RTVSPropertyOp54
 70
     1
102
RTVSPropertyOp55
 70
     1
102
RTVSPropertyOp56
 70
     1
102
RTVSPropertyOp57
 70
     1
102
RTVSPropertyOp58
 70
     1
102
RTVSPropertyOp59
 70
     1
102
RTVSPropertyOp60
 70
     1
102
RTVSPropertyOp61
 70
     1
102
RTVSPropertyOp62
 70
     1
  0
XRECORD
  5
66F1
102
{ACAD_REACTORS
330
66F0
102
}
330
66F0
100
AcDbXrecord
280
     1
102
RTVSPost2010Prop28
280
     0
102
RTVSPost2010PropOp28
 70
     1
102
RTVSPost2010Prop29
280
     1
102
RTVSPost2010PropOp29
 70
     1
102
RTVSPost2010Prop30
280
     1
102
RTVSPost2010PropOp30
 70
     1
102
RTVSPost2010Prop31
280
     0
102
RTVSPost2010PropOp31
 70
     1
102
RTVSPost2010Prop32
280
     0
102
RTVSPost2010PropOp32
 70
     1
102
RTVSPost2010Prop33
280
     0
102
RTVSPost2010PropOp33
 70
     1
102
RTVSPost2010Prop34
280
     0
102
RTVSPost2010PropOp34
 70
     1
102
RTVSPost2010Prop35
280
     0
102
RTVSPost2010PropOp35
 70
     1
102
RTVSPost2010Prop36
280
     0
102
RTVSPost2010PropOp36
 70
     1
102
RTVSPost2010Prop37
 90
       50
102
RTVSPost2010PropOp37
 70
     1
102
RTVSPost2010Prop38
140
0.0
102
RTVSPost2010PropOp38
 70
     1
102
RTVSPost2010Prop39
140
1.0
102
RTVSPost2010PropOp39
 70
     1
102
RTVSPost2010Prop40
 90
        0
102
RTVSPost2010PropOp40
 70
     1
102
RTVSPost2010Prop41ColorIndex
 90
       18
102
RTVSPost2010Prop41ColorRGB
 90
        0
102
RTVSPost2010PropOp41
 70
     1
102
RTVSPost2010Prop42
 90
       50
102
RTVSPost2010PropOp42
 70
     1
102
RTVSPost2010Prop43
 90
        3
102
RTVSPost2010PropOp43
 70
     1
102
RTVSPost2010Prop44ColorIndex
 90
        5
102
RTVSPost2010Prop44ColorRGB
 90
      255
102
RTVSPost2010PropOp44
 70
     1
102
RTVSPost2010Prop45
280
     0
102
RTVSPost2010PropOp45
 70
     1
102
RTVSPost2010Prop46
 90
       50
102
RTVSPost2010PropOp46
 70
     1
102
RTVSPost2010Prop47
 90
       50
102
RTVSPost2010PropOp47
 70
     1
102
RTVSPost2010Prop48
 90
       50
102
RTVSPost2010PropOp48
 70
     1
102
RTVSPost2010Prop49
280
     0
102
RTVSPost2010PropOp49
 70
     1
102
RTVSPost2010Prop50
 90
       50
102
RTVSPost2010PropOp50
 70
     1
102
RTVSPost2010Prop51ColorIndex
 90
      256
102
RTVSPost2010Prop51ColorRGB
 90
-16777216
102
RTVSPost2010PropOp51
 70
     0
102
RTVSPost2010Prop52
140
1.0
102
RTVSPost2010PropOp52
 70
     0
102
RTVSPost2010Prop53
 90
        2
102
RTVSPost2010PropOp53
 70
     1
102
RTVSPost2010Prop54
  1
strokes_ogs.tif
102
RTVSPost2010PropOp54
 70
     1
102
RTVSPost2010Prop55
280
     0
102
RTVSPost2010PropOp55
 70
     1
102
RTVSPost2010Prop56
140
1.0
102
RTVSPost2010PropOp56
 70
     1
102
RTVSPost2010Prop57
140
1.0
102
RTVSPost2010PropOp57
 70
     1
102
RTVSPropertyOp0
 70
     1
102
RTVSPropertyOp1
 70
     1
102
RTVSPropertyOp2
 70
     1
102
RTVSPropertyOp3
 70
     1
102
RTVSPropertyOp4
 70
     1
102
RTVSPropertyOp5
 70
     1
102
RTVSPropertyOp6
 70
     1
102
RTVSPropertyOp7
 70
     1
102
RTVSPropertyOp8
 70
     1
102
RTVSPropertyOp9
 70
     1
102
RTVSPropertyOp10
 70
     1
102
RTVSPropertyOp11
 70
     1
102
RTVSPropertyOp12
 70
     1
102
RTVSPropertyOp13
 70
     1
102
RTVSPropertyOp14
 70
     1
102
RTVSPropertyOp15
 70
     1
102
RTVSPropertyOp16
 70
     1
102
RTVSPropertyOp17
 70
     1
102
RTVSPropertyOp18
 70
     1
102
RTVSPropertyOp19
 70
     1
102
RTVSPropertyOp20
 70
     1
102
RTVSPropertyOp21
 70
     1
102
RTVSPropertyOp22
 70
     1
102
RTVSPropertyOp23
 70
     1
102
RTVSPropertyOp24
 70
     1
102
RTVSPropertyOp25
 70
     1
102
RTVSPropertyOp26
 70
     1
102
RTVSPropertyOp27
 70
     1
102
RTVSPropertyOp28
 70
     1
102
RTVSPropertyOp29
 70
     1
102
RTVSPropertyOp30
 70
     1
102
RTVSPropertyOp31
 70
     1
102
RTVSPropertyOp32
 70
     1
102
RTVSPropertyOp33
 70
     1
102
RTVSPropertyOp34
 70
     1
102
RTVSPropertyOp35
 70
     1
102
RTVSPropertyOp36
 70
     1
102
RTVSPropertyOp37
 70
     1
102
RTVSPropertyOp38
 70
     1
102
RTVSPropertyOp39
 70
     1
102
RTVSPropertyOp40
 70
     1
102
RTVSPropertyOp41
 70
     1
102
RTVSPropertyOp42
 70
     1
102
RTVSPropertyOp43
 70
     1
102
RTVSPropertyOp44
 70
     1
102
RTVSPropertyOp45
 70
     1
102
RTVSPropertyOp46
 70
     1
102
RTVSPropertyOp47
 70
     1
102
RTVSPropertyOp48
 70
     1
102
RTVSPropertyOp49
 70
     1
102
RTVSPropertyOp50
 70
     1
102
RTVSPropertyOp51
 70
     0
102
RTVSPropertyOp52
 70
     0
102
RTVSPropertyOp53
 70
     1
102
RTVSPropertyOp54
 70
     1
102
RTVSPropertyOp55
 70
     1
102
RTVSPropertyOp56
 70
     1
102
RTVSPropertyOp57
 70
     1
102
RTVSPropertyOp58
 70
     1
102
RTVSPropertyOp59
 70
     1
102
RTVSPropertyOp60
 70
     1
102
RTVSPropertyOp61
 70
     1
102
RTVSPropertyOp62
 70
     1
  0
ENDSEC
  0
EOF
